#TITLE:疾風;
#SUBTITLE:;
#ARTIST:Power Of Nature;
#TITLETRANSLIT:HAYATE;
#SUBTITLETRANSLIT:;
#ARTISTTRANSLIT:;
#GENRE:;
#CREDIT:DigiMindAxel;
#BANNER:HAYATE.png;
#BACKGROUND:HAYATE-bg.png;
#LYRICSPATH:;
#CDTITLE:pop'n music.png;
#MUSIC:HAYATE.ogg;
#OFFSET:-5.660000;
#SAMPLESTART:32.292999;
#SAMPLELENGTH:12.000000;
#SELECTABLE:YES;
#BPMS:0.000000=180.000000
;
#STOPS:
;
#BGCHANGES:;
#KEYSOUNDS:;
#ATTACKS:;

//---------------dance-single - ----------------
#NOTES:
     dance-single:
     :
     Hard:
     14:
     0.712558,0.711039,0.385708,0.227918,0.324345,569.000000,525.000000,44.000000,26.000000,0.000000,0.000000,0.712558,0.711039,0.385708,0.227918,0.324345,569.000000,525.000000,44.000000,26.000000,0.000000,0.000000:
0000
1000
1000
1000
1000
0100
0000
0010
,
0010
0010
0010
0001
0000
0100
0010
1000
,
0000
0001
0001
0001
0001
0010
0000
0100
,
0100
0100
0100
0010
0000
0001
0100
0010
,
1000
0000
0000
1000
0001
0000
0000
0001
0100
0000
0000
0100
0010
0000
1000
0000
,
0100
0000
0000
1000
0001
0000
0000
0001
0010
0000
0000
0010
0100
0000
1000
0000
,
0001
0000
0000
1000
0001
0000
0000
0001
0010
0000
0000
0010
0100
0000
1000
0000
,
0001
0000
0000
0100
0001
0000
0000
0001
1000
0000
0000
1000
0100
0000
0010
0000
,
0001
0100
0002
0000
1003
0100
0010
0002
,
0000
1000
1003
0000
0000
0010
1000
0100
,
0010
0000
0101
0000
1100
0000
1000
0001
,
0001
0000
0100
0000
0020
0000
0000
0000
1030
0000
0000
0100
0000
0000
0010
0000
,
0001
1000
0200
0000
1300
0100
0010
0002
,
0000
0100
0103
0000
0000
0001
0010
0100
,
1000
0001
1000
0000
1010
0000
0000
0000
0110
0000
0000
0000
0101
0000
0000
0000
,
1001
0000
0000
0000
0100
1000
0000
0000
0010
0100
0000
0000
0001
0010
0001
0000
,
1000
1000
1000
1000
1000
0001
0000
0100
,
0100
0100
0100
0010
0000
1000
0100
0010
,
0000
0001
0001
0001
0001
1000
0000
0010
,
0010
0010
0010
0100
0000
0001
0010
0100
,
1000
0000
0010
0100
0020
0000
0000
0000
1030
0000
0001
0000
0010
0000
0200
0000
,
0000
0000
1300
0001
1000
0000
0010
0000
0000
0000
0010
0000
1000
0000
0100
0000
,
0010
0000
0101
0000
1100
0000
1000
0001
,
0001
0000
1000
0000
0200
0000
0000
0000
1300
0000
0000
0010
0000
0000
0100
0000
,
0001
0000
1000
0100
2000
0000
0000
0000
3100
0000
0010
0000
0001
0000
0200
0000
,
0000
0000
0301
0100
0001
0000
1000
0000
0000
0000
0100
0000
0010
0000
0001
0000
,
1000
0100
1000
0000
1001
0000
0000
0000
0011
0000
0000
0000
0110
0000
0000
0000
,
1001
0000
0000
0000
0010
0001
0000
0000
0100
0010
0000
0000
1000
0100
1000
0000
,
0001
0000
0000
0000
1000
0001
1000
0001
1000
0000
0000
0000
0100
0000
0010
0000
,
0100
1000
0001
0200
0000
0001
0301
1000
,
0000
0000
0000
0000
0001
1000
0001
1000
0001
0000
0000
0000
0010
0000
0100
0000
,
0010
0001
1000
0020
0000
0100
0130
0001
,
1001
0000
0000
0000
1000
0001
1000
0001
1000
0000
0000
0000
0100
0000
0010
0000
,
0100
1000
0001
0200
0000
0001
0301
1000
,
0000
0000
0000
0000
0001
1000
0001
1000
0001
0000
0000
0000
0010
0000
0100
0000
,
0010
0000
0001
1000
0001
0000
0200
0000
0000
0000
0010
0000
0310
0000
1000
0000
,
1001
1100
0102
1000
,
0103
1100
0110
0011
,
2001
0100
3002
0100
,
2003
0001
0100
3001
,
1001
0010
0100
2000
0000
0010
3010
0100
,
0001
0010
0100
2000
0000
0010
3010
0100
,
0010
1000
0100
0001
0100
1000
0100
0010
,
1001
0000
0110
0000
1001
0010
0100
1000
,
0000
0001
0001
0001
0001
1000
0000
0100
,
0100
0100
0100
0010
0000
0001
0100
0010
,
0000
1000
1000
1000
1000
0001
0000
0010
,
0010
0010
0010
0001
0000
0010
0100
1000
,
0002
0000
0103
0000
1001
0000
1000
0100
,
0000
0010
0100
0000
1000
0000
1001
0000
,
2000
0000
3100
0000
1001
0000
0001
0010
,
0000
0000
0000
0100
0000
0000
0010
0000
0000
0000
0000
0000
0001
0000
1000
0000
0001
0000
1000
0000
0100
0000
0010
0000
,
0002
0000
0103
0000
1001
0000
1000
0100
,
0000
0010
0100
0000
0110
0000
1001
0000
,
2000
0000
3010
0000
1001
0000
0001
0010
,
0000
0000
0000
0100
0000
0000
0010
0000
0000
0000
0000
0000
0001
0000
1000
0000
0001
0000
1000
0000
0100
0000
0010
0000
,
0001
0100
0001
0000
0000
0000
1001
0000
0100
0000
0010
0000
0001
0000
1000
0000
,
0100
1000
0100
0000
0000
0000
1001
0000
0010
0000
0100
0000
1000
0000
0010
0000
,
0110
0000
0000
0101
0000
0000
0110
0000
0000
0000
1000
0001
1000
0000
0010
0000
,
0000
0000
0010
0000
0000
0000
1001
0000
0001
0000
0000
0010
0000
0000
0100
0000
,
1000
0001
1000
0000
0000
0000
0100
0000
0010
0000
0100
0000
1000
0000
0010
0000
,
0100
0001
0100
0000
0000
0000
1001
0000
0010
0000
0100
0000
1000
0000
0100
0000
,
0110
0000
0000
1010
0000
0000
0110
0000
0000
0000
0001
1000
0001
0000
0100
0000
,
0000
0000
0100
0000
0000
0000
1001
0000
0000
0000
1000
0000
0001
1000
0001
0000
,
1000
0100
0000
0000
0010
0100
0000
0000
0010
0001
0000
0000
1000
0001
1000
0000
,
0001
0000
0000
0000
1000
0100
1000
0100
1000
0000
0001
0000
1000
0000
0100
0000
,
0001
0100
1000
0001
0010
0100
0010
0001
,
1000
0000
0000
0000
0001
0100
0001
0100
0001
0000
1000
0000
0001
0000
0010
0000
,
1000
0010
0001
1000
0100
0010
0100
1000
,
1001
0000
0000
0000
1000
0010
1000
0010
1000
0000
0001
0000
1000
0000
0100
0000
,
0001
0000
0100
0000
1000
0000
0010
0000
0100
0000
0001
0000
,
1001
0000
0000
0000
0100
0010
0100
0010
0100
0000
0001
0000
0100
0000
1000
0000
,
0100
0000
0001
1000
0001
0000
2000
0000
0000
0000
3010
0100
0010
0100
0010
0000
,
1000
0001
0001
0001
0001
1000
0000
0100
,
0100
0000
0100
0000
0100
0000
1000
0000
0000
0000
0100
0000
0010
0000
0001
0100
,
0000
0010
0010
0010
0010
0100
0000
0001
,
0001
0000
0001
0000
0001
0000
1000
0000
0000
0000
0010
0000
0100
0000
0001
2000
,
0000
3000
0000
0000
;

//---------------dance-single - ----------------
#NOTES:
     dance-single:
     :
     Easy:
     5:
     0.251712,0.302759,0.061363,0.350643,0.000000,201.000000,194.000000,7.000000,40.000000,0.000000,0.000000,0.251712,0.302759,0.061363,0.350643,0.000000,201.000000,194.000000,7.000000,40.000000,0.000000,0.000000:
// measure 0
1000
0000
1000
0000
,  // measure 1
1000
0000
1000
0000
,  // measure 2
0001
0000
0001
0000
,  // measure 3
2002
0000
3003
0000
,  // measure 4
2000
0000
0100
0000
,  // measure 5
0100
0000
3100
0000
,  // measure 6
0020
0000
0001
0000
,  // measure 7
0001
0000
0031
0000
,  // measure 8
1001
0000
0010
0100
,  // measure 9
0010
0100
0000
0001
,  // measure 10
2000
0000
3200
0000
,  // measure 11
0320
0000
0030
0000
,  // measure 12
1001
0000
0100
0010
,  // measure 13
0100
0010
0000
1000
,  // measure 14
0002
0000
1000
0000
,  // measure 15
1003
0100
0010
0001
,  // measure 16
1000
0000
1000
0000
,  // measure 17
1000
0000
1000
0000
,  // measure 18
0001
0000
0001
0000
,  // measure 19
0001
0000
0001
0000
,  // measure 20
1001
0000
0010
0100
,  // measure 21
0010
0100
0000
0001
,  // measure 22
0010
0100
1000
0010
,  // measure 23
0100
0001
0000
0000
,  // measure 24
1001
0000
0100
0010
,  // measure 25
0100
0010
0000
1000
,  // measure 26
0002
0000
1000
0000
,  // measure 27
1003
0100
0010
0001
,  // measure 28
1000
0002
0000
1003
,  // measure 29
0100
1000
0001
0100
,  // measure 30
0001
2000
0000
3001
,  // measure 31
0100
0001
1000
0100
,  // measure 32
1000
0020
0000
0130
,  // measure 33
0010
0100
0001
1000
,  // measure 34
0001
0200
0000
0310
,  // measure 35
0100
0010
1000
0001
,  // measure 36
0100
0000
0200
0000
,  // measure 37
0000
0310
0100
0010
,  // measure 38
2000
0000
3002
0000
,  // measure 39
2003
0000
3002
0000
,  // measure 40
0023
0000
0000
0000
,  // measure 41
0230
0000
0000
0000
,  // measure 42
1300
0000
1000
0000
,  // measure 43
0100
0010
0001
1000
,  // measure 44
0020
0000
0000
0000
,  // measure 45
0000
0000
0030
0000
,  // measure 46
0200
0000
0000
0000
,  // measure 47
0000
0000
0300
0000
,  // measure 48
0020
0000
0130
0000
,  // measure 49
0001
0000
1000
0000
,  // measure 50
0020
0000
0130
0000
,  // measure 51
0001
0000
1000
0000
,  // measure 52
0200
0000
0310
0000
,  // measure 53
0001
0000
1000
0000
,  // measure 54
0200
0000
0310
0000
,  // measure 55
0001
0000
1000
0000
,  // measure 56
1001
0000
1000
0001
,  // measure 57
2000
3001
0010
0100
,  // measure 58
1000
0001
1000
0001
,  // measure 59
1000
0000
0020
0000
,  // measure 60
0130
0000
0010
0100
,  // measure 61
0002
1003
0100
0010
,  // measure 62
0001
1000
0001
1000
,  // measure 63
0001
0100
0010
0100
,  // measure 64
0010
1000
0001
1000
,  // measure 65
0001
2000
0000
3001
,  // measure 66
0010
0001
1000
0010
,  // measure 67
1000
0002
0000
1003
,  // measure 68
0100
1000
0001
0100
,  // measure 69
0001
2000
0000
3001
,  // measure 70
0220
0000
0000
0000
,  // measure 71
0330
2000
0000
3001
,  // measure 72
0100
0001
1000
0100
,  // measure 73
0020
0000
0030
0000
,  // measure 74
0002
0000
2003
0000
,  // measure 75
3200
0000
0300
0020
,  // measure 76
0000
0030
0100
0010
;

//---------------dance-single - ----------------
#NOTES:
     dance-single:
     :
     Medium:
     11:
     0.457089,0.506241,0.140257,0.447070,0.000000,365.000000,349.000000,16.000000,51.000000,0.000000,0.000000,0.457089,0.506241,0.140257,0.447070,0.000000,365.000000,349.000000,16.000000,51.000000,0.000000,0.000000:
1000
1000
1000
1000
,
0001
0001
0001
0100
,
0001
0001
0001
0001
,
1000
1000
1000
0010
,
0200
0302
0203
0302
,
2003
3200
2300
3200
,
2300
3002
2003
3002
,
0203
0302
0203
0302
,
1003
0001
1000
0000
0010
0100
0010
0000
,
0100
0000
0001
0100
0000
0001
1000
0100
,
1000
0100
0010
0001
,
0100
0110
2000
0000
,
3001
1000
0001
0000
0100
0010
0100
0000
,
0010
0000
1000
0010
0000
1000
0001
0010
,
0001
0010
0100
1000
,
0110
0001
0010
0100
,
1001
0001
0001
0001
,
1000
1000
1000
0010
,
0100
0100
0100
0100
,
0001
0000
0001
0000
0001
1000
0001
1000
,
0001
0100
0001
0000
1000
0100
1000
0000
,
0010
0000
0100
0001
0000
1000
0010
0100
,
0010
1000
0100
0001
,
0100
1000
0002
0000
,
1003
0001
1000
0000
0010
0100
0010
0000
,
0100
0000
0010
1000
0000
0001
0010
0100
,
0010
0001
1000
0001
,
1001
0010
0100
1000
,
0001
0000
1000
0001
1000
0000
0001
0100
,
0010
0100
0001
2000
0000
3001
0000
0100
,
0000
0000
0001
1000
0001
0000
1000
0010
,
0100
0010
1000
0002
0000
1003
0000
0010
,
0000
0000
1000
0001
1000
0000
0001
0010
,
0100
0010
0001
2000
0000
3010
0000
0100
,
0000
0000
0001
1000
0001
0000
1000
0100
,
0010
0100
1000
0002
0000
0103
0010
0100
,
0002
0000
0023
0000
,
0030
0001
0010
0100
,
1000
0100
0001
0100
,
1000
0010
0001
0010
,
2000
0000
0000
3001
0000
0100
0010
0000
,
2000
0000
0000
3001
0000
0100
0010
0000
,
0100
0000
0001
0100
0000
0010
1000
0000
,
0010
0100
0010
0000
1000
0001
1000
0001
,
1000
0200
0000
0000
0000
0300
0000
2000
,
0000
0000
0000
3001
0000
0020
0000
0000
,
0030
1001
0000
1001
,
0001
0010
0100
1000
,
0020
0000
0000
0000
0130
0000
0001
1000
,
0000
0001
1000
0000
1000
0000
1000
0000
,
0020
0000
0000
0000
0130
0000
0001
1000
,
0000
0001
1000
0000
1000
0001
1000
0001
,
0020
0000
0000
0000
0130
0000
1000
0001
,
0000
1000
0001
0000
1000
0000
1000
0000
,
0020
0000
0000
0000
0130
0000
0001
1000
,
0000
0001
1000
0000
0001
1000
0001
0000
,
2002
0000
3003
0000
0100
0001
1000
0100
,
2002
0000
3003
0010
0100
0010
1000
0001
,
1001
0000
0000
1001
0000
1000
0001
0010
,
0100
1000
0001
0000
0100
0000
0100
0000
,
2002
0000
3003
0000
0100
1000
0001
0100
,
2002
0000
3003
0100
0010
0100
0001
1000
,
1001
0000
0000
1001
0000
0001
1000
0010
,
1000
0100
0001
0100
,
1001
0010
1000
0010
,
0001
0000
1000
0001
1000
0000
0010
0100
,
0010
1000
0100
0020
0000
0031
0000
1000
,
0000
0000
0001
1000
0001
0000
0100
0010
,
0100
0001
0010
0200
0000
1300
0000
0001
,
0000
0000
0100
0010
0100
0000
0001
1000
,
0002
0000
2003
0000
,
3010
0000
0100
0010
0100
0000
0001
1000
,
0001
0010
0100
2000
0000
0001
0000
3001
,
0000
0200
0000
0000
0000
0300
0000
0020
,
0000
0000
0000
0030
0000
2000
0000
3001
,
0000
0200
0000
0000
0000
0300
0000
0020
,
0000
0000
0130
1001
,
1000
0000
0000
0000
;

//---------------dance-single - ----------------
#NOTES:
     dance-single:
     :
     Beginner:
     2:
     0.087661,0.168199,0.061363,0.000000,0.000000,70.000000,63.000000,7.000000,0.000000,0.000000,0.000000,0.087661,0.168199,0.061363,0.000000,0.000000,70.000000,63.000000,7.000000,0.000000,0.000000,0.000000:
// measure 0
1000
0000
0000
0000
,  // measure 1
0000
0000
0000
0000
,  // measure 2
1000
0000
0000
0000
,  // measure 3
0000
0000
0000
0000
,  // measure 4
1001
0000
0000
0000
,  // measure 5
0001
0000
0000
0000
,  // measure 6
1000
0000
0000
0000
,  // measure 7
0001
0000
0000
0000
,  // measure 8
0100
0000
0000
0000
,  // measure 9
0010
0000
0000
0000
,  // measure 10
0100
0000
0000
0000
,  // measure 11
0100
0000
0000
0000
,  // measure 12
0110
0000
0000
0000
,  // measure 13
0001
0000
0000
0000
,  // measure 14
1001
0000
0000
0000
,  // measure 15
1000
0000
0000
0000
,  // measure 16
0001
0000
0000
0000
,  // measure 17
0000
0000
0000
0000
,  // measure 18
0100
0000
0000
0000
,  // measure 19
0000
0000
0000
0000
,  // measure 20
0010
0000
0000
0000
,  // measure 21
0100
0000
0000
0000
,  // measure 22
0010
0000
0000
0000
,  // measure 23
0100
0000
0000
0000
,  // measure 24
0001
0000
0000
0000
,  // measure 25
0001
0000
0000
0000
,  // measure 26
1000
0000
0000
0000
,  // measure 27
1001
0000
0000
0000
,  // measure 28
0100
0000
0000
0000
,  // measure 29
0010
0000
0000
0000
,  // measure 30
0100
0000
0000
0000
,  // measure 31
0010
0000
0000
0000
,  // measure 32
0001
0000
0000
0000
,  // measure 33
1000
0000
0000
0000
,  // measure 34
0001
0000
0000
0000
,  // measure 35
1000
0000
0000
0000
,  // measure 36
0001
0000
0000
0000
,  // measure 37
0000
0000
0000
0000
,  // measure 38
0001
0000
0000
0000
,  // measure 39
0000
0000
0000
0000
,  // measure 40
1000
0000
0000
0000
,  // measure 41
1000
0000
0000
0000
,  // measure 42
1000
0000
0001
0000
,  // measure 43
1000
0000
0000
0000
,  // measure 44
1001
0000
0000
0000
,  // measure 45
0000
0000
0000
0000
,  // measure 46
0010
0000
0000
0000
,  // measure 47
0000
0000
0000
0000
,  // measure 48
0100
0000
0000
0000
,  // measure 49
0000
0000
0000
0000
,  // measure 50
0010
0000
0000
0000
,  // measure 51
0000
0000
0000
0000
,  // measure 52
1000
0000
0000
0000
,  // measure 53
0000
0000
0000
0000
,  // measure 54
0100
0000
0000
0000
,  // measure 55
0000
0000
0000
0000
,  // measure 56
0010
0000
0000
0000
,  // measure 57
0001
0000
0000
0000
,  // measure 58
1000
0000
0000
0000
,  // measure 59
0001
0000
0000
0000
,  // measure 60
1000
0000
0000
0000
,  // measure 61
0001
0000
0000
0000
,  // measure 62
0100
0000
0000
0000
,  // measure 63
0010
0000
0000
0000
,  // measure 64
0100
0000
0000
0000
,  // measure 65
0110
0000
0000
0000
,  // measure 66
0000
0000
0000
0000
,  // measure 67
0001
0000
0000
0000
,  // measure 68
0000
0000
0000
0000
,  // measure 69
1000
0000
0000
0000
,  // measure 70
0001
0000
0000
0000
,  // measure 71
1000
0000
0000
0000
,  // measure 72
0010
0000
0000
0000
,  // measure 73
0110
0000
0000
0000
,  // measure 74
0000
0000
0000
0000
,  // measure 75
0010
0000
0000
0000
,  // measure 76
0000
0000
0000
0010
;

//---------------dance-single - ----------------
#NOTES:
     dance-single:
     :
     Challenge:
     16:
     0.986811,1.015770,0.885375,0.298047,0.731968,788.000000,687.000000,101.000000,34.000000,0.000000,0.000000,0.986811,1.015770,0.885375,0.298047,0.731968,788.000000,687.000000,101.000000,34.000000,0.000000,0.000000:
0000
0100
0100
0100
0100
0010
0000
0100
,
0100
0100
0100
0001
0000
0001
0001
0001
,
0000
0100
0100
0100
0100
0010
0000
0100
,
0100
0100
0100
0001
0000
0001
0001
0001
,
1000
0100
0010
0000
0001
0100
0000
0100
0010
0000
0010
1000
0000
1000
0001
0000
,
0010
0100
1000
0000
0010
0100
0000
0100
0001
0000
0001
1000
0000
1000
0010
0000
,
1000
0100
0010
0000
0001
1000
0000
1000
0100
0000
0100
0010
0000
0010
0001
0000
,
0100
0010
1000
0000
0001
0100
0000
0100
0010
1000
0010
1000
0100
0010
0100
0010
,
0001
0000
0010
0100
2000
0000
0000
0000
3001
0000
1000
0010
0100
0000
0002
0000
,
0000
0000
0013
0100
2000
0000
0001
0000
3000
0000
0001
1000
0100
0000
0010
0000
,
0001
0000
1000
0010
0100
0000
0100
0010
1000
0000
1000
0010
0100
0000
0010
0100
,
0001
0000
1000
0100
0020
0000
0000
0000
0031
0000
0000
0110
0000
0000
1100
0000
,
1001
0000
0010
0100
0002
0000
0000
0000
1003
0000
0001
0010
0100
0000
2000
0000
,
0000
0000
3010
0100
0002
0000
1000
0000
0003
0000
1000
0100
0010
0000
0100
0000
,
1000
0001
0010
0000
0010
0001
1000
0000
1000
0001
0010
0000
0100
1000
0001
0100
,
0001
1000
0100
0000
1000
0010
0100
0000
0100
0010
1000
0000
0001
0010
0100
1000
,
0010
0010
0010
0010
0010
1010
0000
0010
,
0010
0010
0010
0110
0000
0100
0100
0101
,
0000
1010
0010
0010
0010
1010
0000
0010
,
0010
0010
0010
0110
0000
0110
0100
0101
,
0001
0000
1000
0100
1000
0000
0001
0000
1000
0100
1000
0000
0001
0100
0010
0000
,
1000
0000
0001
0010
0001
0000
1000
0000
0001
0010
0001
0000
0100
0010
1000
0000
,
0001
0000
0010
0100
0010
0000
0001
0000
0010
0100
0010
0000
0001
0100
0010
0000
,
1000
0000
0100
0010
0100
0000
1000
0000
1010
0000
0000
0110
0000
0000
0101
0000
,
1001
0000
0010
0100
0010
0000
1000
0000
0001
0010
0001
0000
0100
0010
1000
0000
,
0001
0000
0010
0100
0010
0000
0001
0000
1000
0010
1000
0000
0010
0100
0001
0000
,
1000
0001
0010
0000
0010
0001
1000
0000
1000
0001
0010
0000
0100
1000
0001
0100
,
0001
1000
0100
0000
1000
0001
0100
0000
0100
0001
1000
0100
0010
0100
1000
0010
,
0100
0000
0000
0000
0001
0010
0100
1000
0002
0000
0000
0000
0103
0000
0010
0000
,
1001
1001
1100
0012
0000
0013
0100
1001
,
0000
0000
0000
0000
1000
0100
0010
0001
2000
0000
0000
0000
3010
0000
0100
0000
,
1001
1001
0101
2010
0000
3100
0010
0001
,
1001
0000
0000
0000
1000
0010
0100
0001
2000
0000
0000
0000
3100
0000
0010
0000
,
1001
1001
1010
0102
0000
0013
0100
1001
,
0000
0000
0000
0000
0001
0100
0010
1000
0002
0000
0000
0000
0013
0000
0100
0000
,
1001
0000
1000
0010
0100
0000
0001
0000
1000
0100
0010
0000
0001
1000
0001
1000
,
0001
1000
0100
0000
1000
0000
0001
0000
0100
0001
0010
0100
1000
0001
0100
0010
,
1000
0000
0000
0000
0100
0010
0001
0000
0100
0010
1000
0000
0100
0010
0001
0000
,
1000
0000
0010
0000
1000
0000
0001
0000
0010
0001
0100
0010
1000
0100
0010
0001
,
1000
0000
0010
0000
1000
0000
0001
0000
0010
0000
0001
0000
1000
0000
0010
0100
,
0010
1000
1001
0120
0000
1030
0100
0010
,
0101
0100
1001
0120
0000
1030
0100
0010
,
1001
1000
0010
1000
1001
0001
0010
0100
,
1100
0000
1100
0000
1001
0000
1001
0000
0011
0000
0100
1000
0001
0010
0100
0000
,
0000
0010
0010
0010
0010
1010
0000
0010
,
0010
0010
0010
0110
0000
0100
0100
0101
,
0000
0010
1010
0010
0010
1010
0000
0010
,
0010
0110
0010
0110
0000
0101
0100
0100
,
1002
0000
0103
0000
1001
0000
0200
1000
,
0300
0020
0001
0030
0200
0000
2300
0000
,
3020
0000
0130
0000
1001
0000
0002
0100
,
0003
2000
0010
3000
1001
1001
1001
1001
,
1002
0000
0103
0000
1001
0000
2000
0100
,
3000
0002
0010
0003
0201
0000
0320
0000
,
2030
0000
3001
0000
1001
0000
0002
0010
,
0003
2000
0100
3000
1001
1001
1001
1001
,
0001
1000
0010
0000
0000
0000
1001
0000
1000
0100
0010
0001
0010
0100
1000
0010
,
1000
0001
0100
0000
0000
0000
1001
0000
0001
0010
0100
1000
0100
0010
0001
1000
,
0010
0100
0001
0100
0010
0100
0001
0000
0000
0000
1000
0001
0010
0000
0100
0000
,
1000
0000
0100
0000
0001
0000
0100
0000
1001
0000
0000
0011
0000
0000
1100
0000
,
1000
0001
0100
0000
0000
0000
1001
0000
0001
0100
0010
1000
0010
0100
0001
1000
,
0001
1000
0100
0000
0000
0000
1001
0000
1000
0010
0100
0001
0100
0010
1000
0001
,
0010
0100
1000
0000
0001
0100
1000
0000
0001
0100
0010
0000
0001
0010
1000
0001
,
1000
0010
0100
0000
1000
0100
0001
0000
1000
0100
0010
0000
1000
0010
0001
0100
,
0001
1000
0100
1000
0001
1000
0010
1000
0001
1000
0100
1000
0001
0010
1000
0010
,
0001
0000
0000
0000
1000
0100
0010
0001
1000
0000
0010
0000
1001
0000
0100
0000
,
0011
1001
1100
1001
0010
0100
1010
0101
,
1001
0000
0000
0000
0001
0010
0100
1000
0001
0000
0100
0000
1001
0000
0100
0000
,
0011
0110
1100
1001
0010
0100
0011
1100
,
1001
0000
0000
0000
0001
0010
0100
1000
0001
0000
0100
0000
1001
0000
0100
0000
,
0011
0100
1000
0001
0010
0100
1000
0100
0010
0001
0100
0010
,
1001
0000
0000
0000
0001
0010
0100
1000
0001
0000
0010
0000
1001
0000
0100
0000
,
0011
0000
0001
1000
0010
0000
2001
0000
0000
0000
3100
0010
0001
0010
0100
0000
,
1001
0010
0010
0010
0010
0110
0000
0010
,
0010
0000
0010
0000
0010
0000
1010
0000
0000
0000
1000
0000
1000
0000
1000
0001
,
0000
0010
0010
0010
0010
0110
0000
0010
,
0110
0000
0010
0000
0010
0000
1010
0000
0000
0000
1000
0100
1000
0010
1000
0002
,
0000
0003
0000
0000
;
