#TITLE:Giant Step;
#SUBTITLE:;
#ARTIST:黒魔;
#TITLETRANSLIT:;
#SUBTITLETRANSLIT:;
#ARTISTTRANSLIT:CHROMA;
#CREDIT:DigiMindAxel;
#BANNER:Giant Step.png;
#BACKGROUND:Giant Step-bg.png;
#LYRICSPATH:;
#CDTITLE:TAPSONIC.png;
#MUSIC:Giant Step.ogg;
#METERTYPE:DDR X;
#OFFSET:-8.608;
#SAMPLESTART:81.477;
#SAMPLELENGTH:12.000;
#SELECTABLE:YES;
#BPMS:0.000=135.000;
#STOPS:192.000=1.3333333
;
#BGCHANGES:;

//---------------dance-single - ----------------
#NOTES:
     dance-single:
     :
     Easy:
     5:
     0.185,0.258,0.062,0.309,0.000:
2000
0000
0000
0000
,
0000
0001
0000
3000
,
0002
0000
0000
0000
,
1000
0000
0000
1003
,
0001
0000
0010
0000
,
0100
0000
0010
0000
,
0001
0000
0100
0000
,
0010
0000
0100
0001
,
1000
0000
0100
0000
,
1000
0000
0010
0000
,
0100
0000
0010
0000
,
1000
0100
0010
0001
,
2002
0000
0000
3003
,
1001
0000
0000
0000
,
0010
0010
0010
0010
,
2000
0000
0000
0000
,
3200
0000
0000
0000
,
0320
0000
0000
0000
,
0230
0000
0000
0000
,
2300
0000
0000
0000
,
3002
0000
0000
0000
,
0203
0000
0000
0000
,
0302
0000
0000
0000
,
0023
0000
0000
0000
,
0230
0000
0000
0000
,
0320
0000
0000
0000
,
0032
0000
0000
0000
,
0203
0000
0010
0000
,
0320
0000
0100
0000
,
0130
0000
0001
0000
,
2002
0000
0000
3003
,
2000
0000
0000
0000
,
3020
0000
0000
0000
,
0230
0000
0000
0000
,
0302
0000
0000
0000
,
2003
0000
3200
0000
,
2300
0000
3002
0000
,
0203
0000
0320
0000
,
0230
0000
0302
0000
,
0023
0000
0032
0000
,
1003
0000
1001
0000
,
0001
0100
0001
0000
,
1000
0001
1000
0000
,
0100
1000
0100
0000
,
1000
0001
1000
0000
,
0010
0100
0010
0100
,
0010
0100
0010
0100
,
1001
0000
1001
0000
,
2002
3003
0001
0000
0000
0000
0010
0000
,
0000
0100
0000
1000
,
0000
0001
0000
0100
,
0000
0010
0000
0100
,
0000
0001
0000
1000
,
0000
0100
0000
1000
,
0000
0001
0000
0010
,
0000
0100
0000
0010
,
0000
0100
0000
1000
,
0000
0010
0000
1000
,
0000
0001
0000
0010
,
0000
0001
0000
0100
,
0000
0010
0000
0100
,
0000
0010
0000
1000
,
0000
0001
0000
0010
,
0000
1001
0000
0000
,
0000
2000
0000
3200
,
0000
0320
0000
0001
,
0000
0032
0000
0203
,
0000
0320
0000
0100
,
0000
0130
0000
0001
,
0000
0010
0000
0000
,
0000
0001
0000
0010
,
0000
0200
0000
0000
,
0000
0310
2002
0000
,
0000
0000
0000
0000
,
0000
0000
0000
0000
,
0000
3003
0000
0000
;

//---------------dance-single - ----------------
#NOTES:
     dance-single:
     :
     Medium:
     8:
     0.398,0.439,0.137,0.391,0.058: // measure 1
0002
0000
0100
0000
0000
0100
0000
0000
,  // measure 2
0000
0100
0103
0010
,  // measure 3
2000
0000
0001
0000
0000
0001
0000
0000
,  // measure 4
0001
0001
0001
3001
,  // measure 5
1000
0000
0010
0100
0000
0010
0200
0000
,  // measure 6
0301
0000
1000
0100
0000
1000
0200
0000
,  // measure 7
0310
0000
0001
0100
0000
0001
0200
0000
,  // measure 8
0301
0000
1000
0100
0010
0001
1000
0010
,  // measure 9
1000
0000
0010
1000
0000
0001
0200
0000
,  // measure 10
0301
0000
1000
0100
0000
0010
0002
0000
,  // measure 11
0103
0000
0010
0100
0000
0010
2000
0000
,  // measure 12
3010
0000
0100
0001
0010
0100
1000
0000
,  // measure 13
1100
0000
0000
0011
0000
0000
0110
0000
,  // measure 14
2002
0000
0000
3000
,  // measure 15
1000
1000
1000
1003
,  // measure 16
0001
0000
0010
0100
0010
0000
0001
0000
,  // measure 17
1000
0010
0100
0000
0010
0100
0001
0000
,  // measure 18
1000
0000
0100
0010
0100
0000
1000
0000
,  // measure 19
0001
0010
0100
0000
0010
0100
1000
0000
,  // measure 20
0100
0000
0010
0100
0010
0000
0001
0000
,  // measure 21
0010
0000
0100
0010
0100
0000
1000
0000
,  // measure 22
0010
0000
0100
0001
0010
0000
0100
1000
,  // measure 23
0010
1001
1001
1001
,  // measure 24
1000
0000
0100
1000
0000
0010
0100
0000
,  // measure 25
0001
0000
1000
0100
0000
1000
0001
0000
,  // measure 26
0010
0000
0100
0010
0000
0100
1000
0001
,  // measure 27
0010
0000
0100
0010
0001
1000
0100
0000
,  // measure 28
0010
0000
0001
0100
0000
0001
1000
0000
,  // measure 29
0100
1001
1001
1001
,  // measure 30
0001
0000
0010
0001
0000
0100
0010
0000
,  // measure 31
1000
0000
0000
1000
0000
0000
1000
0000
0000
0000
0000
0000
1001
0000
0000
0000
,  // measure 32
0002
0000
0100
0100
0000
0000
0103
0000
,  // measure 33
0020
0000
0100
0100
0000
0000
0130
0000
,  // measure 34
0002
0000
1000
1000
0000
0000
1003
0000
,  // measure 35
0200
0000
1000
1000
0000
0000
1300
0000
,  // measure 36
0010
0000
0000
0100
0000
0000
0020
0000
0000
0000
0000
0000
0030
0000
0000
0000
,  // measure 37
1000
0000
0000
0001
0000
0000
2000
0000
0000
0000
0000
0000
3010
0000
0000
0000
,  // measure 38
0100
0000
0000
0010
0000
0000
0200
0000
0000
0000
0000
0000
0000
0000
0000
0000
,  // measure 39
0302
0000
0023
0000
,  // measure 40
0130
0000
0000
1000
0000
0000
0200
0000
0000
0000
0000
0000
0000
0000
0000
0000
,  // measure 41
1300
0000
0000
0001
0000
0000
1000
0000
0001
0000
0000
0000
0000
0000
0000
0000
,  // measure 42
0010
0001
0010
0000
0100
0010
0100
0000
,  // measure 43
1000
0100
1000
0000
1100
0000
0011
0000
,  // measure 44
0001
1000
0001
0000
1000
0010
1000
0000
,  // measure 45
0001
0100
0001
0000
0101
0000
1010
0000
,  // measure 46
1000
0001
1000
0001
0100
0001
0100
0001
,  // measure 47
1000
0100
1000
0100
0010
0001
0010
0001
,  // measure 48
0100
1010
0101
0110
,  // measure 49
2002
0000
3003
0000
0001
0000
0000
0100
0000
0000
0002
0000
0000
0000
0000
0000
,  // measure 50
1003
0100
0020
0000
0001
0000
0001
0000
,  // measure 51
0031
0000
0000
0000
0100
0000
0000
0010
0000
0000
0100
0000
0001
0000
0000
1000
,  // measure 52
0000
0001
0200
0000
0010
0000
0320
0000
,  // measure 53
0000
0000
0000
0000
1030
0000
0000
0001
0000
0000
2000
0000
0000
0000
0000
0000
,  // measure 54
3200
0000
0000
0000
0320
0000
0000
0000
0000
0000
0000
0000
0130
0000
0000
1000
,  // measure 55
0000
0100
0020
0000
0000
0032
0000
0000
,  // measure 56
0003
0000
0100
0010
0100
0010
1000
0001
,  // measure 57
0010
0000
0100
0000
1000
0000
0000
0010
0000
0000
2000
0000
0000
0000
0000
0000
,  // measure 58
3001
0010
0200
0000
1000
0000
1000
0000
,  // measure 59
1300
0000
0000
0000
0001
0000
0000
0100
0000
0000
0001
0000
1000
0000
0000
0100
,  // measure 60
0000
1000
0002
0000
0010
0000
0023
0000
,  // measure 61
0000
0000
0000
0000
0031
0000
0000
1000
0000
0000
0002
0000
0000
0000
0000
0000
,  // measure 62
0203
0000
0000
0000
0320
0000
0000
0000
0000
0000
0000
0000
0130
0000
0000
0001
,  // measure 63
0000
1000
0200
0000
0000
2300
0000
0000
,  // measure 64
3001
0000
0000
0000
0100
0000
0000
0100
0000
0000
0100
0000
0010
0000
0000
0000
,  // measure 65
0000
2000
0200
0000
3300
0020
0002
0000
,  // measure 66
0033
0200
0020
0000
0300
0000
1000
0000
,  // measure 67
1030
0002
0020
0000
0033
0200
2000
0000
,  // measure 68
3300
0020
0200
0000
0030
0000
0001
0000
,  // measure 69
0301
1000
0100
0010
0000
0001
0010
0100
,  // measure 70
0000
1000
0010
0100
0010
0000
1000
0000
,  // measure 71
0001
1000
0020
0000
0000
0130
0002
0000
,  // measure 72
0000
1003
0200
0000
0000
0000
0000
0000
,  // measure 73
0000
1300
0220
0000
,  // measure 74
0000
0000
0000
0000
,  // measure 75
0000
0000
0000
0000
,  // measure 76
0000
0330
0000
0000
;

//---------------dance-single - ----------------
#NOTES:
     dance-single:
     :
     Hard:
     14:
     0.671,0.775,0.323,0.426,0.563:
1000
0010
0001
0010
0100
0001
1000
0100
,
0001
1000
0100
0010
1000
0100
1000
0000
,
0001
0100
1000
0100
0010
1000
0001
0010
,
0200
0000
0010
0010
0010
0010
0310
0000
,
1001
0000
0000
1000
0000
0000
0001
0000
0000
0100
0000
0000
0002
0000
0000
0000
,
0013
0000
0000
0100
0000
0000
1000
0000
0000
0001
0000
0000
0200
0000
0000
0000
,
0310
0000
0000
1000
0000
0000
0100
0000
0000
0010
0000
0000
0002
0000
0000
0000
,
0013
0000
0000
0001
0000
0000
0100
0010
0100
0010
1000
0100
0010
0000
0001
0000
,
0100
0000
0000
0100
0010
0000
1000
0000
0000
0010
1000
0000
0002
0000
0000
0000
,
0013
0000
0000
0010
0001
0000
0100
0000
0000
0001
0100
0000
0020
0000
0000
0000
,
1030
0000
0000
1000
0001
0000
0010
0000
0000
0001
0010
0000
0100
0000
0000
0000
,
1010
0000
0110
0000
0101
0001
1001
0000
,
0011
0000
0100
0000
1000
0000
0011
0000
0000
0000
1000
0001
0100
0000
0100
0000
,
1001
0000
1000
0100
0010
0001
1000
0100
,
0010
0000
0010
0000
0100
0000
0100
0000
0010
0000
0010
0000
0100
0000
1000
0010
,
0200
0000
0000
0001
0000
0000
0302
0000
0000
0000
1003
0000
0000
0100
0000
0000
,
0010
0000
0000
0010
0100
0000
1000
0000
0000
1000
0001
0000
0100
0001
0000
0100
,
0002
0000
0000
1000
0000
0000
2003
0000
0000
0000
3010
0000
0000
0010
0100
0001
,
0100
0000
0010
0100
0010
0000
1000
0010
1000
0000
0001
0010
0001
0010
0100
1000
,
0200
0000
0000
1000
0000
0000
2300
0000
0000
0000
3001
0000
0000
0001
1000
0000
,
0020
0000
0000
0100
0000
0000
0230
0000
0000
0000
0301
0000
0000
0100
0001
0000
,
2000
0000
0000
0100
0000
0000
3100
0010
0002
0000
0000
0100
0000
0000
0103
0000
,
1010
0000
0110
0001
0110
1000
0110
0001
,
2000
0000
0000
0000
0000
0000
3100
0010
0002
0000
0000
0100
0000
0000
0103
0000
,
0020
0000
0000
0000
2030
0000
0000
0000
3200
0000
0000
0010
0000
0000
0310
0000
,
0002
0000
0000
0000
0203
0000
0000
0000
0320
0000
0000
1000
0000
0000
1030
0000
,
0002
0000
0103
0000
0110
1000
0110
0001
,
0210
0000
0000
0000
1300
0000
0010
0100
0002
0000
0000
1000
0000
0000
1003
0000
,
0100
0000
0110
0001
0110
1000
0110
0001
,
1000
0000
0000
1000
0010
0000
0000
0010
0100
0000
0000
0100
0001
0000
0000
0000
,
1001
0000
0000
1001
0000
0000
1001
0000
0000
0000
0000
0000
0110
0000
0000
0000
,
0010
0000
0100
0000
1000
0000
0001
0000
0001
0000
0100
0000
0010
0100
0010
0000
,
1000
0100
0010
0001
0001
0100
0010
1000
,
0100
0010
0100
1000
1000
0010
0100
0001
,
1000
0100
0010
0100
0100
1000
0010
0000
,
0101
0000
0000
0110
0000
0000
1020
0000
0000
0000
1000
0000
1030
0000
0000
0000
,
1001
0000
0000
0011
0000
0000
1200
0000
0000
0000
1000
0000
1300
0000
0000
0000
,
1001
0000
0000
0110
0000
0000
2001
0000
0000
0000
0000
0000
3001
0100
0010
0100
,
0002
0000
1000
0000
2003
0000
3100
0010
,
1001
0000
0000
0110
0000
0000
1002
0000
0000
0000
1003
0100
1000
0100
0000
0000
,
1100
0000
0000
0110
0000
0000
0011
0000
2002
0000
0000
0000
3003
0000
1000
0010
,
0200
0001
0301
2000
0100
3100
0020
0001
,
0031
0000
0200
0000
0010
0000
0310
0000
1000
0100
0010
0000
0001
0000
0001
0000
,
2000
0010
3010
0200
0001
0301
2000
0100
,
3100
0000
0020
0000
0001
0000
0031
0000
0100
0010
1000
0000
0001
0000
0001
0000
,
0100
0010
0100
0010
0100
0010
0100
0000
0001
1000
0000
0001
1000
0000
0010
0000
,
0100
0001
0000
0100
0001
0000
1000
0000
0001
1000
0000
0001
1000
0100
0010
0000
,
0001
0100
0001
1000
1000
1000
0100
0010
0001
0100
0100
0010
,
2020
0000
3030
0000
1001
0000
0000
0001
0100
0000
0010
0000
0100
0001
0000
0001
,
1000
0000
0100
0000
0010
0000
0000
0010
0100
0000
1000
0000
0010
0100
0000
0100
,
0001
0000
1000
0000
0100
0000
0000
0100
1000
0000
0010
0000
0100
0001
0000
0001
,
0010
0000
0100
0000
1000
0000
0000
1000
0001
0000
0100
0000
0010
0100
0000
0100
,
0001
0000
0010
0000
1100
0000
0000
1000
0001
0000
0100
0000
0010
0100
0000
0100
,
0001
0000
0010
0000
0100
0000
0000
0100
1000
0000
0001
0000
0010
0001
0000
0001
,
0100
0000
0010
0000
1000
0000
0000
1000
0001
0000
0010
0000
0100
0010
0000
0010
,
0001
0000
0100
0000
0010
1000
0010
1000
0001
0010
0100
0000
1000
0001
0000
0001
,
1000
0000
0010
0000
0101
0000
0000
0001
1000
0000
0100
0000
0010
0100
0000
0100
,
1000
0000
0010
0000
0100
0000
0000
0100
0001
0000
0010
0000
0100
0010
0000
0010
,
0001
0000
0100
0000
0010
0000
0000
0010
1000
0000
0010
0000
0100
0001
0000
0001
,
1000
0000
0100
0000
0010
0000
0000
0010
0001
0000
0010
0000
0100
1000
0000
1000
,
0010
0000
0000
0000
0100
0000
0000
0100
0001
0000
0010
0000
0100
1000
0000
1000
,
0010
0000
0100
0000
0001
0000
0000
0001
1000
0000
0100
0000
0010
0100
0000
0100
,
1000
0000
0010
0000
0100
0000
0000
0100
0001
0000
0010
0000
0100
0010
0000
0010
,
0001
0000
1000
0000
1010
0000
0000
1010
0000
0000
1010
0000
0220
0000
0000
0000
,
0330
0000
0200
0000
0302
0000
1003
0100
0010
0001
0200
0000
0302
0000
1003
0100
,
0010
0001
2000
0000
3200
0000
1300
0010
0100
0001
0000
0000
0100
0010
0000
0010
,
0100
0001
0020
0000
0230
0000
1300
0010
0100
0001
0020
0000
0230
0000
1300
0010
,
0100
0001
0020
0000
0230
0000
1300
0010
0100
0001
0000
0000
1000
0100
0000
0100
,
1000
0001
0010
0000
0100
0000
1000
0001
1000
0001
0010
0000
0100
0000
1000
0001
,
0000
0001
0100
0000
0010
0000
1000
0100
0000
0100
0010
0000
0001
0010
0100
0010
,
0001
0000
0000
0010
0000
0000
0100
0000
0000
1000
0000
0000
0001
0000
0000
0000
0010
0000
0000
0000
0001
0000
0000
0000
1000
0000
0000
0000
1000
0000
0000
0000
1000
0000
0000
0000
0100
0000
0000
0000
0010
0000
0000
0000
0001
0000
0000
0000
,
0100
0100
0010
0020
0000
0000
0000
0000
0000
0000
0000
0000
,
0000
1030
2002
0000
,
0000
0000
0000
0000
,
0000
0000
0000
0000
,
0000
3003
0000
0000
;

//---------------dance-single - ----------------
#NOTES:
     dance-single:
     :
     Beginner:
     2:
     0.092,0.124,0.076,0.000,0.000:
0001
0000
0000
0000
,
0010
0000
0000
0000
,
0100
0000
0000
0000
,
0010
0000
0000
0000
,
1001
0000
0000
0000
,
1000
0000
0000
0000
,
0001
0000
0000
0000
,
0100
0000
0000
0000
,
0001
0000
0000
0000
,
1000
0000
0000
0000
,
0100
0000
0000
0000
,
0010
0000
0000
0000
,
0001
0000
0000
0000
,
0110
0000
0000
0000
,
0000
0000
0000
0000
,
1000
0000
1000
0000
,
1000
0000
0000
0000
,
0001
0000
0001
0000
,
0001
0000
0000
0000
,
0100
0000
0100
0000
,
0100
0000
0000
0000
,
0010
0000
0010
0000
,
0010
0000
0000
0000
,
1000
0000
1000
0000
,
1000
0000
0000
0000
,
0001
0000
0001
0000
,
0001
0000
0000
0000
,
0010
0000
0010
0000
,
0010
0000
0000
0000
,
0001
0000
0001
0000
,
0001
0000
0000
0000
,
1001
0000
0000
0000
,
1000
0000
0000
0000
,
0010
0000
0000
0000
,
0100
0000
0000
0000
,
1001
0000
0000
0000
,
0001
0000
0000
0000
,
1000
0000
0000
0000
,
0010
0000
0000
0000
,
0110
0000
0000
0000
,
1001
0000
0000
0000
,
1000
0000
0000
0000
,
0000
0000
0000
0000
,
0100
0000
0000
0000
,
0000
0000
0000
0000
,
0010
0000
0000
0000
,
0001
0000
0000
0000
,
0100
0000
0100
0000
,
0100
1001
0000
0000
,
0000
0001
0000
0000
,
0000
0100
0000
0000
,
0000
0010
0000
0000
,
0000
1000
0000
0000
,
0000
0100
0000
0000
,
0000
0010
0000
0000
,
0000
0001
0000
1000
,
0000
0001
0000
0000
,
0000
0010
0000
0000
,
0000
0100
0000
0000
,
0000
0010
0000
0000
,
0000
0001
0000
0000
,
0000
1000
0000
0000
,
0000
0010
0000
0000
,
0000
0110
0000
0000
,
0000
1001
0000
1000
,
0000
1000
0000
0000
,
0000
1001
0000
0001
,
0000
0001
0000
0000
,
0000
0010
0000
0000
,
0000
0100
0000
0000
,
0000
0010
0000
0000
,
0000
0100
0000
0000
,
0000
0000
1001
0000
;
