#TITLE:Garuda;
#SUBTITLE:;
#ARTIST:kors k;
#TITLETRANSLIT:;
#SUBTITLETRANSLIT:;
#ARTISTTRANSLIT:;
#CREDIT:DigiMindAxel;
#BANNER:Garuda.png;
#BACKGROUND:Garuda-bg.png;
#LYRICSPATH:;
#CDTITLE:DANCERUSH.png;
#MUSIC:Garuda.ogg;
#METERTYPE:DDR X;
#OFFSET:-7.047;
#SAMPLESTART:25.020;
#SAMPLELENGTH:12.000;
#SELECTABLE:YES;
#BPMS:0.000=160.000;
#STOPS:;
#BGCHANGES:;

//---------------dance-single - ----------------
#NOTES:
     dance-single:
     :
     Easy:
     7:
     0.287,0.347,0.275,0.360,0.028:
0002
0000
0000
0000
,
2003
0000
0000
0000
,
3020
0000
0000
0000
,
0230
0000
0000
0000
,
0301
1000
0000
0100
,
0000
0100
0000
0100
,
1000
0001
0000
0010
,
0000
0010
0000
0010
,
0001
1000
0100
1000
,
0100
1000
0100
1000
,
0001
1000
0001
1000
,
0002
0000
0000
0000
,
0013
0000
0110
0000
,
0010
0000
0110
0000
,
1000
0000
1001
0000
,
1000
0000
1001
0001
,
0100
0000
0110
0000
,
0100
0000
0110
0000
,
0001
0000
1001
0000
,
2002
0000
0000
3003
,
0001
0010
0010
0010
,
0001
0001
0001
0000
,
0010
0100
0100
0100
,
1000
1000
1000
0000
,
0100
0000
0110
0000
,
0001
0000
1001
0000
,
1000
0000
1001
0000
,
0001
0000
0110
0000
,
2000
0000
3200
0000
,
2300
0000
3020
0000
,
0230
0000
0302
0000
,
0023
0000
0032
0000
,
0203
0000
0320
0000
,
0230
0000
0302
0000
,
0023
0000
0230
0000
,
0320
0000
0032
0000
,
1003
1000
1000
0000
,
0001
0001
0010
0100
,
1000
1000
1000
0000
,
0010
0010
0100
0001
,
0010
0100
0100
0000
,
1000
0001
0010
0100
,
1000
0001
0100
0001
,
2000
0000
0000
3000
,
1001
0000
1001
0000
,
0110
0000
0110
0000
,
1001
0000
1001
0000
,
0110
0000
0110
0000
,
1001
0000
1001
0000
,
0110
0000
0110
0000
,
1001
0000
0110
0000
,
2002
0000
0000
3003
,
0002
0000
0023
0000
,
0230
0000
1300
0000
,
0002
0000
0203
0000
,
0320
0000
1030
0000
,
2001
0000
3200
0000
,
0320
0000
0032
0000
,
0103
0000
0010
0000
0100
0000
0010
0000
0100
0000
0010
0000
,
1000
0000
0001
0000
1000
0000
0001
0000
0000
0000
0000
0000
,
0220
0000
0000
0000
,
0330
0000
0000
0000
;

//---------------dance-single - ----------------
#NOTES:
     dance-single:
     :
     Medium:
     11:
     0.501,0.578,0.388,0.095,0.336:
0001
0010
0100
0000
,
1000
0010
1000
0000
0001
0010
0001
1000
,
0010
0000
0100
0000
0001
0000
0000
0010
,
0100
1000
0100
0000
0010
0100
0010
0100
,
0010
0000
0110
0000
0001
1000
0001
0000
,
1000
0001
1000
0000
0001
0000
0010
0000
,
0100
0000
0110
0000
1000
0100
1000
0000
,
0001
0010
0001
0000
1000
0000
0100
0000
,
0010
0000
0110
0000
0001
0100
0001
0000
,
1000
0010
1000
0000
0001
0010
0100
1000
,
0010
0110
0100
0110
,
1002
0000
0000
0000
,
1003
0000
0000
1000
0000
0000
1000
0000
0010
0000
0000
0010
0000
0000
0010
0000
,
1000
0000
0000
1000
0000
0000
1000
0000
0010
0000
0100
0000
0001
0000
0010
0000
,
0100
0000
0000
0100
0000
0000
0100
0000
0010
0000
0000
0010
0000
0000
0010
0000
,
0100
0000
0000
0100
0000
0000
0100
0000
1000
0000
0001
0000
0010
0000
0000
0000
,
1001
0000
0000
0001
0000
0000
0001
0000
1000
0000
0000
1000
0000
0000
1000
0000
,
0010
0000
0000
0010
0000
0000
0010
0000
1000
0000
0100
0000
0010
0000
0001
0000
,
1000
0000
0000
1000
0000
0000
1000
0000
0001
0000
0000
0001
0000
0000
0001
0000
,
0220
0000
0000
0330
,
1001
0000
1000
0100
0000
1000
0100
0000
1000
0100
0000
0010
,
0001
0000
0010
0001
0000
0010
0001
0000
0000
0110
0000
0000
,
1001
0000
0001
0100
0000
0001
0100
0000
0001
0100
0000
0010
,
1000
0000
0010
1000
0000
0010
1000
0000
0000
0110
0000
0000
,
0001
0000
0001
0000
0001
0000
1000
0000
1000
0000
1000
0000
,
0010
0000
0010
0000
0010
0000
0110
0000
0000
0000
0000
0000
,
1000
0000
0000
1000
0000
0000
1000
0000
0001
0000
0000
0001
0000
0000
0001
0000
,
0100
0000
0000
0100
0000
0000
0100
0000
0110
0000
0000
0000
0000
0000
0000
0000
,
1100
0010
0001
0000
,
1000
0010
0100
0000
0010
0100
0010
0100
,
0001
0000
0010
0000
0100
0000
0000
1000
,
0010
0100
0010
0000
0100
0001
0100
0000
,
0010
1000
0100
0000
,
0010
0100
0010
0000
0001
0100
0001
0100
,
0010
0000
1000
0000
0100
0000
0000
0010
,
0001
1000
0001
0000
1000
0010
1000
0000
,
1001
0001
0011
0001
,
0011
0100
1001
0100
,
1001
0100
1100
0010
,
0011
0100
1100
0010
,
0011
0011
1001
1001
,
1000
0010
1000
0010
0100
0001
0100
0001
,
1000
0100
1000
0100
0010
0001
0010
0001
,
0200
0000
0000
0300
,
1001
0000
0000
0001
0000
0000
0001
0000
0100
0000
0000
0100
0000
0000
0100
0000
,
0001
0000
0000
0001
0000
0000
0001
0000
1000
0000
0000
0000
1100
0000
0000
0000
,
0010
0000
0000
0010
0000
0000
0010
0000
0001
0000
0000
0001
0000
0000
0001
0000
,
0010
0000
0000
0010
0000
0000
0010
0000
0001
0000
1000
0000
0100
0000
0010
0000
,
0100
0000
0000
0100
0000
0000
0100
0000
0010
0000
0000
0010
0000
0000
0010
0000
,
0100
0000
0000
0100
0000
0000
0100
0000
1000
0000
0000
0000
1001
0000
0000
0000
,
0001
0000
0000
0001
0000
0000
0001
0000
0100
0000
0000
0100
0000
0000
0100
0000
,
2002
0000
0000
3003
,
0001
0000
0001
0000
0001
0000
1000
0000
1000
0000
1000
0000
,
0100
0000
0100
0000
0100
0000
0100
0000
0000
0110
0000
0000
,
0001
0000
0001
0000
0001
0000
0010
0000
0010
0000
0010
0000
,
0100
0000
0100
0000
0100
0000
0220
0000
0000
0330
0000
0000
,
1001
0000
1000
0000
0100
0000
0011
0000
0001
0000
0010
0000
,
1100
0000
1000
0000
0100
0000
0011
0000
0000
1001
0000
0000
,
0001
1000
0001
1000
0001
1000
0100
0000
1100
0000
1001
0000
,
0010
0001
0010
0001
0010
0001
0100
0000
0000
0000
0000
0000
,
2002
0000
0000
0000
,
3003
0000
0000
0000
;

//---------------dance-single - ----------------
#NOTES:
     dance-single:
     :
     Hard:
     15:
     0.819,0.780,0.976,0.161,0.729: // measure 1
1000
0010
1000
0001
0020
0000
0000
0000
,  // measure 2
0031
0000
0100
0000
1000
0000
0100
0000
0001
0000
1000
0100
0010
0000
0010
0000
,  // measure 3
0100
1000
0010
0100
0002
0000
0000
1003
,  // measure 4
0001
0010
1000
0010
0001
0001
1000
1000
,  // measure 5
1100
0000
0000
0000
1001
0000
0000
0000
0001
0100
0001
0100
0001
0000
0000
0000
,  // measure 6
1000
0100
0010
0001
0110
0100
0110
0010
,  // measure 7
1010
0000
0000
0000
1001
0000
0000
0000
0001
0010
0001
0010
0001
0000
0000
0000
,  // measure 8
0010
0100
1000
0001
0110
0100
0110
0010
,  // measure 9
1001
0000
0000
0000
1100
0000
0000
0000
0010
0000
0001
1000
0000
0001
1000
0000
,  // measure 10
0010
0000
0100
0001
0000
0100
0001
0000
0010
0000
0100
0000
1000
0000
0001
0000
,  // measure 11
0100
0001
0100
0000
0001
1000
0001
0000
1000
0100
1000
0100
0010
0001
0010
0001
,  // measure 12
0200
0000
0000
0010
0010
0010
0010
0310
,  // measure 13
1001
0000
0000
1001
0000
0000
1001
0000
0011
0000
0000
0011
0000
0000
0011
0000
,  // measure 14
0110
0000
0000
0110
0000
0000
0110
0000
1000
0000
0100
0000
0010
0000
0001
0000
,  // measure 15
0101
0000
0000
0101
0000
0000
0101
0000
1010
0000
0000
1010
0000
0000
1010
0000
,  // measure 16
1001
0000
0000
0000
0000
0000
0000
0000
0000
1001
0000
0000
0000
0000
0000
0000
0000
0000
1001
0000
0000
0000
0000
0000
0100
0000
0000
0000
0010
0000
0000
0000
0001
0000
0000
0000
0100
0000
0000
0000
0001
0000
0000
0000
1000
0000
0000
0000
,  // measure 17
0010
0000
0000
1001
0000
0000
1001
0000
0011
0000
0000
0011
0000
0000
0011
0000
,  // measure 18
1100
0000
0000
1100
0000
0000
1100
0000
0010
0000
0001
0000
1000
0000
0010
0000
,  // measure 19
0101
0000
0000
0101
0000
0000
0101
0000
0110
0000
0000
0110
0000
0000
0110
0000
,  // measure 20
1001
0001
0010
0200
0000
1300
0020
0000
,  // measure 21
1030
0001
1000
0100
1000
0001
0100
1000
0100
0001
0010
1000
,  // measure 22
0010
0001
0100
0010
0100
0001
0010
0000
0000
1001
0000
0000
,  // measure 23
0001
1000
0001
0100
0001
0010
1000
0010
0001
1000
0100
0001
,  // measure 24
0100
1000
0010
0100
0010
1000
0100
0100
0100
0010
0010
0010
,  // measure 25
1001
0000
1000
0100
0010
0000
0101
0000
0101
0000
1001
0000
,  // measure 26
1001
0000
0001
0010
0100
0000
1100
0000
0000
1001
0000
0000
,  // measure 27
0011
0000
0000
0011
0000
0000
0011
0000
0110
0000
0000
0110
0000
0000
0110
0000
,  // measure 28
1100
0000
0000
1100
0000
0000
1100
0000
1001
0000
0010
0000
0100
0000
1000
0000
,  // measure 29
0001
0100
0010
0100
0002
0000
0000
0000
,  // measure 30
1003
0000
0010
0000
0001
0000
0010
0000
1000
0000
0100
1000
0010
0000
0010
0000
,  // measure 31
0100
0001
0010
0100
2000
0000
0000
3001
,  // measure 32
1000
0000
0010
0100
0001
0000
0010
0000
1000
0000
0010
0000
0001
0000
1000
0000
,  // measure 33
0001
0010
0100
1000
0002
0000
0000
0000
,  // measure 34
0103
0000
0010
0000
1000
0000
0010
0000
0100
0000
0001
0010
0100
0000
0100
0000
,  // measure 35
0010
0001
0100
0010
2000
0000
0000
3001
,  // measure 36
1000
0000
0010
0000
0001
0000
0010
0000
1000
0000
0001
0010
0100
0000
0100
0000
,  // measure 37
1001
0000
0000
0001
0010
0000
0000
0010
0100
0000
0000
0100
1000
0000
0000
1000
,  // measure 38
0010
0000
0000
0010
0100
0000
0000
0100
0001
0000
0000
0001
1000
0000
0000
0000
,  // measure 39
0110
0000
0001
0010
0000
0001
0010
0000
0100
0000
1000
0010
0000
1000
0010
0000
,  // measure 40
0100
0000
0001
1000
0000
0001
1000
0000
0100
0000
0010
0001
1000
0000
0010
0000
,  // measure 41
0100
0100
0001
0001
1000
1000
0100
0100
,  // measure 42
1000
0010
0100
1000
0100
0010
1000
0001
,  // measure 43
0100
0000
0010
0000
0100
0000
0001
0000
1000
0100
0010
0100
1000
0100
0010
0100
,  // measure 44
2000
0000
0000
0010
0010
0010
0010
3010
,  // measure 45
1001
0000
1000
0100
0000
0100
0010
0000
1001
0000
1000
0100
0000
0100
0010
0000
,  // measure 46
1001
0000
1000
0100
0000
0100
0010
0001
0200
0000
0000
0000
0301
1000
0001
1000
,  // measure 47
0001
0000
0100
0001
0000
0001
0010
0000
1001
0000
0100
0001
0000
0001
0010
0000
,  // measure 48
1001
0000
0100
0001
0000
0001
0010
0100
1000
0000
0100
0000
0001
0000
0100
0000
,  // measure 49
1100
0000
0010
0001
0000
0001
1000
0000
1100
0000
0010
0001
0000
0001
1000
0000
,  // measure 50
1100
0000
0010
0001
0000
0001
1000
0100
0020
0000
0000
0000
0031
1000
0001
1000
,  // measure 51
0001
0000
0100
0010
0000
0010
1000
0000
1001
0000
0100
0010
0000
0010
1000
0000
,  // measure 52
1001
0000
0001
0000
0010
0000
0200
0000
0000
0000
1300
0000
0010
0100
0010
0100
,  // measure 53
0010
0000
1010
0000
0110
0000
0101
0000
0110
0000
1010
0000
,  // measure 54
1001
0000
0110
0000
1001
0000
0110
0000
0000
1001
0000
0000
,  // measure 55
0011
0000
0110
0000
1100
0000
0110
0000
0011
0000
1001
0000
,  // measure 56
0110
0000
1001
0000
0110
0000
1001
0010
0100
1000
0010
1000
,  // measure 57
1001
0000
0001
0100
0110
0000
1100
0000
0010
0001
1001
0000
,  // measure 58
1100
0000
0010
0001
0101
0000
0110
0000
0000
1001
0000
0000
,  // measure 59
1000
0010
0001
0010
1000
0100
0010
0001
0100
1000
0100
0001
,  // measure 60
1000
0000
0010
0000
0001
0000
0010
0000
1000
0000
0100
0000
0022
0000
0000
0000
0000
0000
0000
0000
0000
0033
0000
0000
,  // measure 61
2002
0000
0000
0000
,  // measure 62
3003
0000
0000
0000
;

//---------------dance-single - ----------------
#NOTES:
     dance-single:
     :
     Beginner:
     3:
     0.115,0.199,0.123,0.000,0.000:
1000
0000
0000
0000
,
0100
0000
0000
0000
,
0010
0000
0000
0000
,
0001
0000
0000
0000
,
1001
0000
0000
0000
,
0000
0000
0000
0000
,
1001
0000
0000
0000
,
0000
0000
0000
0000
,
1001
0000
0001
0000
,
0001
0000
0001
0000
,
1001
0000
1000
0000
,
1000
0000
0000
0000
,
0100
0000
0000
0000
,
0010
0000
0000
0000
,
0001
0000
0000
0000
,
1000
0000
0000
0000
,
0010
0000
0000
0000
,
0100
0000
0000
0000
,
0001
0000
0000
0000
,
1000
0000
0000
0000
,
0100
0000
0100
0000
,
0100
0000
0100
0000
,
0010
0000
0010
0000
,
0010
0000
0010
0000
,
0100
0000
0000
0000
,
0010
0000
0000
0000
,
0001
0000
0000
0000
,
0100
0000
0000
0000
,
0001
0000
0000
0000
,
0000
0000
0000
0000
,
0010
0000
0000
0000
,
0000
0000
0000
0000
,
0100
0000
0000
0000
,
0000
0000
0000
0000
,
1000
0000
0000
0000
,
0000
0000
0000
0000
,
0001
0000
0001
0000
,
1000
0000
1000
0000
,
0001
0000
0001
0000
,
1000
0000
1000
0000
,
0100
0000
0010
0000
,
0100
0000
0010
0000
,
0100
0000
0010
0000
,
0001
0000
0000
0000
,
1001
0000
0000
0000
,
1001
0000
0000
0000
,
0110
0000
0000
0000
,
0110
0000
0000
0000
,
1001
0000
0000
0000
,
1001
0000
0000
0000
,
0110
0000
0000
0000
,
0110
0000
0000
0000
,
0010
0000
0000
0000
,
0010
0000
0000
0000
,
0100
0000
0000
0000
,
0100
0000
0000
0000
,
0001
0000
1000
0000
,
0100
0000
0010
0000
,
0100
0000
1000
0000
,
0010
0000
0000
0000
,
1001
0000
0000
0000
;
