#TITLE:ゴーカ!ごーかい!?ファントムシーフ!;
#SUBTITLE:;
#ARTIST:ハロー、ハッピーワールド!;
#TITLETRANSLIT:GOKA! GOKAI!? PHANTOM THIEF!;
#SUBTITLETRANSLIT:;
#ARTISTTRANSLIT:HELLO, HAPPY WORLD!;
#CREDIT:DigiMindAxel;
#BANNER:GOKA! GOKAI! PHANTOM THIEF!.png;
#BACKGROUND:GOKA! GOKAI! PHANTOM THIEF!-bg.png;
#LYRICSPATH:GOKA! GOKAI! PHANTOM THIEF!.lrc;
#CDTITLE:BanG Dream! Girls Band Party!.png;
#MUSIC:GOKA! GOKAI! PHANTOM THIEF!.ogg;
#METERTYPE:DDR X;
#OFFSET:-6.610;
#SAMPLESTART:51.147;
#SAMPLELENGTH:12.000;
#SELECTABLE:YES;
#BPMS:0.000=215.000,292.000=107.500,307.000=215.000;
#STOPS:;
#BGCHANGES:;

//---------------dance-single - ----------------
#NOTES:
     dance-single:
     :
     Easy:
     6:
     0.267,0.271,0.089,0.089,0.005:
1000
0001
1000
0000
,
0100
0100
0100
0000
,
0010
0001
0010
0000
,
0100
0100
0100
0000
,
1000
0001
1000
0000
,
0010
0010
0010
0000
,
0100
0001
0100
0000
,
0010
0010
0010
0000
,
2000
0000
0000
0000
,
3002
0000
0000
0000
,
0000
0000
0003
0000
,
1000
0000
1000
0000
,
0001
0000
0001
0000
,
0010
0000
0010
0000
,
0100
0000
0100
0000
,
1000
0100
0010
0000
,
0001
0010
0100
0000
,
1001
0000
0000
0000
,
0000
0000
0000
0000
,
1000
0000
0100
0000
,
0010
0100
1000
0000
,
0010
0000
0100
0000
,
0001
0100
0010
0000
,
0100
0000
1001
0000
,
0100
0000
1001
0000
,
0001
1000
0001
0000
,
1000
0100
1000
0000
,
0001
0000
0010
0000
,
0100
0000
0010
0000
,
0001
0000
0100
0000
,
0100
0000
0000
0000
,
0001
0000
1000
0000
,
1000
0000
0000
0000
,
2002
0000
3003
0000
,
2002
0000
3003
0000
,
0001
0000
0100
0000
,
0010
0000
0100
0000
,
0002
0000
0000
0000
,
1000
0000
0000
0000
,
1003
0000
0000
0000
,
0001
0000
1000
0000
,
0100
1000
0100
0000
,
0010
0000
0001
0000
,
0100
0010
0100
0000
,
0001
1000
0001
0000
,
1000
0100
1000
0000
,
0001
0010
0001
0000
,
0100
0010
0100
0000
,
0001
0000
0100
0000
,
0010
1000
0010
1000
,
0010
0000
0100
0000
,
0001
1000
0001
1000
,
0001
0001
0000
0000
,
0000
0000
0000
0000
,
1000
1000
0000
0000
,
0000
0000
0000
0000
,
0001
0000
1000
0000
,
0100
0000
0010
0000
,
0001
0000
1001
0000
,
1000
0000
1001
0000
,
0001
0100
0010
1000
,
0100
0000
0000
0000
,
0010
0001
0010
0000
,
0100
0100
0100
0000
,
1000
0010
1000
0000
,
0001
0001
0001
0000
,
0010
0001
0010
0000
,
0100
0100
0100
0000
,
1000
0010
1000
0000
,
0001
0001
0001
0000
,
0010
0010
0010
0000
,
0100
0100
0100
0000
,
1000
1000
1000
1000
,
0001
0000
0000
0000
,
0000
0000
0000
0000
,
0010
0000
0010
0000
,
0100
0000
0100
0000
,
0000
2002
0000
0000
,
0000
0000
0000
3003
0000
0000
0000
0000
1001
0000
0000
0000
;

//---------------dance-single - ----------------
#NOTES:
     dance-single:
     :
     Medium:
     10:
     0.504,0.504,0.404,0.345,0.345:
1000
0100
1000
0100
,
1000
0000
0001
1000
0000
0001
1000
0000
0001
0000
0000
0100
,
0000
0000
0002
0000
0000
0000
1003
0000
0000
0010
0000
0000
,
0100
0000
0001
0100
0000
0001
0100
0000
0010
0000
0000
1000
,
0000
0000
0002
0000
0000
0000
0013
0000
0000
0100
0000
0000
,
1000
0000
0001
1000
0000
0001
0000
0000
0100
0000
0000
0001
,
0000
0100
0001
0100
,
0020
0000
0000
1000
0000
0000
1030
0000
0000
0001
0000
2000
,
0000
3100
0010
0001
,
0000
0000
0100
0000
0000
0000
0110
0000
0000
0000
0000
0010
,
0000
0000
0000
0000
0010
0000
0000
0000
0000
0000
0220
0000
0000
0000
0000
0000
0000
0000
0000
0000
0000
0330
0000
0000
,
1000
0001
0100
0001
,
1000
1000
0100
0000
,
0010
0100
1000
0100
,
0010
0001
0100
0000
,
0001
0000
2000
0000
0000
0000
3001
0000
0200
0000
0000
0000
,
0301
1000
1100
0000
,
2002
0000
0000
0000
,
3003
0000
0000
0000
,
0001
0100
0010
1000
,
0001
0000
0000
1000
0000
0001
0000
0000
0000
0000
0000
0000
,
1000
0100
0010
0001
,
0010
0000
0000
0001
0000
1000
0000
0000
0000
0000
0000
0000
,
0001
0000
0100
0000
0001
0000
0100
0000
0000
0000
0000
0000
,
0001
0000
1000
0000
0001
0000
1000
0000
0000
0000
0000
0000
,
0100
0010
0001
1000
,
0100
0000
0000
0010
0000
0200
0000
0000
0000
0000
0000
0000
,
1000
0000
1000
0000
,
0010
0000
0310
0000
,
1001
0010
0100
1000
,
0002
0100
0100
0103
,
0010
1000
0100
0010
,
0002
0100
0100
0103
,
1001
0000
0000
0000
0000
1100
0000
0000
0000
0000
0000
0000
,
1001
0000
0000
0000
0000
0011
0000
0000
0000
0000
0000
0000
,
0100
1000
0001
1000
,
0100
0000
0000
0010
0000
0000
0001
0000
1000
0000
0000
0020
,
0000
0000
0000
0000
,
0000
0100
0100
0130
,
0001
0000
1000
0000
0000
0100
0000
0000
0000
0000
0000
0000
,
0020
0001
0031
0100
,
0110
0010
1010
1010
,
0200
0010
0310
1000
,
0100
0000
1000
0000
0000
0002
0000
0000
0000
0000
0000
0000
,
0203
0010
0310
1000
,
1100
0010
0110
0001
,
0011
0000
0000
0100
0000
1000
0000
0000
0000
1001
0000
0000
,
0011
0000
0000
0100
0000
1000
0000
0000
0000
1001
0000
0000
,
0001
0100
0001
1000
,
0100
1100
0010
0110
,
1001
0000
0000
0001
0000
0200
0000
0000
0000
0310
0000
0000
,
1000
0000
0000
0100
0000
0020
0000
0000
0000
0000
0000
0000
,
0130
1100
0000
1001
,
0000
1001
0000
1001
,
0010
0011
0000
1001
,
0000
1001
0000
1001
,
0010
0100
1000
0001
,
0100
0010
1000
0001
,
0021
0000
0031
0000
,
1200
1300
1200
1300
,
0010
0000
0000
0100
0000
0001
0000
0000
1000
0000
0000
0000
,
2002
0000
0000
3003
,
0101
0010
0100
1000
,
0001
0000
1000
0001
0000
1000
0001
0000
1000
0000
0000
0100
,
0000
0000
2000
0000
0000
0000
3001
0000
0000
0100
0000
0000
,
0010
0000
0100
0010
0000
0100
0010
0000
0100
0000
0000
0001
,
0000
0000
2000
0000
0000
0000
3100
0000
0000
0010
0000
0000
,
0001
0000
1000
0001
0000
1000
0000
0000
0010
0000
0000
0100
,
0000
0001
0010
0100
,
1000
0000
0001
1000
0000
0000
0010
0000
0000
0100
0000
0001
,
0000
0000
1000
0001
0000
0000
0010
0000
0000
0100
0000
0000
,
1000
0000
0001
1000
0000
0001
1000
0000
0010
0000
0000
0000
,
0100
0000
0000
0001
0000
0000
1000
0000
0100
0000
0000
1000
,
0001
0000
0100
0000
0220
0000
0000
0330
,
0010
0000
0220
0000
0000
0330
0000
0000
,
1001
0000
0010
0000
0022
0000
0000
0033
,
0100
0000
2200
0000
0000
3300
0000
0000
,
0000
0000
0000
1000
0000
0001
0000
0000
0100
0000
0000
0010
,
0000
0000
1000
0000
0000
1100
0000
0000
1001
0000
0000
0000
;

//---------------dance-single - ----------------
#NOTES:
     dance-single:
     :
     Hard:
     13:
     0.712,0.697,0.739,0.729,0.660: // measure 1
0001
0000
1000
0100
0000
1000
0100
0000
0010
0000
0000
0001
,  // measure 2
1000
0000
0100
1000
0000
0100
1000
0000
0010
0000
0000
0100
,  // measure 3
0000
0000
1002
0000
0000
0000
0100
0000
0000
0103
0000
0000
,  // measure 4
0001
0000
1000
0100
0000
1000
0100
0000
0010
0000
0000
0001
,  // measure 5
0000
0000
2001
0000
0000
0000
0100
0000
0000
3100
0000
0000
,  // measure 6
0010
0000
0001
0100
0000
0100
0000
0000
1020
0000
0000
0130
,  // measure 7
0000
0000
0001
0000
0000
1000
0010
0000
1000
0010
0000
0000
,  // measure 8
0100
0000
0001
0010
0000
0001
0010
0000
0100
0000
0000
1002
,  // measure 9
0000
0023
0230
2300
,  // measure 10
3000
0000
1001
0000
0000
0000
0101
0000
0000
0000
0000
0110
,  // measure 11
0000
0000
0000
0000
0110
0000
0000
0000
0000
0000
2002
0000
0000
0000
0000
0000
0000
0000
0000
0000
0000
3003
0000
0000
,  // measure 12
1000
0010
0001
0010
,  // measure 13
1000
0000
0100
0010
0000
0100
0010
0000
0100
0010
0000
0000
,  // measure 14
0001
0100
1000
0100
,  // measure 15
0001
0000
0010
0100
0000
0010
0100
0000
0010
0100
0000
0000
,  // measure 16
2000
0000
0200
0000
3300
0000
0020
0000
0002
0000
0033
0000
,  // measure 17
1001
0110
1001
0000
,  // measure 18
1010
0000
0000
0000
,  // measure 19
0000
0000
0010
0100
0000
0000
0001
0000
0000
0001
0000
0000
,  // measure 20
2001
3020
0230
0302
,  // measure 21
1003
0000
0000
0100
0000
2200
0000
0000
0000
3300
0000
0000
,  // measure 22
1000
0000
0000
0100
0000
0020
0000
0000
0000
0031
0000
0000
,  // measure 23
1000
0000
0010
0100
0000
0220
0000
0000
0000
0330
0000
0000
,  // measure 24
1001
0000
0001
0000
1000
0000
2020
0000
0000
3030
0000
0000
,  // measure 25
1001
0000
1000
0000
0001
0000
0202
0000
0000
0303
0000
0000
,  // measure 26
0001
0000
1000
0100
0000
1000
0100
0000
0000
0010
0000
0000
,  // measure 27
1001
0000
0000
1000
0000
0002
0000
0000
0000
0000
0000
0000
,  // measure 28
0100
0100
0000
1000
,  // measure 29
2000
0000
0000
3003
,  // measure 30
0011
0000
0000
0001
0000
0001
1000
0000
1000
0010
0000
0000
,  // measure 31
1002
0100
0100
0103
,  // measure 32
1001
0000
0000
1000
0000
1000
0010
0000
0010
0100
0000
0000
,  // measure 33
2001
0100
0100
3100
,  // measure 34
1001
0000
0000
0000
0000
0110
0000
0000
0010
0100
0000
0000
,  // measure 35
1001
0000
0000
0000
0000
0110
0000
0000
0100
0010
0000
0000
,  // measure 36
1001
0000
0000
0100
0000
0000
0010
0000
0001
0000
0000
1000
,  // measure 37
0000
0000
0000
1001
0000
0000
0010
0000
0100
0000
0000
2000
,  // measure 38
0000
0000
0000
0000
,  // measure 39
0000
0001
0001
3001
,  // measure 40
1000
0000
0100
0010
0000
0220
0000
0000
0000
0330
0000
0000
,  // measure 41
0001
0000
0001
0100
0000
0100
0010
0000
0010
1000
0000
0000
,  // measure 42
2010
0001
0010
3001
,  // measure 43
1000
0000
1000
0100
0000
0100
0010
0000
0010
0001
0000
0100
,  // measure 44
0010
0000
0010
0000
0000
2002
0000
0000
0000
3003
0000
0000
,  // measure 45
1000
0000
1000
0010
0000
0010
0100
0000
0100
0001
0000
0000
,  // measure 46
1002
0100
1000
0103
,  // measure 47
0001
0000
0100
0010
0000
1001
0000
0000
1000
0100
0000
0000
,  // measure 48
1000
0000
0010
0100
0000
1001
0000
0000
0000
1000
0001
1000
,  // measure 49
0001
0000
0001
1000
0000
1000
0100
0000
0100
0010
0000
0000
,  // measure 50
1100
1001
0011
1001
,  // measure 51
1000
0000
1000
0001
0000
0001
0010
0000
0010
0100
0000
0000
,  // measure 52
1100
0000
0000
2000
0000
0002
0000
0000
0000
3003
0000
0000
,  // measure 53
0011
0011
0000
2002
,  // measure 54
3003
2002
3003
1001
,  // measure 55
1010
1010
0000
2002
,  // measure 56
3003
2002
3003
1001
,  // measure 57
0002
0023
2030
3020
,  // measure 58
0032
0203
0320
2030
,  // measure 59
3001
0000
1100
0000
,  // measure 60
0001
1100
0001
1100
,  // measure 61
1001
0000
0000
0000
0000
0000
0001
0000
0000
0000
0100
0000
0000
0000
0000
0000
0220
0000
0000
0000
0000
0330
0000
0000
,  // measure 62
1001
0020
0230
0320
,  // measure 63
1030
0000
0001
0010
0000
0001
0010
0000
0100
0000
0000
1000
,  // measure 64
0001
0000
0100
0001
0000
1000
0001
0000
0100
0000
0000
0110
,  // measure 65
0000
0000
1002
0000
0000
0000
0100
0000
0000
0103
0000
0000
,  // measure 66
0010
0000
1000
0100
0000
1000
0100
0000
0010
0000
0000
0101
,  // measure 67
0000
0000
2001
0000
0000
0000
0100
0000
0000
3100
0000
0000
,  // measure 68
0010
0000
0001
0100
0000
0110
0000
0000
1020
0000
0000
1030
,  // measure 69
0000
0000
1001
0000
0000
0010
0001
0000
1000
0001
0000
0010
,  // measure 70
0001
0000
0100
0010
0000
0010
1000
0000
1000
0000
0000
1001
,  // measure 71
0000
0000
0001
0010
0000
0010
0100
0000
0100
0000
0000
1001
,  // measure 72
0000
0000
1000
0010
0000
0010
0100
0000
0002
0000
0000
0000
,  // measure 73
1000
0000
0000
1000
0000
0000
1003
0000
0100
0000
0000
0010
,  // measure 74
0001
0000
0200
0300
2002
0000
0000
3003
,  // measure 75
0020
0030
1002
0000
2003
0000
3010
0010
,  // measure 76
1001
0000
0100
0010
2002
0000
0000
3003
,  // measure 77
0010
0000
0000
0100
0000
0000
1002
0000
0000
0000
0000
0000
2003
0000
0000
0000
0000
0000
3001
0000
0000
0000
0010
0000
,  // measure 78
0000
0000
0100
1000
0000
0001
0100
0000
0110
0000
0000
1000
,  // measure 79
0010
0000
0110
0000
0000
0001
1000
0000
1001
0000
0000
0000
;

//---------------dance-single - ----------------
#NOTES:
     dance-single:
     :
     Beginner:
     3:
     0.148,0.232,0.148,0.000,0.010:
1000
0000
0000
0000
,
0001
0000
0001
0000
,
0010
0000
0000
0000
,
0001
0000
0001
0000
,
0100
0000
0000
0000
,
0001
0000
0001
0000
,
1000
0000
0000
0000
,
0100
0000
0000
0000
,
1000
0000
0000
0000
,
0000
0000
1001
0000
,
0000
0000
0000
0000
,
0001
0000
0001
0000
,
0001
0000
0000
0000
,
1000
0000
1000
0000
,
1000
0000
0000
0000
,
0001
0000
0010
0000
,
0100
0000
0000
0000
,
1001
0000
0000
0000
,
0000
0000
0000
0000
,
1000
0000
0010
0000
,
1000
0000
0000
0000
,
0001
0000
0100
0000
,
0001
0000
0000
0000
,
1001
0000
0000
0000
,
1001
0000
0000
0000
,
1000
0000
0100
0000
,
1000
0000
0000
0000
,
0001
0000
0000
0000
,
0000
0000
0000
0000
,
0010
0000
0000
0000
,
0000
0000
0000
0000
,
0100
0000
0000
0000
,
0000
0000
0000
0000
,
1000
0000
0000
0000
,
0001
0000
0000
0000
,
1000
0000
0100
0000
,
1000
0000
0000
0000
,
0000
0000
0000
0000
,
0010
0000
0010
0000
,
0110
0000
0000
0000
,
1001
0000
0000
0000
,
0001
0000
0001
0000
,
1001
0000
0000
0000
,
1000
0000
1000
0000
,
1001
0000
0000
0000
,
0010
0000
0010
0000
,
0110
0000
0000
0000
,
0110
0000
0000
0000
,
1000
0000
0100
0000
,
0010
0000
0000
0000
,
0001
0000
0010
0000
,
0100
0000
0000
0000
,
1001
0000
0000
0000
,
0000
0000
0000
0000
,
1001
0000
0000
0000
,
0000
0000
0000
0000
,
0001
0000
0000
0000
,
0100
0000
0000
0000
,
0010
0000
0000
0000
,
0000
0000
0000
0000
,
1001
0000
0000
0000
,
0000
0000
0000
0000
,
1000
0000
0100
0000
,
0010
0000
0000
0000
,
0001
0000
0001
0000
,
0100
0000
0000
0000
,
0010
0000
0100
0000
,
0010
0000
0000
0000
,
1000
0000
0001
0000
,
0010
0000
0000
0000
,
0100
0000
0000
0000
,
1000
0000
0000
0000
,
0000
0000
0000
0000
,
1001
0000
0000
0000
,
0000
0000
0000
0000
,
0001
0000
0010
0000
,
0100
0000
0010
0000
,
0000
0000
0000
0001
0000
0000
0000
0000
0000
0000
0000
1000
,
0000
0000
0000
0000
0000
0000
0000
0000
1001
0000
0000
0000
;
