#TITLE:GOBBLE;
#SUBTITLE:;
#ARTIST:Kimitaka Matsumae;
#TITLETRANSLIT:;
#SUBTITLETRANSLIT:;
#ARTISTTRANSLIT:;
#GENRE:;
#CREDIT:DigiMindAxel;
#BANNER:GOBBLE.png;
#BACKGROUND:GOBBLE-bg.png;
#LYRICSPATH:;
#CDTITLE:beatmania IIDX.png;
#MUSIC:GOBBLE.ogg;
#OFFSET:-1.187000;
#SAMPLESTART:26.620001;
#SAMPLELENGTH:12.000000;
#SELECTABLE:YES;
#BPMS:0.000000=160.000000
;
#STOPS:
;
#BGCHANGES:-2.000=GOBBLE.avi=1.000=1=0=0=StretchNoLoop==CrossFade==,
99999=-nosongbg-=1.000=0=0=0 // don't automatically add -songbackground-
;
#KEYSOUNDS:;
#ATTACKS:;

//---------------dance-single - ----------------
#NOTES:
     dance-single:
     :
     Easy:
     4:
     0.229295,0.287438,0.054594,0.076432,0.000000,147.000000,142.000000,5.000000,7.000000,0.000000,0.000000,0.229295,0.287438,0.054594,0.076432,0.000000,147.000000,142.000000,5.000000,7.000000,0.000000,0.000000:
// measure 0
0000
0000
0000
0000
,  // measure 1
0000
0000
0000
0000
,  // measure 2
0000
0000
0000
0000
,  // measure 3
1000
0000
1001
0000
,  // measure 4
0010
0000
0200
0000
,  // measure 5
0301
0000
1001
0000
,  // measure 6
0010
0200
0000
0300
,  // measure 7
1000
0000
1001
0000
,  // measure 8
0002
0000
0103
0000
,  // measure 9
0010
0000
0100
0001
,  // measure 10
0100
0000
0010
0000
,  // measure 11
1000
0000
0200
0000
,  // measure 12
0310
0000
0001
0000
,  // measure 13
1000
0100
1000
0000
,  // measure 14
0001
0000
0100
0000
,  // measure 15
0020
0000
0130
0000
,  // measure 16
0001
0000
1000
0100
,  // measure 17
1000
0010
0100
0000
,  // measure 18
0000
0001
1000
0100
,  // measure 19
0010
0001
0000
0000
,  // measure 20
0000
0000
0100
0010
,  // measure 21
0000
0000
0100
0001
,  // measure 22
0010
0100
0000
1000
,  // measure 23
0100
0010
0000
0010
,  // measure 24
0001
0000
0001
0000
,  // measure 25
1000
0000
1000
0000
,  // measure 26
0100
0000
0100
0000
,  // measure 27
0010
0000
0010
0000
,  // measure 28
0001
0000
0001
0000
,  // measure 29
0100
0000
0100
0000
,  // measure 30
0010
0000
0000
0000
,  // measure 31
1000
0001
0100
0000
,  // measure 32
0001
0001
1000
1000
,  // measure 33
0001
1000
0010
0000
,  // measure 34
1000
1000
0001
0001
,  // measure 35
0010
0100
1000
0000
,  // measure 36
0010
0010
0100
0100
,  // measure 37
0001
1000
0100
0000
,  // measure 38
0010
0010
0010
0000
,  // measure 39
0001
0001
0001
0000
,  // measure 40
0100
0100
0010
0010
,  // measure 41
0100
0100
0010
0010
,  // measure 42
0010
0000
1000
1000
,  // measure 43
1000
0000
0001
0001
,  // measure 44
0001
0010
0100
0000
,  // measure 45
0010
0001
0010
0001
,  // measure 46
0100
0100
0100
0100
,  // measure 47
0010
0100
0000
0000
,  // measure 48
0001
0010
0100
1000
,  // measure 49
0001
0100
0001
0000
,  // measure 50
0010
0100
1000
0001
,  // measure 51
0100
0001
1000
0100
,  // measure 52
0010
0000
0010
0000
,  // measure 53
0001
0000
0001
0000
,  // measure 54
0100
0000
0100
0000
,  // measure 55
0110
0000
0220
0000
,  // measure 56
0000
0000
0000
0000
,  // measure 57
0000
0000
0000
0000
,  // measure 58
0000
0000
0330
0000
;

//---------------dance-single - ----------------
#NOTES:
     dance-single:
     :
     Medium:
     10:
     0.439872,0.511001,0.338483,0.196539,0.005459,282.000000,251.000000,31.000000,18.000000,0.000000,0.000000,0.439872,0.511001,0.338483,0.196539,0.005459,282.000000,251.000000,31.000000,18.000000,0.000000,0.000000:
// measure 0
0000
0000
0000
0000
,  // measure 1
0000
0000
0000
0000
,  // measure 2
0000
0000
0000
0000
,  // measure 3
0100
1000
0000
0010
0110
0000
0000
0000
,  // measure 4
1001
0000
0000
0001
0200
0000
0300
0000
,  // measure 5
0001
1000
0000
0100
1100
0000
0000
0000
,  // measure 6
0010
0000
0002
0000
0103
0010
0000
0010
,  // measure 7
0000
0010
0100
0000
1001
0000
0000
0000
,  // measure 8
0020
0000
0031
0000
0101
0000
0000
0100
,  // measure 9
0000
0100
0000
0000
0001
0000
2000
0000
,  // measure 10
3100
1000
0000
0010
0110
0000
0000
0000
,  // measure 11
0101
0001
2000
3000
,  // measure 12
0100
1000
0000
0010
0110
0000
0000
0000
,  // measure 13
0001
0000
2000
0000
3100
0010
0000
0010
,  // measure 14
0000
0010
0001
0000
0101
0000
0010
0000
,  // measure 15
0200
0000
1300
0000
1001
0000
0000
0001
,  // measure 16
0000
0001
1000
0000
0000
0000
0020
0000
,  // measure 17
0130
0001
0100
0001
1000
0000
0000
0000
,  // measure 18
0000
0000
0010
1000
0001
1000
0010
0100
,  // measure 19
0001
0010
0100
0100
0000
0000
0000
0000
,  // measure 20
0000
0000
0000
0000
1000
0100
0010
0001
,  // measure 21
0000
0000
0000
0000
0010
0001
0100
0010
,  // measure 22
1000
0100
0010
0000
0000
0000
0011
0000
,  // measure 23
1100
0000
0000
0000
0010
0000
0000
0010
0000
0000
0010
0000
0001
0000
1000
0000
,  // measure 24
0001
0001
1001
1000
,  // measure 25
0100
0010
0101
0100
,  // measure 26
0001
0010
1100
0010
,  // measure 27
0001
0001
1001
1000
,  // measure 28
0010
0100
0101
0010
,  // measure 29
0100
1000
1100
0010
,  // measure 30
0001
0100
0001
1001
,  // measure 31
1000
0010
0200
0000
0301
1000
0200
0000
,  // measure 32
0310
0001
0010
0001
0100
0000
0110
0000
,  // measure 33
0020
0000
1030
0001
1000
0001
0010
0000
,  // measure 34
1100
0000
0010
0001
0010
0001
0200
0000
,  // measure 35
0310
1000
0002
0000
0013
0001
0010
0001
,  // measure 36
1000
0000
1001
0000
0002
0000
0103
0010
,  // measure 37
0100
0010
1000
0000
1020
0000
0130
0000
,  // measure 38
0001
1000
0100
1000
0001
0000
0000
0010
,  // measure 39
0100
1000
0010
1000
0100
0000
0010
0001
,  // measure 40
1000
0010
0100
0010
0000
1000
0001
0010
,  // measure 41
0001
1000
0001
0000
1001
0000
1200
0000
,  // measure 42
1300
0000
0001
0000
0100
0001
0010
0001
,  // measure 43
0100
0000
0010
1000
0001
0010
0100
0010
,  // measure 44
0001
1000
0010
0100
0001
0000
0001
0000
,  // measure 45
1001
0000
1000
1000
0100
0010
0001
0000
,  // measure 46
0000
1000
1000
1000
1000
1000
0100
0010
,  // measure 47
0001
0100
0010
0000
0000
0000
0000
0000
,  // measure 48
0100
0001
0010
0100
0000
0000
1000
0010
,  // measure 49
0100
0001
0010
1000
0010
0001
0000
0000
,  // measure 50
0000
0000
1000
0010
0100
0001
0010
0100
,  // measure 51
1000
0010
0100
0001
0010
0100
1000
0000
,  // measure 52
0010
0100
0110
0000
,  // measure 53
0001
1000
1010
0000
,  // measure 54
0100
0001
0011
0000
,  // measure 55
0110
0000
2002
0000
,  // measure 56
0000
0000
0000
0000
,  // measure 57
0000
0000
0000
0000
,  // measure 58
0000
0000
3003
0000
;

//---------------dance-single - ----------------
#NOTES:
     dance-single:
     :
     Hard:
     13:
     0.580257,0.638751,0.316646,0.294808,0.322105,372.000000,343.000000,29.000000,27.000000,0.000000,0.000000,0.580257,0.638751,0.316646,0.294808,0.322105,372.000000,343.000000,29.000000,27.000000,0.000000,0.000000:
0000
0000
0000
0000
,
0000
0000
0000
0000
,
0000
0000
0000
0000
,
0001
0100
0001
0000
0000
0000
1000
0000
1001
0000
0000
0000
0020
0000
0000
0000
,
0130
0000
0000
0010
2002
0000
3003
0000
,
1000
0100
0000
0010
0210
0000
1300
0000
,
1001
0000
0020
0000
0031
0100
0000
0110
,
0000
0110
2000
0000
3001
0000
0010
0001
,
0200
0000
0310
0000
1001
0000
0000
0101
,
0000
0101
0000
0000
0000
0000
0200
0000
,
1300
0100
1000
0000
0000
0000
0010
0000
0110
0000
0000
0000
0200
0000
0000
0000
,
0301
0000
1000
0100
0020
0000
0030
0000
,
0001
0010
0000
0100
0120
0000
0031
0000
,
1001
0000
0200
0000
1300
0010
0000
1010
,
0000
0010
2000
0000
3001
0000
1000
0100
,
0020
0000
0031
0100
0110
0000
0000
1001
,
0000
1001
0000
0000
0000
0000
0020
0000
,
0031
1000
0001
0000
1000
0000
0100
1000
0000
0000
0000
0000
0000
0000
0000
0000
,
0000
0000
0000
0000
0010
0100
0010
0100
0001
0000
0010
0000
0100
0000
1000
0001
,
0000
1000
0001
0000
0010
0000
0100
0000
0000
0000
0000
0000
0000
0000
0000
0000
,
0000
0000
0000
0000
0000
0000
0000
0000
1000
0001
1000
0001
0010
0100
0010
0000
,
0000
0000
0000
0000
0000
0000
0000
0000
0001
0010
0001
0010
0100
1000
0100
1000
,
0010
0100
0010
0100
0000
0000
0000
0000
0000
0000
0000
0000
0001
1000
0001
0000
,
1000
0001
1000
0000
0100
0000
0000
0100
0000
0000
0010
0000
0001
1000
0001
0000
,
1000
0100
1000
0100
0010
0100
1000
0000
,
0001
0100
0001
0100
0010
1000
0100
0010
,
0001
1000
0001
1000
0100
0010
0001
0000
,
0100
0010
0100
0010
1000
0010
0100
0001
,
1000
0100
1000
0100
0010
0001
0100
0000
,
0010
1000
0010
1000
0001
0010
0001
0000
,
0010
0001
0010
0001
1000
0010
0100
0000
,
0001
1000
0001
0000
2000
0000
0000
0000
3100
0000
0010
0000
0002
0000
0000
0000
,
0103
0010
0100
0000
0001
0000
0010
0000
0100
0000
0010
0000
0001
1000
0001
0000
,
2000
0000
0000
0000
3001
0000
0100
0000
0010
0000
0100
0000
0001
1000
0001
0000
,
2000
0000
0000
0000
3010
0000
0100
0000
0001
0100
0001
0000
2000
0000
0000
0000
,
3100
0000
0010
0000
0002
0000
0000
0000
1003
0100
1000
0000
0001
0000
0100
0000
,
0010
0000
0100
0000
0001
0100
0001
0000
2000
0000
0000
0000
3001
0000
0100
0000
,
0010
0100
0001
0010
0200
0000
1300
0000
,
0010
0100
0001
0000
0001
0000
0001
0000
1001
0000
0000
0000
0000
0000
1000
0000
,
0100
0010
0001
0000
0001
0000
0001
0000
0101
0000
0000
0000
0100
0000
0010
0000
,
1000
0100
0010
0000
0010
0000
0011
0000
0000
0000
0010
0000
1000
0100
0010
0000
,
0010
0010
0110
0000
1000
0100
0011
0001
,
0001
0000
0000
0000
0000
0000
0010
0000
0100
0010
0001
0000
1000
0000
1000
0000
,
1001
0000
0000
0000
1000
0000
0100
0000
0010
0000
0100
0000
1000
0000
0001
0100
,
0000
0001
0100
0000
0010
0100
0010
0000
1000
0000
0100
0000
0011
0000
0000
0000
,
0100
0000
0000
0000
1000
0001
1000
0000
0001
0000
0100
0001
0000
0000
0000
0000
,
0000
0000
0010
0000
0010
0000
0010
0000
0010
0100
0010
0000
0100
0000
1000
0001
,
0000
0001
0000
1000
0001
0000
0000
0000
0000
0000
0000
0000
0000
0000
0000
0000
,
0010
0001
0010
0001
1000
0000
0001
1000
0000
0000
0000
0000
0100
0010
0100
0010
,
0001
1000
0000
0010
1000
0000
0001
1000
0000
0010
1000
0000
0000
0000
0000
0000
,
0000
0000
0000
0000
0010
0100
0010
0000
1000
0001
0000
0010
0001
0000
1000
0001
,
0000
0010
0001
0000
0100
0010
0000
1000
0100
0000
0010
0001
0000
0000
0000
0000
,
1000
0100
0010
0100
1001
0000
0000
0000
,
0011
0000
0100
1000
0110
0000
0000
0000
,
0001
0100
0010
0100
1001
0000
0000
0000
,
2020
0000
3030
0001
2002
0000
0000
0000
,
0000
0000
0000
0000
,
0000
0000
0000
0000
,
0000
0000
3003
0000
;

//---------------dance-single - ----------------
#NOTES:
     dance-single:
     :
     Challenge:
     15:
     0.797074,0.926189,0.818911,0.403996,0.502266,511.000000,436.000000,75.000000,37.000000,0.000000,0.000000,0.797074,0.926189,0.818911,0.403996,0.502266,511.000000,436.000000,75.000000,37.000000,0.000000,0.000000:
0000
0000
0000
0000
,
0000
0000
0000
0000
,
0000
0000
0000
0000
,
1000
0001
1000
0000
0000
0000
0100
0000
1100
0000
0000
0000
0001
0000
0001
0000
,
0110
0000
0000
0000
0000
0000
1000
0000
2002
0000
3003
0000
0000
0010
0100
0000
,
0001
1001
0000
0100
1100
0001
0000
0010
,
0011
0000
0000
0000
2002
0000
3003
0000
0010
0100
0001
0000
0000
0000
1001
0000
,
0000
1100
0001
0001
0110
0000
1000
0001
,
2002
0000
3003
0000
0010
0100
1000
0000
1100
0000
0000
0000
0000
0000
0101
0000
,
1000
1000
0001
0001
0000
0000
2002
3003
,
1000
0010
0100
0000
0000
0000
0001
0000
0011
0000
0000
0000
1000
0000
1000
0000
,
0110
0000
0000
0000
0001
0000
0100
0000
2002
0000
3003
0000
0000
0010
0100
0000
,
0001
0011
0000
1000
1100
0001
0010
0001
,
1000
0000
0000
0000
2002
0000
3003
0000
0100
0010
0001
0000
0000
0000
0101
0000
,
0000
0101
1000
1000
0110
0000
0100
0010
,
2002
0000
3003
0000
0010
0100
0001
0000
0101
0000
0000
0000
0000
0000
1100
0000
,
0000
1100
0001
0001
0000
0000
2002
3003
,
0010
1000
0001
0000
0001
0000
0100
0001
0000
0000
1000
0000
0001
0000
0010
0000
,
0001
0000
1000
0000
0001
0010
0100
1000
0010
0000
0010
0000
0100
0000
0001
1000
,
0000
1000
0100
0000
0010
0000
0010
0000
0000
0000
0001
0000
1000
0000
0100
0000
,
1000
0000
0001
0000
2002
0000
3003
0000
0010
0100
0001
1000
0100
0010
0001
0000
,
0000
0000
0100
0000
0010
0000
0100
0000
0001
0010
0100
0010
0001
0010
0100
0010
,
0001
0100
0010
1000
0000
0000
0001
0000
1001
0000
0000
0000
0100
1000
0100
0000
,
0010
0100
0010
0000
0101
0000
0000
0110
0000
0000
1010
0000
0100
0001
1000
0000
,
0001
0010
0001
1000
1100
0001
1000
0000
,
0010
0100
0010
1000
1001
0010
0100
1000
,
0001
0100
0010
0100
0101
0010
0100
0000
,
1000
0001
0100
0001
1001
0100
0010
0001
,
1000
0100
0010
0100
1001
0010
0100
0000
,
0001
1000
0010
1000
1001
0010
0100
0000
,
1000
0001
0010
0001
1000
0010
0100
0001
,
1000
0100
1000
0100
0020
0000
0031
0000
0100
0000
0010
0000
2002
0000
3003
0000
,
0001
0010
0001
0000
1000
0100
1000
0000
0001
0010
0001
0000
1000
0100
1000
0100
,
0020
0000
0031
0000
0100
0000
0010
0000
2002
0000
3003
0000
0010
0001
0010
0000
,
2002
0000
3003
0000
0100
1000
0100
0000
1000
0010
1000
0010
0200
0000
0301
0000
,
0010
0000
0100
0000
2002
0000
3003
0000
1000
0010
1000
0000
0001
0100
0001
0000
,
1000
0010
1000
0000
0001
0100
0001
0000
2002
0000
3003
0000
0100
0010
0100
0000
,
2002
0000
3003
0000
1000
0100
1000
0000
0001
0010
0001
0000
1000
0100
1000
0000
,
0001
0100
0010
0100
0001
0000
0101
0000
1001
0000
0000
0000
0000
0000
0110
0000
,
1000
0100
0010
0100
1000
0000
1100
0000
1001
0000
0000
0000
0110
0000
0001
0010
,
0100
0010
0001
0000
0011
0000
1001
0000
0000
0000
0110
0000
1000
0010
0100
0010
,
1000
1010
1001
0000
1100
1100
0011
0011
,
1001
0000
0000
0000
0000
0000
1001
0000
0001
0010
0100
0010
0001
0000
0101
0000
,
0110
0000
0000
0000
0110
0000
1001
0000
1000
0010
0001
0010
1000
0100
0010
0001
,
0000
0001
1000
0100
0001
0100
1000
0100
0010
0000
0001
1000
0010
1000
0001
0000
,
0100
0000
0010
0000
0100
0001
1000
0000
1000
0000
0010
1000
0000
0000
0001
0000
,
0001
0000
0110
0000
0110
0000
0110
0000
0100
0010
1000
0000
1000
0000
0010
1000
,
0000
0001
0000
0010
0001
0000
1000
0000
0010
0000
0100
0000
0010
0000
1000
0000
,
0001
0010
0100
1000
0010
0000
1000
0001
0000
0000
0000
0000
0010
0100
1000
0001
,
1000
0010
0001
0010
1000
0100
0001
0100
1000
0010
0100
0000
0001
0000
1000
0000
,
0001
0000
0000
0000
1000
0100
0010
0000
0001
1000
0000
1000
0010
0000
0010
0100
,
0000
0100
0001
0010
1000
0010
0001
1000
0100
0001
0100
1000
0001
0000
0010
0000
,
0001
1000
0100
1000
1001
0010
0100
0000
,
1000
0001
0100
0001
1001
0010
0100
0000
,
1000
0001
0010
0001
1001
0100
0010
0100
,
2020
0000
3030
0110
0202
0000
0000
0000
,
0000
0000
0000
0000
,
0000
0000
0000
0000
,
0000
0000
0303
0000
;

//---------------dance-single - ----------------
#NOTES:
     dance-single:
     :
     Beginner:
     2:
     0.077992,0.090899,0.000000,0.000000,0.000000,50.000000,50.000000,0.000000,0.000000,0.000000,0.000000,0.077992,0.090899,0.000000,0.000000,0.000000,50.000000,50.000000,0.000000,0.000000,0.000000,0.000000:
// measure 0
0000
0000
0000
0000
,  // measure 1
0000
0000
0000
0000
,  // measure 2
0000
0000
0000
0000
,  // measure 3
0000
0000
1000
0000
,  // measure 4
0000
0000
0100
0000
,  // measure 5
0000
0000
0010
0000
,  // measure 6
0000
0000
0001
0000
,  // measure 7
0000
0000
1000
0000
,  // measure 8
0000
0000
0001
0000
,  // measure 9
0000
0000
0000
0000
,  // measure 10
1000
0000
0010
0000
,  // measure 11
0000
0000
0100
0000
,  // measure 12
0000
0000
0001
0000
,  // measure 13
0000
0000
1000
0000
,  // measure 14
0000
0000
0100
0000
,  // measure 15
0000
0000
0010
0000
,  // measure 16
0000
0000
0000
0000
,  // measure 17
0001
0000
0000
0000
,  // measure 18
0000
1000
0000
0000
,  // measure 19
0000
0000
0000
0000
,  // measure 20
0000
0000
0100
0000
,  // measure 21
0000
0000
0010
0000
,  // measure 22
0000
0000
0000
0001
,  // measure 23
0000
0000
0000
0000
,  // measure 24
1000
0000
0000
0000
,  // measure 25
1000
0000
0000
0000
,  // measure 26
0100
0000
0000
0000
,  // measure 27
0100
0000
0000
0000
,  // measure 28
0010
0000
0000
0000
,  // measure 29
0010
0000
0000
0000
,  // measure 30
0001
0000
0000
0000
,  // measure 31
1000
0000
0000
0000
,  // measure 32
0100
0000
0000
0000
,  // measure 33
0010
0000
0000
0000
,  // measure 34
0100
0000
0000
0000
,  // measure 35
1000
0000
0000
0000
,  // measure 36
0001
0000
0000
0000
,  // measure 37
0100
0000
0000
0000
,  // measure 38
0010
0000
0000
0000
,  // measure 39
0010
0000
0000
0000
,  // measure 40
0010
0000
0000
0100
,  // measure 41
0000
0000
0100
0000
,  // measure 42
0000
0000
0100
0000
,  // measure 43
0000
0000
0100
0000
,  // measure 44
0000
0000
0100
0000
,  // measure 45
0000
0001
0000
0000
,  // measure 46
0000
1000
0000
0000
,  // measure 47
0000
0000
0000
0000
,  // measure 48
0100
0000
0000
0010
,  // measure 49
0000
0000
0000
0000
,  // measure 50
0000
0001
0000
0000
,  // measure 51
0000
0000
0000
0000
,  // measure 52
1000
0000
0000
0000
,  // measure 53
1000
0000
0000
0000
,  // measure 54
0010
0000
0000
0000
,  // measure 55
0100
0000
0001
0000
;
