#TITLE:Further;
#SUBTITLE:;
#ARTIST:DOIN;
#TITLETRANSLIT:;
#SUBTITLETRANSLIT:;
#ARTISTTRANSLIT:;
#CREDIT:DigiMindAxel;
#BANNER:Further.png;
#BACKGROUND:Further-bg.png;
#LYRICSPATH:;
#CDTITLE:PUMP IT UP.png;
#MUSIC:Further.ogg;
#METERTYPE:DDR X;
#OFFSET:-0.176;
#SAMPLESTART:10.080;
#SAMPLELENGTH:12.000;
#SELECTABLE:YES;
#BPMS:0.000=194.000;
#STOPS:;
#BGCHANGES:-2.000=Further.avi=1.000=1=1=0,
99999=-nosongbg-=1.000=0=0=0 // don't automatically add -songbackground-
;

//---------------dance-single - ----------------
#NOTES:
     dance-single:
     :
     Easy:
     6:
     0.265,0.319,0.017,0.042,0.000:
0000
0000
0000
0000
,
0000
0000
0000
0000
,
0000
0000
0000
0000
,
0000
0000
0000
0000
,
1000
0000
0000
0000
,
0100
0000
0000
0000
,
1000
0000
0000
0000
,
0001
0000
0000
0000
,
1001
0000
1000
0000
,
0001
1000
0001
0000
,
0010
0000
0010
0000
,
0100
0010
0100
0000
,
1000
0000
1000
0000
,
0010
1000
0010
0000
,
0100
0000
0100
0000
,
0001
1000
0001
0000
,
0010
0000
0010
0000
,
0100
0010
0100
0000
,
1000
0000
1000
0000
,
0100
1000
0100
0000
,
0010
0000
0010
0000
,
0001
0100
0001
0000
,
0010
0000
0010
0000
,
0100
1000
0100
0000
,
2000
0000
0000
0000
,
0000
0000
0000
0000
,
3002
0000
0000
0000
,
0000
0000
0000
0000
,
1003
0000
0100
0000
,
1000
0000
0010
0000
,
0100
0000
0010
0000
,
0100
0000
0001
0000
,
1000
0001
1000
0000
,
1001
0000
0000
0001
0000
0000
1000
0000
,
0000
0001
0000
0000
1000
0000
0000
0001
,
0000
0000
1000
0000
0000
0001
0000
0000
,
0100
0010
0100
0000
,
0001
0000
0000
1000
0000
0000
0001
0000
,
0000
1000
0000
0000
0001
0000
0000
1000
,
0000
0000
0001
0000
0000
1000
0000
0000
,
0100
1000
0100
0000
,
1000
0000
0000
0001
0000
0000
1000
0000
,
0000
0001
0000
0000
1000
0000
0000
0001
,
0000
0000
1000
0000
0000
0001
0000
0000
,
0010
0001
0010
0000
,
0001
0000
0000
1000
0000
0000
0001
0000
,
0000
1000
0000
0000
0001
0000
0000
1000
,
0000
0000
0001
0000
0000
1000
0000
0000
,
0200
0000
0000
0000
,
0000
0000
0000
0000
,
0320
0000
0000
0000
,
0000
0000
0000
0000
,
0031
0000
0001
0000
,
1000
0000
1000
0000
,
0100
0000
0100
0000
,
0010
0000
0010
0000
,
0001
1000
0001
0000
,
0010
0001
0010
0000
,
0001
1000
0001
0000
,
1000
0010
1000
0000
,
0100
0010
0100
0000
,
0010
0001
0010
0000
,
0001
1000
0001
0000
,
1000
0010
1000
0000
,
0001
0000
0000
0010
0000
0000
0001
0000
,
0000
0010
0000
0000
0001
0000
0000
1000
,
0000
0000
0001
0000
0000
1000
0000
0000
,
0100
0000
0000
1000
0000
0000
0100
0000
,
0000
1000
0000
0000
0100
0000
0000
0010
,
0000
0000
0100
0000
0000
0010
0000
0000
,
0001
0000
0000
0100
0000
0000
0001
0000
,
0000
0100
0000
0000
0001
0000
0000
1000
,
0000
0000
0001
0000
0000
1000
0000
0000
,
0100
0000
0000
0010
0000
0000
0100
0000
,
0000
0010
0000
0000
0001
0000
0000
0100
,
0000
0000
0001
0000
0000
0100
0000
0000
,
0010
1000
0001
0010
,
0100
0000
0000
1000
0000
0000
0100
0000
,
0000
0010
0000
0000
0001
0000
0000
0100
,
0000
0000
0010
0000
0000
1000
0000
0000
,
0001
1000
0100
1000
,
0010
0000
0000
0100
0000
0000
0001
0000
,
0000
0010
0000
0000
0100
0000
0000
0010
,
0000
0000
0100
0000
0000
1000
0000
0000
,
0001
0100
0001
1000
,
0100
0000
0000
0010
0000
0000
0001
0000
,
0000
1000
0000
0000
0010
0000
0000
0100
,
0000
0001
0010
0000
,
0100
1000
0010
0100
,
0001
0000
0010
0000
0000
0100
0000
0000
,
1000
0000
0000
0001
0000
0000
0010
0000
,
0000
0100
0000
0000
2000
0000
0000
0000
,
0000
0000
0000
0000
,
0000
0000
0000
0000
,
3000
0000
0000
0000
;

//---------------dance-single - ----------------
#NOTES:
     dance-single:
     :
     Medium:
     11:
     0.540,0.638,0.984,0.161,0.000:
0000
0000
0000
0000
,
0000
0000
0000
0000
,
0000
0000
0000
0000
,
0000
0000
0000
0000
,
1000
0100
1000
0100
,
0010
0001
0010
0001
,
0100
0010
0100
0010
,
1000
0100
0000
0000
,
1001
0000
0001
0200
0000
0301
0100
0000
,
0010
0000
1000
0200
0000
1300
0100
0000
,
0010
0000
0001
2000
0000
3001
1000
0000
,
0010
0000
0100
0002
0000
0103
0001
0000
,
1000
0000
0100
2000
0000
3100
1000
0000
,
0010
0000
0100
0002
0000
0103
0001
0000
,
1000
0000
0010
0200
0000
0310
0100
0000
,
0001
1001
1001
1001
,
1000
0100
1000
0200
0000
1300
0001
0000
,
0010
0001
0010
0002
0000
0103
0010
0000
,
0100
0001
0100
0002
0000
1003
0100
0000
,
0010
0100
0010
0200
0000
1300
0010
0000
,
0100
0001
0100
0002
0000
1003
0100
0000
,
0010
0100
0010
0200
0000
1300
0010
0000
,
0100
0001
0100
0002
0000
0013
0100
0000
,
1001
1001
1001
1001
,
0200
0000
0000
0000
,
0000
0000
0000
0000
,
0310
0010
0010
0010
,
0010
0010
0010
0010
,
0110
0101
0001
1001
,
1000
1100
0010
0011
,
0001
1001
0100
0110
,
0010
1010
1010
1001
,
0001
1000
0000
0010
0000
0100
0000
0010
,
1000
0000
0000
1001
0000
0000
0101
0000
,
0000
1001
0000
0000
1100
0000
0000
0011
,
0000
0000
1100
0000
0000
0011
0000
0000
,
0001
1000
0000
0010
0000
0100
0000
0010
,
1000
0000
0000
1001
0000
0000
0101
0000
,
0000
1001
0000
0000
1100
0000
0000
0011
,
0000
0000
1100
0000
0000
0011
0000
0000
,
0001
1000
0000
0100
0000
0010
0000
0100
,
1000
0000
0000
1001
0000
0000
0011
0000
,
0000
1001
0000
0000
1010
0000
0000
0101
,
0000
0000
1010
0000
0000
0101
0000
0000
,
0001
1000
0000
0100
0000
0010
0000
0001
,
0100
0000
0000
0110
0000
0000
1010
0000
,
0000
0110
0000
0000
1001
0000
0000
1100
,
0000
0000
1001
0000
0000
0011
0000
0000
,
0002
0000
0000
0000
,
0000
0000
0000
0000
,
2003
0000
0000
0000
,
0000
0000
0000
0000
,
3010
0100
0010
0100
,
0001
0010
0001
0010
,
0100
1000
0100
1000
,
0010
0100
0010
0100
,
0001
0000
1001
0000
0000
1000
0100
0000
,
1000
0000
1001
0000
0000
0001
0010
0000
,
0001
0000
1001
0000
0000
0100
0010
0000
,
0100
0000
1001
0000
0000
0010
0100
0000
,
0010
1010
0100
0101
,
0001
1001
1000
1001
,
0010
0110
0100
0110
,
1001
1001
1001
1001
,
0011
0000
0000
0110
0000
0000
1100
0000
,
0000
0110
0000
0000
0011
0000
0000
0110
,
0000
0000
1100
0000
0000
0110
0000
0000
,
0101
0000
0000
0110
0000
0000
1010
0000
,
0000
0110
0000
0000
0101
0000
0000
0110
,
0000
0000
1010
0000
0000
0110
0000
0000
,
1001
0000
0000
1100
0000
0000
1001
0000
,
0000
0011
0000
0000
1001
0000
0000
1100
,
0000
0000
1001
0000
0000
0011
0000
0000
,
1001
0000
0000
1010
0000
0000
1001
0000
,
0000
0101
0000
0000
1001
0000
0000
1010
,
0000
0000
1001
0000
0000
0101
0000
0000
,
0001
1000
0000
0100
0000
1000
0000
0010
,
0100
0000
0000
1001
0000
0000
0011
0000
,
0000
1100
0000
0000
0110
0000
0000
1001
,
0000
0000
0011
0000
0000
1100
0000
0000
,
0010
0001
0000
1000
0000
0010
0000
1000
,
0001
0000
0000
0101
0000
0000
0110
0000
,
0000
1010
0000
0000
1001
0000
0000
0110
,
0000
0000
0011
0000
0000
1100
0000
0000
,
0010
0001
0000
0100
0000
0010
0000
0100
,
0001
0000
0000
1001
0000
0000
1010
0000
,
0000
0110
0000
0000
1001
0000
0000
0020
,
0000
0031
0000
1000
0000
0010
0000
0000
,
0100
0001
0000
1000
0000
0100
0000
0010
,
0100
0000
0000
1100
0000
0000
0011
0000
,
0000
1001
0000
0000
1010
0000
0000
0101
,
0000
0000
1001
0000
0000
0020
0000
0000
,
0000
0000
0000
0000
,
0000
0000
0000
0000
,
0030
0000
0000
0000
;

//---------------dance-single - ----------------
#NOTES:
     dance-single:
     :
     Hard:
     16:
     0.945,1.000,0.551,0.204,0.568: // measure 1
0000
0000
0000
0000
,  // measure 2
0000
0000
0000
0000
,  // measure 3
0000
0000
0000
0000
,  // measure 4
0000
0000
0000
0000
,  // measure 5
0001
0100
0001
0000
0001
1000
0001
0000
,  // measure 6
1000
0100
1000
0000
1000
0001
1000
0000
,  // measure 7
0010
0100
0010
0000
0010
1000
0010
0000
,  // measure 8
1000
0001
1000
0000
0000
0000
0000
0000
,  // measure 9
0100
0010
0001
2000
0000
3010
0110
0000
,  // measure 10
1000
0000
0100
0000
0010
0000
0002
0000
0000
0000
0103
0001
0100
0000
0010
0000
,  // measure 11
1000
0000
0200
1000
0000
1300
0110
0000
,  // measure 12
0001
0010
0100
2000
0000
3001
0100
0001
,  // measure 13
1000
0100
0010
0200
0000
1300
1010
0000
,  // measure 14
0100
0000
0001
0000
0010
0000
0200
0000
0000
0000
1300
0001
1000
0000
0010
0000
,  // measure 15
0100
0000
0002
1000
0000
1003
1010
0000
,  // measure 16
0100
0001
1000
0100
0010
0010
0001
0001
,  // measure 17
1000
0010
0100
0020
0000
0130
1001
0000
,  // measure 18
0001
0000
0010
0000
0100
0000
2000
0000
0000
0000
3010
0100
0010
0000
1000
0000
,  // measure 19
0001
0010
0100
2000
0000
3001
0101
0000
,  // measure 20
0010
1000
0100
0020
0000
0130
1000
0001
,  // measure 21
0100
0010
0100
0002
0000
1003
1010
0000
,  // measure 22
0100
0000
0001
0000
0010
0000
0200
0000
0000
0000
1300
0010
1000
0000
0001
0000
,  // measure 23
0100
0010
0001
0010
0100
0001
1000
0010
,  // measure 24
0100
0100
0001
0001
1000
1000
0010
0010
,  // measure 25
2002
0000
0000
0000
,  // measure 26
0000
0000
0000
3003
,  // measure 27
1000
0100
0010
0100
,  // measure 28
1000
0000
0001
0000
0100
0000
0001
1000
,  // measure 29
1001
0000
0011
0001
0100
0000
0110
0010
,  // measure 30
1000
0000
1001
0001
0010
0100
1000
0100
,  // measure 31
0010
0000
0101
0001
1000
0000
1100
1000
,  // measure 32
0001
0000
1001
0001
0100
0010
0100
0001
,  // measure 33
0010
0100
0000
1010
0000
0110
0000
0101
,  // measure 34
0001
1000
0001
0000
0000
0000
1000
0100
1000
0000
0000
0000
0001
0010
0001
0000
,  // measure 35
1000
0000
0010
1000
0010
0000
0000
0000
0100
0001
0100
0000
0000
0000
0001
1000
,  // measure 36
0001
0000
0000
0000
1000
0100
1000
0000
0000
0000
1001
0000
0001
1000
0001
0000
,  // measure 37
0010
0100
0000
1100
0000
1001
0000
0101
,  // measure 38
0100
0010
0100
0000
0000
0000
0001
1000
0001
0000
0000
0000
1000
0100
1000
0000
,  // measure 39
0001
0000
0100
0010
0100
0000
0000
0000
0001
0100
0001
0000
0000
0000
1000
0001
,  // measure 40
1000
0000
0000
0000
0100
1000
0100
0000
0000
0000
1001
0000
1000
0001
1000
0000
,  // measure 41
0010
0100
0000
0101
0000
1001
0000
1100
,  // measure 42
0100
0010
0100
0000
0000
0000
1000
0010
1000
0000
0000
0000
0001
1000
0001
0000
,  // measure 43
0010
0000
0100
0010
0100
0000
0000
0000
1000
0010
1000
0000
0000
0000
0001
0010
,  // measure 44
0001
0000
0000
0000
0100
0010
0100
0000
0000
0000
0001
1000
0001
1000
0001
0000
,  // measure 45
0010
0100
0000
1010
0000
1001
0000
0101
,  // measure 46
0001
1000
0001
0000
0000
0000
1000
0100
1000
0000
0000
0000
0010
0100
0010
0000
,  // measure 47
0100
0000
0001
1000
0001
0000
0000
0000
0100
0010
0100
0000
0000
0000
0001
0100
,  // measure 48
0001
0000
0000
0000
1000
0001
1000
0000
0100
0000
0010
0100
0010
0000
0000
0000
,  // measure 49
1001
0000
0001
2000
0000
3100
0010
0000
,  // measure 50
0001
1000
0100
0020
0000
0001
0031
0000
,  // measure 51
1000
0000
0100
2000
0000
3010
0100
0000
,  // measure 52
0001
0100
0010
0200
0000
0301
0010
0100
,  // measure 53
1000
0000
0001
0100
0000
0001
1000
0000
,  // measure 54
0100
0000
0010
0000
0001
0000
2000
0000
0000
0000
3010
1000
0010
0000
0100
0000
,  // measure 55
0001
0000
0010
0200
0000
1300
0010
0000
,  // measure 56
0100
0001
0010
0200
0000
1300
0010
0100
,  // measure 57
0010
0010
1001
0000
1000
0010
0110
0000
,  // measure 58
0100
0100
1001
0000
0001
0100
0110
0000
,  // measure 59
0010
0010
0101
0000
0010
1000
1100
0000
,  // measure 60
0010
0010
1001
0000
1000
0001
0011
0000
,  // measure 61
0100
0100
1100
0000
0010
0001
1001
0000
,  // measure 62
0010
0010
0011
0000
0100
1000
1001
0000
,  // measure 63
0100
0100
1001
0000
0001
0100
0110
0000
,  // measure 64
1010
0101
1010
0101
,  // measure 65
0001
1000
0001
0000
0100
0000
0010
0100
0010
0000
0100
0000
0001
0100
0001
0000
,  // measure 66
1000
0000
0100
1000
0100
0000
0010
0000
0100
1000
0100
0000
0010
0000
0001
1000
,  // measure 67
0001
0000
0100
0000
0010
0100
0010
0000
0100
0000
0001
1000
0001
1000
0001
0000
,  // measure 68
1000
0100
1000
0000
0001
0000
0100
0010
0100
0000
0001
0000
1000
0100
1000
0000
,  // measure 69
0001
0000
0100
0010
0100
0000
0001
0000
1000
0100
1000
0000
0001
0000
0010
0100
,  // measure 70
0010
0000
0001
0000
1000
0010
1000
0000
0001
0000
0100
0010
0100
0010
0100
0000
,  // measure 71
0001
0100
0001
0000
1000
0000
0100
0010
0100
0000
1000
0000
0001
0010
0001
0000
,  // measure 72
1000
0000
0010
0100
0010
0000
0100
0000
0001
1000
0001
0000
0010
0000
0100
0010
,  // measure 73
0100
0000
1000
0000
0010
0100
0010
0000
1000
0000
0001
0100
0001
0100
0001
0000
,  // measure 74
1000
0100
1000
0000
0010
0000
0100
0010
0100
0000
0001
0000
0010
0001
0010
0000
,  // measure 75
0100
0000
1000
0010
1000
0000
0100
0000
0010
0100
0010
0000
0001
0000
0100
0001
,  // measure 76
0100
0000
0010
0000
1000
0001
1000
0000
0001
0000
0100
0010
0100
0010
0100
0000
,  // measure 77
0001
0101
0000
1001
0000
1010
0000
1001
,  // measure 78
1000
0010
1000
0010
1000
0000
0001
1000
0001
1000
0001
0000
0010
0001
0010
0001
,  // measure 79
0010
0000
0001
1000
0001
1000
0001
0000
1000
0100
1000
0100
1000
0000
0001
1000
,  // measure 80
0001
1000
0001
0000
0100
0001
0100
0001
0100
0000
0001
1000
0001
1000
0001
0000
,  // measure 81
1000
1100
0000
1001
0000
0011
0000
0110
,  // measure 82
0010
1000
0010
1000
0010
0000
1000
0001
1000
0001
1000
0000
0001
0010
0001
0010
,  // measure 83
0001
0000
0100
0010
0100
0010
0100
0000
0001
1000
0001
1000
0001
0000
0010
0001
,  // measure 84
0010
0001
0010
0000
0100
0010
0100
0010
0100
0000
1000
0100
1000
0100
1000
0000
,  // measure 85
0010
0110
0000
0101
0000
1010
0000
1001
,  // measure 86
0001
0100
0001
0100
0001
0000
0100
0010
0100
0010
0100
0000
0001
1000
0001
1000
,  // measure 87
0001
0000
1000
0100
1000
0100
1000
0000
0100
0010
0100
0010
0100
0000
0001
0000
,  // measure 88
1000
0010
1000
0000
0000
0000
1001
0000
0001
0100
0001
0100
0001
1000
0100
0000
,  // measure 89
1000
1100
0000
0110
0000
0011
0000
1001
,  // measure 90
1000
0010
1000
0010
1000
0000
0010
0100
0010
0100
0010
0000
0100
0001
0100
0001
,  // measure 91
0100
0000
0001
1000
0001
1000
0001
0000
0010
0001
0010
0001
0010
0000
0100
0010
,  // measure 92
0100
0010
0100
0000
1000
0100
1000
0100
0020
0000
0002
0000
0000
0000
0000
0000
,  // measure 93
0000
0000
0000
0000
,  // measure 94
0000
0000
0000
0000
,  // measure 95
0033
0000
0000
0000
;

//---------------dance-single - ----------------
#NOTES:
     dance-single:
     :
     Challenge:
     18:
     1.000,1.000,0.543,0.204,0.971:
0000
0000
0000
0000
,
0000
0000
0000
0000
,
0000
0000
0000
0000
,
0000
0000
0000
0000
,
1000
0000
1000
0000
0100
0000
0010
0001
1000
0000
1000
0000
0010
0000
0000
0000
,
0100
0000
0100
0000
0010
0000
0100
0001
1000
0000
1000
0000
0100
0000
0000
0000
,
0010
0000
0010
0000
0100
0000
1000
0001
0010
0000
0010
0000
0100
0000
0000
0000
,
0010
0010
0001
0100
0000
0000
0000
0000
,
1001
0000
1000
0000
0100
0000
2000
0000
0000
0000
3001
0100
0001
0000
1000
0000
,
0001
0000
0100
0000
0010
0000
0200
0000
0000
0000
0301
1000
0001
1000
0100
0000
,
0010
0000
0001
0101
0000
0100
0110
0000
,
1001
0000
1000
0000
0100
0000
2000
0000
0000
0000
3010
0100
0010
0000
0100
0000
,
0001
0000
0010
0000
0100
0000
2000
0000
0000
0000
3010
0100
0010
0000
1000
0000
,
0100
0000
0010
0000
0100
0000
2000
0000
0000
0000
3001
0100
0001
0100
0010
0000
,
1000
0000
0100
1100
0000
1000
1001
0000
,
0001
1000
0010
1000
1001
0001
0101
0100
,
0010
0000
1000
0000
0100
0000
0020
0000
0000
0000
0031
1000
0001
0000
0010
0000
,
0100
0000
1000
0000
0010
0000
0200
0000
0000
0000
0301
1000
0001
1000
0100
0000
,
0010
0000
0001
0101
0000
0100
0110
0000
,
0010
0000
1000
0000
0100
0000
0020
0000
0000
0000
0130
0010
0100
0000
1000
0000
,
0001
0000
0100
0000
0010
0000
0200
0000
0000
0000
0301
1000
0001
0000
0010
0000
,
0100
0000
0010
0000
0001
0000
0200
0000
0000
0000
0310
1000
0010
1000
0001
0000
,
1000
0100
0001
0100
1000
0010
0100
0010
,
1001
0001
0011
0010
0110
0100
1100
1000
,
1001
0001
0100
0000
0001
1000
0000
0100
,
1000
0000
0100
0010
0001
0010
0100
0010
,
0001
0100
0001
0000
1000
0100
0000
0010
,
0100
0000
1000
0001
0100
0001
1000
1100
,
1001
0100
0011
0100
1000
0001
1001
1000
,
0010
0000
1001
0001
1000
0100
0001
0100
,
1000
0010
0101
0010
1000
0100
0011
0100
,
1000
0000
0101
0001
1001
1000
1100
0100
,
0020
0001
0000
0130
0000
1100
0000
1001
,
1000
0100
1000
0100
1000
0000
0001
1000
0001
1000
0001
0000
1000
0100
1000
0100
,
1000
0000
0010
0100
0010
0100
0010
0000
0100
0001
0100
0001
0100
0000
0001
1000
,
0001
1000
0001
0000
0010
0001
0010
0001
0010
0000
0001
1000
0100
0010
0001
1000
,
0020
1000
0000
0130
0000
0101
0000
1001
,
0001
1000
0001
1000
0001
0000
0010
0001
0010
0001
0010
0000
0100
0010
0100
0010
,
0100
0000
1000
0010
1000
0010
1000
0000
0001
1000
0001
1000
0001
0000
0010
0001
,
0010
0001
0010
0000
0001
1000
0001
1000
0001
0000
0100
0001
0010
0100
1000
0010
,
2000
0010
0000
3001
0000
0110
0000
1001
,
0001
1000
0001
1000
0001
0000
0100
0001
0100
0001
0100
0000
0010
0100
0010
0100
,
0010
0000
1000
0001
1000
0001
1000
0000
0100
1000
0100
1000
0100
0000
0010
0100
,
0010
0100
0010
0000
0001
0100
0001
0100
0001
0000
1000
0100
0010
0001
1000
0010
,
2000
0001
0000
3010
0000
0101
0000
1001
,
0001
0010
0001
0010
0001
0000
1000
0001
1000
0001
1000
0000
0100
1000
0100
1000
,
0100
0000
1000
0001
1000
0001
1000
0000
0001
0100
0001
0100
0001
0000
1000
0010
,
1000
0010
1000
0000
0100
0010
0100
0010
0001
0100
0002
0000
0000
0000
0003
0000
,
1001
0000
2000
0010
0000
3010
0100
0000
,
0001
0000
0010
0000
0100
0000
2000
0000
0000
0000
3001
0100
0001
0000
1000
0000
,
0100
0000
0020
0100
0000
0130
1000
0000
,
0100
0010
0001
0200
0000
0310
1000
0100
,
0010
0001
0010
0200
0000
1300
0010
1000
,
0001
0000
0010
0000
0100
0000
2000
0000
0000
0000
3010
0100
0010
0000
1000
0000
,
0001
0010
0100
0020
0000
0031
1000
0100
,
0001
0100
1000
0002
0000
0103
0001
0010
,
0100
0100
1100
0000
0010
0001
1001
0000
,
0100
0100
0101
0000
0010
1000
1001
0000
,
0010
0010
0011
0000
0100
1000
1001
0000
,
0010
0010
0011
0000
0100
1000
1010
0000
,
0100
0100
0110
0000
0001
1000
1100
0000
,
0010
0010
0011
0000
0100
1000
1010
0000
,
0100
0100
0110
0000
0001
1000
1001
0000
,
1100
0100
0110
0010
0011
0001
1001
1000
,
0010
1000
0010
1000
0001
0000
0010
0001
0010
0001
1000
0000
0001
1000
0001
1000
,
0100
0000
1000
0100
1000
0100
0010
0000
0100
0010
0100
0010
0001
0000
0010
0001
,
0010
0001
0100
0000
0001
0100
0001
0100
0010
0000
1001
0000
1000
0000
1001
0000
,
0001
0010
0001
0010
0100
0000
0010
0100
0010
0100
1000
0000
0100
1000
0100
1000
,
0010
0000
1000
0010
1000
0010
0100
0000
0010
0100
0010
0100
0001
0000
0100
0001
,
0100
0001
1000
0000
0001
1000
0001
1000
0100
0000
1100
0000
1000
0000
1001
0000
,
0001
0100
0001
0100
0010
0000
1000
0001
1000
0001
0010
0000
0100
1000
0100
1000
,
0010
0000
0100
0001
0100
0001
1000
0000
0100
0010
0100
0010
0001
0000
0100
0001
,
0100
0001
1000
0000
0100
1000
0100
1000
0010
0000
1010
0000
1000
0000
1001
0000
,
0001
0100
0001
0100
0010
0000
0100
0001
0100
0001
1000
0000
0100
0010
0100
0010
,
0001
0000
0100
0010
0100
0010
1000
0000
0001
0010
0001
0010
0100
0000
1000
0010
,
1000
0010
0100
0000
0001
1000
0001
1000
0100
0000
1100
0000
1000
0000
1001
0000
,
0001
0100
1000
0100
0001
0100
0110
0010
,
1000
0001
1000
0001
0010
0001
0010
0001
0100
0010
0100
0010
1000
0100
1000
0100
,
0010
0001
0010
0001
0100
0010
0100
0010
1000
0001
1000
0001
0010
0001
0010
0100
,
1000
0100
1000
0001
1000
0001
0100
0010
0100
0010
1000
0100
0010
0001
0100
0000
,
0010
1000
0100
0001
0100
1000
1001
0001
,
0010
0001
0010
0001
0100
0010
0100
0010
1000
0001
1000
0001
0100
0001
0100
0001
,
1000
0100
1000
0100
0010
0001
0010
0001
0100
0010
0100
0010
1000
0100
1000
0100
,
0010
0001
0010
0001
1000
0010
1000
0010
0100
0001
0100
0001
0010
0100
1000
0000
,
0001
0010
1000
0010
0001
0100
0110
0010
,
0100
0001
0100
0001
1000
0100
1000
0100
0010
0001
0010
0001
0100
0010
0100
0010
,
1000
0001
1000
0001
0010
0001
0010
0001
1000
0010
1000
0010
0100
0001
0010
0100
,
1000
0001
0100
0000
0010
0000
0100
0000
0001
0010
0100
1000
0001
0010
0100
1000
,
0010
1000
0100
0001
0100
1000
1001
0001
,
1000
0010
0100
0010
1000
0010
0100
0010
1000
0010
0100
0010
1000
0100
0010
0001
,
1000
0001
0010
0001
1000
0001
0010
0001
1000
0001
0010
0001
1000
0100
1000
0010
,
0100
0001
0010
0001
1000
0100
0010
0001
1000
0010
0200
0000
0000
0000
0000
0000
,
0000
0000
0000
0000
,
0000
0000
0000
0000
,
0300
0000
0000
0000
;

//---------------dance-single - ----------------
#NOTES:
     dance-single:
     :
     Beginner:
     5:
     0.230,0.272,0.271,0.000,0.000:
0000
0000
0000
0000
,
0000
0000
0000
0000
,
0000
0000
0000
0000
,
0000
0000
0000
0000
,
1000
0000
0000
0000
,
0100
0000
0000
0000
,
1000
0000
0000
0000
,
0001
0000
0000
0000
,
0100
0000
0010
0000
,
0100
0000
0010
0000
,
1000
0000
0001
0000
,
1000
0000
0001
0000
,
0010
0000
0001
0000
,
0010
0000
0001
0000
,
0100
0000
0010
0000
,
1000
0001
1000
0001
,
1000
0000
0100
0000
,
1000
0000
0100
0000
,
0010
0000
0100
0000
,
0010
0000
0100
0000
,
0010
0000
0001
0000
,
0010
0000
0001
0000
,
1000
0000
0010
0000
,
1000
0001
1000
0001
,
1000
0000
0000
0000
,
0000
0000
0000
0000
,
0100
0000
0100
0000
,
0100
0000
0100
0000
,
0010
0001
0010
0000
,
0100
0000
1000
0000
,
0010
0100
0010
0000
,
1000
0000
0001
0000
,
1000
0100
1000
0000
,
1001
0000
0000
0110
,
0000
0000
0110
0000
,
0000
1001
0000
0000
,
0001
1000
0001
0000
,
0110
0000
0000
0110
,
0000
0000
1001
0000
,
0000
1001
0000
0000
,
1000
0001
1000
0000
,
1001
0000
0000
1001
,
0000
0000
0110
0000
,
0000
0110
0000
0000
,
0001
1000
0001
0000
,
0110
0000
0000
0110
,
0000
0000
1001
0000
,
0000
1001
0000
0000
,
1000
0000
0000
0000
,
0000
0000
0000
0000
,
0100
0000
0000
0000
,
0000
0000
0000
0000
,
0010
0000
0000
0000
,
0010
0000
0000
0000
,
0001
0000
0000
0000
,
0001
0000
0000
0000
,
1000
0000
0001
0000
,
1000
0000
0001
0000
,
0100
0000
0010
0000
,
0100
0000
0010
0000
,
1000
0000
0100
0000
,
1000
0000
0100
0000
,
0010
0000
0001
0000
,
1000
0001
1000
0001
,
1000
0000
0000
1001
,
0000
0000
0001
0000
,
0000
1001
0000
0000
,
0100
0000
0000
0110
,
0000
0000
0010
0000
,
0000
0110
0000
0000
,
1000
0000
0000
1001
,
0000
0000
0001
0000
,
0000
1001
0000
0000
,
0100
0000
0000
0110
,
0000
0000
0010
0000
,
0000
0110
0000
0000
,
1000
0001
1000
0001
,
0100
0000
0000
0110
,
0000
0000
0010
0000
,
0000
1001
0000
0000
,
1000
0001
1000
0100
,
0010
0000
0000
0110
,
0000
0000
0100
0000
,
0000
1001
0000
0000
,
0001
1000
0001
1000
,
0100
0000
0000
0110
,
0000
0000
0010
0000
,
1001
0000
0001
1000
,
0001
0100
0010
0100
,
0001
0000
0000
1001
,
0000
0000
1000
0000
,
0000
1001
0001
0000
;
