#TITLE:Field:Kaerezu no Chi;
#SUBTITLE:;
#ARTIST:黒魔;
#TITLETRANSLIT:Field Kaerezu no Chi;
#SUBTITLETRANSLIT:;
#ARTISTTRANSLIT:CHROMA;
#CREDIT:DigiMindAxel;
#BANNER:Field Kaerezu no Chi.png;
#BACKGROUND:Field Kaerezu no Chi-bg.png;
#LYRICSPATH:;
#CDTITLE:DigiMindAxel original simfile.png;
#MUSIC:Field Kaerezu no Chi.ogg;
#METERTYPE:DDR X;
#OFFSET:-6.907;
#SAMPLESTART:24.648;
#SAMPLELENGTH:12.000;
#SELECTABLE:YES;
#DISPLAYBPM:*;
#BPMS:0.000=145.000,16.000=150.000,44.000=155.000,76.000=140.000,82.000=102.500,92.000=97.500,93.000=95.500,94.000=97.000,95.000=230.000,173.000=236.580,174.000=230.000,175.000=233.330,176.000=205.500,177.000=204.500,178.000=206.500,179.000=201.900,180.000=205.900,182.000=205.000,217.000=270.000,255.000=270.860,257.000=172.500,260.000=174.700,261.000=173.130,264.000=173.220,265.000=173.950,267.000=173.230,268.000=171.080,269.000=175.480,270.000=172.499,271.000=174.680,272.000=172.500,273.000=171.080,274.000=161.700,275.000=167.600,276.000=166.260,277.000=166.920,278.000=166.260,279.000=167.600,280.000=165.840,281.000=140.000;
#STOPS:;
#BGCHANGES:;

//---------------dance-single - ----------------
#NOTES:
     dance-single:
     :
     Easy:
     10:
     0.315,0.414,0.140,0.065,0.019: // measure 1
1000
0001
0010
0100
,  // measure 2
0100
0010
0010
0001
,  // measure 3
1000
0100
0010
0001
,  // measure 4
1000
1000
0001
0001
,  // measure 5
1001
0000
0000
1000
0000
0000
1000
0000
,  // measure 6
0000
1000
0000
0000
1000
0000
0001
0000
,  // measure 7
0000
0001
0000
0000
0001
0000
0000
0001
,  // measure 8
0000
0000
0001
0000
1000
0000
0000
1000
,  // measure 9
0000
0000
1000
0000
0000
1000
0000
0000
,  // measure 10
1000
0000
0001
0000
0000
0001
0000
0000
,  // measure 11
0001
0000
0000
0001
0000
0000
0001
0000
,  // measure 12
1000
0010
0100
0001
,  // measure 13
0001
1000
1000
0001
,  // measure 14
0010
0100
1000
1000
,  // measure 15
0010
0010
0100
0000
,  // measure 16
0001
1000
0100
1000
,  // measure 17
1000
0001
0001
0100
,  // measure 18
0010
1000
0001
0001
,  // measure 19
0100
0100
0010
0000
,  // measure 20
1001
0000
0000
0000
0000
1000
0000
0000
0000
0000
0000
0000
0000
0001
0000
0000
,  // measure 21
0000
0000
0020
0000
,  // measure 22
0000
0000
0000
0000
0000
0032
0000
0000
0000
0000
0000
0000
0000
0000
0000
0000
,  // measure 23
0000
0000
2003
0000
0000
0000
0000
0000
0000
0000
0000
0000
0000
0000
0000
3200
,  // measure 24
0000
0000
0000
1300
,  // measure 25
0001
1000
0001
1000
,  // measure 26
0001
0100
0001
0100
,  // measure 27
0001
1000
0100
1000
,  // measure 28
0100
1000
0100
0010
,  // measure 29
0100
0010
0100
0010
,  // measure 30
0001
0010
0001
0010
,  // measure 31
0001
1000
0001
1000
,  // measure 32
0001
1000
0010
1000
,  // measure 33
0010
1000
0100
0010
,  // measure 34
0100
0010
0000
0001
,  // measure 35
1000
0001
1000
0001
,  // measure 36
1000
0100
1000
0100
,  // measure 37
1000
0010
0100
0010
,  // measure 38
0100
0010
0100
0001
,  // measure 39
0100
0001
0100
0001
,  // measure 40
1000
0001
1000
0001
,  // measure 41
1000
0100
1000
0100
,  // measure 42
1000
0100
0010
0100
,  // measure 43
0010
0100
0010
0001
,  // measure 44
0010
0001
0000
0000
,  // measure 45
1001
0000
0000
0000
0000
1000
0000
0000
,  // measure 46
0000
0000
0000
0000
,  // measure 47
0000
0000
1001
0000
,  // measure 48
0000
0000
0000
0000
,  // measure 49
0000
0000
0000
0000
,  // measure 50
0110
0000
0000
0000
,  // measure 51
0000
0000
0000
0000
,  // measure 52
0000
0000
1001
0000
,  // measure 53
0000
0000
0000
0001
,  // measure 54
0000
0000
0000
0000
,  // measure 55
0000
1000
0100
1000
,  // measure 56
0100
1000
0001
1000
,  // measure 57
0001
1000
0001
0100
,  // measure 58
0010
0100
0010
0100
,  // measure 59
0010
1000
0010
1000
,  // measure 60
0010
1000
0100
0010
,  // measure 61
0001
1000
0100
0010
,  // measure 62
0001
1000
0001
0100
,  // measure 63
0001
0100
0001
0010
,  // measure 64
0100
1000
0001
1000
,  // measure 65
0000
1001
0000
0001
,  // measure 66
0000
1001
0000
1000
,  // measure 67
0000
0110
0000
0010
,  // measure 68
0000
0110
0000
0100
,  // measure 69
0000
1001
1000
1001
,  // measure 70
0001
0110
0100
0110
,  // measure 71
0010
0000
1002
0000
0000
0000
0000
2003
,  // measure 72
0000
0000
0000
0000
,  // measure 73
0000
0000
0000
0000
0000
0000
0000
3020
,  // measure 74
0000
0000
0000
0000
,  // measure 75
0000
0030
0000
0000
0000
0000
0000
0000
;

//---------------dance-single - ----------------
#NOTES:
     dance-single:
     :
     Medium:
     14:
     0.527,0.587,0.289,0.130,0.154: // measure 1
1000
0010
1000
0010
0100
0001
0100
0010
,  // measure 2
1000
0001
0010
0100
1000
0001
0100
0010
,  // measure 3
0100
0010
0100
0001
1000
0001
0100
0010
,  // measure 4
1000
0000
0001
0000
0010
0000
0100
0000
1000
0000
0001
0000
0000
0100
0000
0000
,  // measure 5
0110
0000
0000
0110
0000
0000
0110
0000
,  // measure 6
0000
0110
0000
0000
0110
0000
1001
0000
,  // measure 7
0000
1001
0000
0000
1001
0000
0000
1001
,  // measure 8
0000
0000
1001
0000
1100
0000
0000
1001
,  // measure 9
0000
0000
1100
0000
0000
1001
0000
0000
,  // measure 10
1000
0100
0000
0000
0011
0000
0000
0000
0000
0000
1001
0000
0000
0000
0000
0000
,  // measure 11
0011
0000
0000
0000
0000
0000
1001
0000
0000
0000
0000
0000
0001
0010
0000
0000
,  // measure 12
0100
1000
0100
1000
0010
0100
0001
1000
,  // measure 13
0100
0010
0010
0100
0010
0010
0001
1000
,  // measure 14
0001
0100
0001
0100
0010
1000
0100
0010
,  // measure 15
0001
0000
0001
0000
0010
0000
0001
0000
0001
0000
0100
0000
0000
0010
0000
0000
,  // measure 16
1000
0001
1000
0001
0010
0100
1000
0001
,  // measure 17
0100
0010
0010
0100
0010
0010
1000
0001
,  // measure 18
0010
0100
0010
0100
1000
0010
0100
0001
,  // measure 19
0001
0000
0100
0000
0001
0000
0001
0000
1000
0000
0100
0000
0000
0010
0000
0000
,  // measure 20
0001
0000
0000
0000
0000
1000
0010
0000
0000
0000
0100
0000
0000
0001
0100
0000
,  // measure 21
0000
0000
1002
0000
,  // measure 22
0000
0000
2003
0000
0000
3200
0000
0000
0000
0000
0000
0000
2300
0000
0000
0000
,  // measure 23
0000
0000
3002
0000
0000
0000
0000
0000
0000
0203
0000
0000
0000
0000
0000
0320
,  // measure 24
0000
0000
0000
0230
0000
0000
0301
0000
,  // measure 25
0000
1000
0000
0000
0100
1000
0100
0000
,  // measure 26
0010
0000
0000
0001
0000
0000
0100
0010
,  // measure 27
0100
0000
0001
0000
0000
1000
0000
0000
,  // measure 28
0100
1000
0100
0000
0010
0000
0000
0001
,  // measure 29
0000
0000
0100
0010
0100
0000
0010
0000
,  // measure 30
1000
0001
0000
1000
0001
0000
0010
0000
,  // measure 31
0100
0000
1000
0010
0000
1000
0010
0000
,  // measure 32
0100
0000
0001
0000
1000
0100
0000
1000
,  // measure 33
0100
0000
0010
0000
0001
0000
0100
0010
,  // measure 34
0000
0100
0010
0000
0110
0000
1001
0000
,  // measure 35
1000
0100
0000
1000
0001
0000
0100
0010
,  // measure 36
0100
0000
0001
1000
0000
0001
0100
0000
,  // measure 37
0010
0100
0010
0000
1000
0001
0000
0010
,  // measure 38
0001
0000
1000
0010
1000
0000
0001
1000
,  // measure 39
0000
0100
1000
0000
0100
0010
0100
0000
,  // measure 40
1000
0001
0000
0100
0001
0000
1000
0100
,  // measure 41
1000
0000
0100
0010
0000
0001
0100
0000
,  // measure 42
0010
0100
0010
0000
0100
0001
0000
0100
,  // measure 43
0010
0000
1000
0010
1000
0000
0001
0010
,  // measure 44
0000
0001
1000
0000
1000
0000
1000
0000
,  // measure 45
1001
0000
0000
0000
0000
0101
0000
0000
,  // measure 46
0000
0000
0100
0000
0000
0000
0000
0010
,  // measure 47
0000
0000
1001
0000
,  // measure 48
0000
1000
0000
0000
0000
0000
0100
0000
,  // measure 49
0000
0000
0000
0010
0000
0000
0000
0000
,  // measure 50
0011
0000
0000
0000
0000
1001
0000
0000
,  // measure 51
0000
0000
1000
0000
0000
0000
0000
0010
,  // measure 52
0000
0000
0110
0000
,  // measure 53
0000
0100
0000
0000
0000
0000
2002
0000
,  // measure 54
0000
0000
0000
0000
,  // measure 55
3003
0000
1000
0000
0001
0100
0000
0001
,  // measure 56
0100
0000
0001
0000
0010
0000
0100
0010
,  // measure 57
0000
0100
0010
0000
0001
0000
0100
0000
,  // measure 58
0010
1000
0000
0010
1000
0000
0100
0000
,  // measure 59
0010
0000
0001
1000
0000
0001
1000
0000
,  // measure 60
0100
0000
0010
0001
0000
1000
0010
0000
,  // measure 61
0100
0001
0100
0001
1000
0100
1000
0100
,  // measure 62
0010
0000
0001
1000
0001
0000
0100
0000
,  // measure 63
0010
1000
0000
0001
0010
0000
0100
1000
,  // measure 64
0100
1000
0001
0100
0001
0100
0010
0000
,  // measure 65
0000
0000
0000
1001
0000
0001
0010
0000
0001
0010
0000
0100
,  // measure 66
1000
0000
0100
1000
0000
0001
0100
0000
0001
0100
0000
0010
,  // measure 67
1000
0000
0010
1000
0000
1000
0001
0000
0001
0010
0000
0010
,  // measure 68
0100
0000
0100
1000
0000
1000
0010
0000
0010
0100
0000
0100
,  // measure 69
0001
0000
0000
1000
0100
1000
0100
0000
0000
0010
0001
0010
,  // measure 70
0001
0000
0000
1000
0010
1000
0010
0000
0000
0100
0001
0100
,  // measure 71
0001
0000
2002
0000
0000
0000
3003
2100
,  // measure 72
0000
0000
0000
0100
0000
0000
0000
0100
,  // measure 73
0000
0000
0000
0100
0000
0000
0000
0002
,  // measure 74
0000
0000
0000
0000
,  // measure 75
0000
3003
0000
0000
0000
0000
0000
0000
;

//---------------dance-single - ----------------
#NOTES:
     dance-single:
     :
     Hard:
     18:
     0.868,1.000,0.280,0.531,0.615: // measure 1
1001
0000
0001
0100
0001
0100
0010
1000
0010
1000
0001
0000
1000
0010
0100
0010
,  // measure 2
1000
0000
0100
0010
0000
0001
0100
0000
0010
1000
0000
0100
0010
0000
0001
0000
,  // measure 3
0100
0001
0100
0001
1000
0100
1000
0000
0001
0010
0100
0010
0001
0000
0100
0000
,  // measure 4
0010
1000
0000
0100
0010
0000
0001
0100
0000
0010
2000
0000
0000
3002
0000
0000
,  // measure 5
1003
0000
0010
0100
0010
0000
1001
0000
0010
0100
0010
0000
1001
0000
0010
0100
,  // measure 6
0010
0000
1001
0000
0010
0100
0010
0000
1000
0001
0000
0000
1001
0000
0100
0010
,  // measure 7
0100
0000
1001
0000
0100
0010
0100
0000
1001
0000
0100
0010
0100
0000
1001
0000
,  // measure 8
0100
0010
0100
0000
0001
1000
0000
0000
0001
0000
0001
0010
0000
0010
0100
0000
,  // measure 9
1000
0100
0000
0100
0010
0000
0001
0100
0000
0100
0010
0000
1000
0020
0000
0000
,  // measure 10
1030
0001
0000
0000
1001
0000
1000
0100
0010
0100
1000
0000
0100
1000
0010
0100
,  // measure 11
0001
0000
0000
0000
1000
0000
0000
0000
0100
0000
0000
0000
0010
0000
0000
0000
0000
0000
0002
0000
0000
0000
0000
0000
0000
0000
0000
0000
0000
0000
0103
0000
0000
0000
0000
0000
0010
0000
0000
1000
0000
0000
0000
0000
0000
0000
0000
0000
,  // measure 12
1001
0000
0001
0010
0001
0010
0100
1000
0100
0000
1000
0010
0100
0010
1000
0000
,  // measure 13
0001
0000
0100
0001
0000
0010
0100
0000
1000
0100
0000
0010
0100
0000
1000
0000
,  // measure 14
0100
1000
0100
1000
0001
0010
0001
0010
0100
0000
1000
0010
0100
0010
1000
0000
,  // measure 15
0001
0100
0000
0001
1000
0000
0100
1000
0000
0010
0200
0000
0000
0302
0000
0000
,  // measure 16
1003
0000
0001
0100
0001
1000
0100
1000
0001
0100
0001
0000
0010
0100
1000
0100
,  // measure 17
0010
0000
0001
0100
0000
0001
1000
0000
0100
1000
0000
0001
0100
0000
0001
0000
,  // measure 18
1000
0000
0010
0100
0010
1000
0010
0100
0010
1000
0010
0000
0100
0001
0010
0001
,  // measure 19
0100
0000
0010
1000
0000
0001
1000
0000
0010
1000
0002
0000
0000
0023
0000
0000
,  // measure 20
0130
0000
0000
0000
0000
1000
0010
0000
0000
0000
1001
0000
0000
0001
0100
0000
,  // measure 21
0000
0000
2002
3003
0202
0000
0000
0000
,  // measure 22
0303
0000
1020
0000
0000
0200
0000
0000
0000
0000
0330
0000
2002
0000
0000
0000
,  // measure 23
0003
0000
0200
0000
0000
0000
0000
3000
0000
0020
0000
0000
0000
0300
0000
0002
,  // measure 24
0000
0000
0030
2003
0000
0000
3010
0000
,  // measure 25
0100
0001
0000
0001
1000
0100
0001
0100
,  // measure 26
1000
0000
0010
0100
0000
0100
0001
0010
,  // measure 27
1000
0010
0001
0000
0010
0100
0000
0100
,  // measure 28
1000
0010
0001
0010
1000
0000
1000
0100
,  // measure 29
0000
0100
1000
0010
0001
0010
1000
0100
,  // measure 30
0001
0100
1000
0001
1000
0100
0010
0001
,  // measure 31
1000
0010
0001
0010
1000
0001
1000
0010
,  // measure 32
0100
0001
1000
0010
0001
0010
0100
0001
,  // measure 33
1000
0100
0010
0100
1000
0100
0001
0100
,  // measure 34
0010
0001
1000
0000
1001
0000
0010
0100
,  // measure 35
1000
0001
0100
1000
0001
0010
1000
0001
,  // measure 36
0100
0010
1000
0001
0100
1000
0001
0010
,  // measure 37
1000
0001
0010
1000
0010
0001
1000
0100
,  // measure 38
0010
0001
0010
1000
0010
0001
1000
0010
,  // measure 39
0100
0001
0100
1000
0100
0000
0001
0100
,  // measure 40
1000
0100
0001
1000
0100
0001
1000
0010
,  // measure 41
0001
1000
0100
0010
0001
1000
0100
0001
,  // measure 42
1000
0010
0001
1000
0001
0100
0010
1000
,  // measure 43
0100
0001
1000
0010
0001
1000
0100
0010
,  // measure 44
0100
1000
1010
0000
0110
0000
0101
0000
,  // measure 45
2001
0000
0000
3100
0010
0002
0000
0000
,  // measure 46
0013
0100
2000
0000
0000
3010
0100
0002
,  // measure 47
0000
0000
0103
0010
2000
0000
0000
3001
,  // measure 48
0010
0200
0000
0000
0310
0100
2000
0000
,  // measure 49
0000
3001
0100
0020
0000
0000
1030
0010
,  // measure 50
0200
0000
0000
0301
1000
0200
0000
0000
,  // measure 51
0310
0001
2000
0000
0000
3010
0100
0002
,  // measure 52
0000
0000
0013
0100
2000
0000
0000
3001
,  // measure 53
1000
0020
0000
0000
0130
0001
2000
0000
,  // measure 54
0000
0000
0000
3100
0000
0000
0010
0000
0000
0001
0000
0000
0000
0100
0000
0000
0000
0010
0000
0000
0000
1000
0000
0000
,  // measure 55
0002
0000
1003
0100
0010
0100
1000
0001
,  // measure 56
0100
0001
1000
0000
0100
0010
0001
0010
,  // measure 57
0100
1000
0010
0001
0010
0000
1000
0010
,  // measure 58
0100
0010
1000
0001
0010
1000
0010
0000
,  // measure 59
0001
1000
0100
0010
0001
0100
0010
0100
,  // measure 60
0001
0000
1000
0100
0001
1000
0010
0001
,  // measure 61
1000
0010
1000
0100
0001
1000
0010
0001
,  // measure 62
1000
0100
1000
0000
0001
1000
0001
0100
,  // measure 63
1000
0001
0010
1000
0001
0010
0001
0100
,  // measure 64
1000
0001
0010
1000
0001
0100
0002
0000
,  // measure 65
0000
0000
0000
0003
0000
0000
0100
0000
0001
0000
0010
0000
0100
0000
1000
0000
0010
0000
0001
0000
0010
0000
1000
0000
,  // measure 66
0100
0001
0100
1000
0010
0100
1000
0100
0010
1000
0100
0001
,  // measure 67
0100
1000
0001
0010
0010
0001
0100
0100
0001
0010
0010
0001
,  // measure 68
0100
0100
0001
1000
0100
0010
0001
1000
0010
1000
0001
0010
,  // measure 69
0100
0100
0100
0010
0001
1000
2020
0000
3030
0010
0100
0001
,  // measure 70
0022
0000
0033
0100
1000
0010
0220
0000
0330
0100
0001
1000
,  // measure 71
2200
0000
0000
0000
3300
0000
0220
0000
0000
0000
0000
0000
0000
0000
0000
0000
0000
0000
0330
0000
0000
0202
0000
0000
,  // measure 72
0000
0000
0303
0220
0000
0000
0330
2020
,  // measure 73
0000
0000
3030
2002
0000
0000
3003
0220
,  // measure 74
0000
0000
0000
0000
,  // measure 75
0000
0330
0000
0000
0000
0000
0000
0000
;

//---------------dance-single - ----------------
#NOTES:
     dance-single:
     :
     Challenge:
     19:
     1.000,1.000,0.373,0.671,1.000: // measure 1
0002
0000
0000
0000
0000
0000
0013
0000
0001
0000
0010
0000
0001
0000
0000
1000
0000
0000
0100
0000
0000
0001
0000
0000
0100
0000
0000
1000
0000
0000
0001
0000
0000
0010
0000
0000
0100
0000
0000
1000
0000
0000
0100
0000
0000
0010
0000
0000
,  // measure 2
0001
0100
1000
0100
0001
0010
1000
0010
0001
0100
1000
0100
0001
0000
2000
0000
,  // measure 3
3001
0000
0100
0000
0001
0000
0100
0000
0000
0001
0000
0000
0100
0000
0000
1000
0000
0000
0100
0000
0000
0001
0000
0000
1000
0000
0000
0010
0000
0000
0100
0000
0000
0001
0000
0000
0010
0000
0000
0100
0000
0000
0010
0000
0000
0001
0000
0000
,  // measure 4
1000
0100
0001
0100
1000
0010
0001
0010
1000
0100
2200
0000
3300
2002
0000
3003
,  // measure 5
0011
0000
0000
0100
1000
0100
1000
0100
1000
0200
0000
0000
0310
0001
0010
0001
0010
0001
0020
0000
0000
0130
0010
0100
,  // measure 6
0010
0000
0100
0000
0010
0000
0200
0000
0000
0000
0000
0000
1300
0000
0001
0000
1000
0000
0001
0000
1000
0000
0001
0000
1000
0000
0000
0100
0000
0000
0000
0000
0000
0000
0000
0000
0011
0000
0000
0000
0000
0000
0010
0000
0001
0000
0010
0000
,  // measure 7
0001
0010
0001
0020
0000
0000
0130
0010
0100
0010
0100
0010
0200
0000
0000
1300
0010
1000
0010
1000
0010
2000
0000
0000
,  // measure 8
3001
0000
1000
0000
0001
0000
1000
0000
0001
0000
1000
0000
0001
0000
0000
0010
0000
0000
0000
0000
0000
0000
0000
0000
1001
0000
0000
0000
0000
0000
1000
0000
0001
0000
1000
0000
0001
0000
1000
0000
0001
0000
0010
0000
0000
0000
0000
0000
,  // measure 9
0100
1000
0100
1000
0100
1000
0010
0000
0000
1000
0010
1000
0010
1000
0010
0100
0000
0000
0010
0100
0010
0100
0010
0100
,  // measure 10
0010
0000
0000
1000
0000
0000
0000
0000
0000
0000
0000
0000
1001
0000
0000
0000
0000
0000
0001
0000
1000
0000
0001
0000
1000
0000
0001
0000
1000
0000
0100
0000
0000
0000
0000
0000
0010
0000
0001
0000
0010
0000
0001
0000
0010
0000
0001
0000
,  // measure 11
1000
0000
0000
0000
0000
0000
0001
0000
1000
0000
0001
0000
1000
0000
0001
0000
1000
0000
0010
0000
0000
0000
0000
0000
0100
0000
0001
0000
0100
0000
0001
0000
0100
0000
0001
0000
0100
0000
0000
0010
0000
0000
0000
0000
0000
0000
0000
0000
,  // measure 12
1002
0000
0000
0000
0003
0000
1000
0000
0001
0000
1000
0000
0001
0000
0000
0010
0000
0000
1000
0000
0000
0010
0000
0000
0001
0000
0000
0100
0000
0000
0010
0000
0000
1000
0000
0000
0010
0000
0000
0100
0000
0000
0001
0000
0000
1000
0000
0000
,  // measure 13
0001
0100
0010
0100
0001
0001
0100
0010
0100
0100
0010
1000
0100
0000
0020
0000
,  // measure 14
0031
0000
0100
0000
0001
0000
0100
0000
0000
0010
0000
0000
1000
0000
0000
0100
0000
0000
0001
0000
0000
0100
0000
0000
1000
0000
0000
0001
0000
0000
0010
0000
0000
0100
0000
0000
0010
0000
0000
0001
0000
0000
0100
0000
0000
0010
0000
0000
,  // measure 15
0100
0100
0010
1000
0001
0001
0010
0100
0010
0010
0202
0000
0303
0220
0000
0330
,  // measure 16
1002
0000
0000
0000
0000
0000
1003
0000
0010
0000
1000
0000
0001
0000
0000
0010
0000
0000
1000
0000
0000
0010
0000
0000
0001
0000
0000
1000
0000
0000
0100
0000
0000
1000
0000
0000
0001
0000
0000
0100
0000
0000
1000
0000
0000
0100
0000
0000
,  // measure 17
0001
0010
0100
1000
0001
0001
1000
0100
0010
0010
0100
1000
0001
0000
0200
0000
,  // measure 18
0310
0000
1000
0000
0010
0000
1000
0000
0000
0001
0000
0000
1000
0000
0000
0100
0000
0000
0001
0000
0000
0100
0000
0000
1000
0000
0000
0001
0000
0000
0010
0000
0000
0100
0000
0000
0010
0000
0001
0000
0010
0000
0001
0000
0010
0000
0001
0000
,  // measure 19
1000
0100
0010
0100
1000
1000
0010
0100
0010
0010
0202
0000
0303
0220
0000
0330
,  // measure 20
2020
0000
3030
0000
0000
0110
0010
0000
0000
0000
0011
0000
0000
0110
0200
0000
,  // measure 21
0000
0000
0300
0000
2002
0000
3003
0000
2010
0000
0010
0010
0000
0001
0001
0000
,  // measure 22
3010
0100
0001
0010
0100
2000
0000
0010
0010
0000
3010
0000
0100
0001
0010
0100
,  // measure 23
1000
0001
2000
0000
0100
0100
0000
0001
0001
0000
3010
0100
0001
0010
0100
2000
,  // measure 24
0000
0001
0001
0000
3001
0010
0100
1000
0001
0100
0002
0000
1003
0000
0010
0000
,  // measure 25
0001
0010
1000
0001
0010
0100
1000
0001
,  // measure 26
1000
0100
0001
0100
1000
0001
0100
0010
,  // measure 27
1000
0001
1000
0100
0001
0100
1000
0001
,  // measure 28
0100
0010
0100
0001
1000
0010
0001
0010
,  // measure 29
1000
0100
0010
0100
1000
0001
1000
0010
,  // measure 30
0001
1000
0100
0001
1000
0010
0100
0010
,  // measure 31
1000
0010
0001
1000
0100
0001
1000
0100
,  // measure 32
0010
0100
1000
0010
0001
1000
0100
0001
,  // measure 33
1000
0001
0010
0100
1000
0010
0001
1000
,  // measure 34
0100
0000
0001
0000
1000
0010
1000
0010
1000
0000
0001
0000
1000
0000
0010
0000
,  // measure 35
0001
0000
0010
0000
0100
0000
0001
0000
1000
0000
0010
0000
0100
0010
0100
0000
,  // measure 36
0001
0100
1000
0100
0010
1000
0001
0010
,  // measure 37
0100
0010
0100
0000
1000
0000
0100
0000
0001
0000
0100
0000
0010
0000
0001
0000
,  // measure 38
1000
0000
0010
0000
0100
0010
0100
0000
0001
0000
0010
0000
1000
0000
0010
0000
,  // measure 39
0100
0000
1000
0000
0001
0000
0010
0000
0100
0010
0100
0000
1000
0000
0010
0000
,  // measure 40
0001
0000
1000
0000
0100
0000
0001
0000
1000
0000
0100
0000
0010
0100
0010
0000
,  // measure 41
0001
0010
1000
0001
0100
1000
0001
0100
,  // measure 42
0010
0100
0010
0000
1000
0000
0010
0000
0001
0000
1000
0000
0100
0000
0001
0000
,  // measure 43
1000
0000
0010
0000
0100
0010
0100
0000
0001
0000
0010
0000
1000
0000
0001
0000
,  // measure 44
0100
0000
1000
0000
0001
0100
0001
0000
1000
0001
1000
0000
0100
1000
0100
0000
,  // measure 45
2001
0000
3001
0010
0100
0020
0000
0031
,  // measure 46
1000
0100
0020
0000
0130
1000
0001
0200
,  // measure 47
0000
0310
1000
0001
0201
0000
0310
1000
,  // measure 48
0100
0020
0000
0031
1000
0100
0020
0000
,  // measure 49
0130
1000
0001
2000
0000
3100
0010
0001
,  // measure 50
2001
0000
3001
0100
0010
2000
0000
3001
,  // measure 51
0100
0010
2000
0000
3001
0100
0010
2000
,  // measure 52
0000
3100
0010
0100
1002
0000
0103
0010
,  // measure 53
1000
0002
0000
0103
0010
1000
0002
0000
,  // measure 54
0103
0000
0000
0010
0000
0000
1000
0000
0000
1100
0000
0000
0000
1001
0000
0000
0000
0011
0000
0000
0000
1001
0000
0000
,  // measure 55
2010
0000
3001
0100
0010
0001
0010
0100
,  // measure 56
0001
1000
0001
0000
1000
0100
1000
0000
0001
0000
0100
0000
1000
0000
0100
0000
,  // measure 57
0001
0000
1000
0000
0100
0000
0010
0000
0001
0100
0001
0000
1000
0001
1000
0000
,  // measure 58
0100
0000
0001
0000
0100
0000
1000
0000
0001
0010
0001
0000
1000
0001
1000
0000
,  // measure 59
0100
0000
0001
0000
0100
0000
1000
0000
0001
0000
0010
0000
0100
0010
0100
0000
,  // measure 60
1000
0010
1000
0000
0002
0000
0100
0000
0203
0000
0010
0000
0320
0000
1000
0000
,  // measure 61
2030
0000
0001
0000
3002
0000
0010
0000
0023
0000
0100
0000
0130
1000
0100
0000
,  // measure 62
0010
0100
0010
0000
0001
0000
0100
0000
0010
0000
1000
0000
0200
0000
1000
0000
,  // measure 63
2300
0001
3002
0010
0023
0100
0230
1000
,  // measure 64
1300
0001
1000
0000
0001
0100
0001
0000
0100
0000
0010
0000
1002
0000
0000
0000
,  // measure 65
0000
0000
0000
0003
0000
0000
1001
0000
0001
0000
0010
0000
0100
0000
0100
0000
0010
0000
0001
0000
0001
0000
0100
0000
,  // measure 66
0010
0010
1000
0100
0100
1000
0001
0001
0010
0100
0100
0010
,  // measure 67
0001
0001
0100
0020
1000
1030
0002
0010
0013
0200
0010
0310
,  // measure 68
0002
1000
1003
0001
0100
1000
0100
0001
0010
0100
1000
0001
,  // measure 69
0200
0010
0310
1100
0100
0010
0001
0100
0000
1010
1000
0100
,  // measure 70
0010
0001
0000
0011
0010
0001
0100
0010
0000
1001
0001
0010
,  // measure 71
0100
0000
1000
0000
0000
0000
2001
0000
0000
0000
0000
0000
0010
0000
0000
0010
0000
0000
3010
0000
0000
0102
0000
0000
,  // measure 72
0000
0000
0000
0000
0000
0000
1003
0000
0000
2001
0000
0000
0000
0000
0000
0000
0000
0010
0000
3010
0000
0110
0000
0000
,  // measure 73
0000
0101
0000
0000
0000
1010
0000
0000
0000
1001
0000
0000
0000
0000
0000
0200
0000
0000
0000
0000
0000
2000
0000
0000
,  // measure 74
0000
0000
0000
0000
,  // measure 75
0000
3300
0000
0000
0000
0000
0000
0000
;

//---------------dance-single - ----------------
#NOTES:
     dance-single:
     :
     Beginner:
     5:
     0.160,0.276,0.196,0.000,0.000:
1001
0000
1000
0000
,
0001
0000
0010
0000
,
0100
0000
1000
0000
,
0010
0000
0100
0000
,
0110
0000
0000
0110
,
0000
0000
0110
1001
,
0000
0000
1001
0000
,
0000
1001
0110
0000
,
0000
0110
0000
0000
,
0110
1001
0000
0000
,
1001
0000
0000
1001
,
1000
0000
0100
0000
,
1000
0000
0100
0000
,
0010
0000
0001
0000
,
0010
0000
0001
0000
,
0100
0000
0010
0000
,
0100
0000
0001
0000
,
0100
0000
0010
0000
,
1000
0000
0100
0000
,
0010
0000
0000
0000
,
0000
0000
1001
0000
,
0000
0000
0000
0000
,
0000
0000
0000
0000
,
0001
0000
0000
1000
,
0000
0000
0000
0000
,
0100
0000
0000
0000
,
0000
0010
0000
0000
,
0000
0000
0001
0000
,
0000
0000
0000
0100
,
0000
0000
0010
0000
,
0100
0000
0000
0010
,
0000
0100
0000
0000
,
0010
0000
1000
0000
,
0000
0000
0000
0001
,
0000
0000
0100
0000
,
0001
0000
0000
1000
,
0000
0100
0000
0000
,
0010
0000
0001
0000
,
0000
0100
0000
0010
,
0000
0000
0100
0000
,
0001
0000
0000
0010
,
0000
0100
0000
0000
,
1000
0000
0100
0000
,
0000
1001
0000
0000
,
0110
0000
0000
0000
,
0000
0000
0000
0000
,
0000
0000
1001
0000
,
0000
0000
0000
0000
,
0000
0000
0000
0000
,
0110
0000
0000
0000
,
0000
0000
0000
0000
,
0000
0000
1001
0000
,
0000
0000
0000
0000
,
0000
0000
0000
0000
,
0000
1000
0000
0000
,
0100
0000
0000
0010
,
0000
0000
0001
0000
,
0000
0010
0000
0000
,
0100
0000
0000
1000
,
0000
0001
0000
0000
,
0100
0000
0000
0010
,
0000
0000
0100
0000
,
0000
0001
0000
0000
,
1000
0000
0000
1001
,
0000
0100
0000
0010
,
0000
0001
0000
0100
,
0000
0010
0000
0010
,
0000
0010
0000
0100
,
0000
0001
0000
1000
,
0000
0100
0000
0010
,
0000
0000
0001
0000
0000
0000
0000
1001
,
0000
0000
0000
0000
,
0000
0000
0000
0000
,
0000
0000
0000
0000
,
0000
1000
0000
0000
0000
0000
0000
0000
;
