#TITLE:Fervidex;
#SUBTITLE:;
#ARTIST:Feryquitous;
#TITLETRANSLIT:;
#SUBTITLETRANSLIT:;
#ARTISTTRANSLIT:;
#CREDIT:DigiMindAxel;
#BANNER:Fervidex.png;
#BACKGROUND:Fervidex-bg.png;
#LYRICSPATH:;
#CDTITLE:beatmania IIDX.png;
#MUSIC:Fervidex.ogg;
#METERTYPE:DDR X;
#OFFSET:-0.902;
#SAMPLESTART:78.786;
#SAMPLELENGTH:12.000;
#SELECTABLE:YES;
#BPMS:0.000=191.000;
#STOPS:;
#BGCHANGES:-4.000=Fervidex.avi=1.000=1=1=0,
99999=-nosongbg-=1.000=0=0=0 // don't automatically add -songbackground-
;

//---------------dance-single - ----------------
#NOTES:
     dance-single:
     :
     Easy:
     6:
     0.241,0.362,0.118,0.081,0.000: // measure 1
0000
0000
0000
0000
,  // measure 2
0000
0000
0000
0000
,  // measure 3
0000
0000
0000
0000
,  // measure 4
0000
0000
0000
0000
,  // measure 5
0000
0000
0000
0000
,  // measure 6
0000
0000
0000
0000
,  // measure 7
0000
0000
0000
0000
,  // measure 8
0000
0000
0000
0000
,  // measure 9
1000
0000
0100
0000
,  // measure 10
1000
0000
0100
0000
,  // measure 11
0010
0000
0001
0000
,  // measure 12
0010
0000
0001
0000
,  // measure 13
1000
0000
0010
0000
,  // measure 14
0100
0000
0001
0000
,  // measure 15
1000
0000
0010
0000
,  // measure 16
0100
0000
0001
0000
,  // measure 17
0010
0000
0000
0000
,  // measure 18
0000
0000
0000
0000
,  // measure 19
1001
0000
0001
0000
,  // measure 20
1000
0100
0010
0000
,  // measure 21
1001
0000
0001
0000
,  // measure 22
0100
0010
1000
0000
,  // measure 23
1001
0000
1000
0000
,  // measure 24
0010
0100
0001
0000
,  // measure 25
1001
0000
0001
0000
,  // measure 26
1000
0100
0010
0000
,  // measure 27
0110
0000
0010
0000
,  // measure 28
0100
0001
0010
0100
,  // measure 29
1000
0000
0001
0000
,  // measure 30
0100
0000
0010
0000
,  // measure 31
0110
0000
0100
0000
,  // measure 32
0001
0010
0100
1000
,  // measure 33
0010
0000
0100
0000
,  // measure 34
0010
0000
1000
0001
,  // measure 35
0020
0000
0000
0000
,  // measure 36
0000
0000
0000
0000
,  // measure 37
0032
0000
0000
0000
,  // measure 38
0000
0000
0000
0000
,  // measure 39
0203
0000
0000
0000
,  // measure 40
0000
0000
0000
0000
,  // measure 41
0320
0000
0000
0000
,  // measure 42
0000
0000
0000
0000
,  // measure 43
1030
0000
0001
0000
,  // measure 44
1000
0000
0001
0000
,  // measure 45
0010
0000
0001
0000
,  // measure 46
0010
0000
0001
0000
,  // measure 47
0100
0000
0010
0000
,  // measure 48
0100
0000
0010
0000
,  // measure 49
1000
0000
0100
0000
,  // measure 50
1000
0000
0000
0000
0100
0000
0000
1001
,  // measure 51
0000
0000
0000
0000
0000
0000
0000
1001
,  // measure 52
0000
0000
0000
0000
0000
0000
0000
0110
,  // measure 53
0000
0000
0000
0000
0000
0000
0000
0110
,  // measure 54
0000
0000
0000
0000
0000
0000
0000
1001
,  // measure 55
0000
0000
0000
0000
0000
0000
0000
1001
,  // measure 56
0000
0000
0000
0000
0000
0000
0000
0110
,  // measure 57
0000
0000
0000
0000
0000
0000
0000
0110
,  // measure 58
0000
0000
0000
0000
,  // measure 59
2002
0000
0000
0000
,  // measure 60
0000
0000
0000
0000
,  // measure 61
0000
0000
0000
0000
,  // measure 62
0000
0000
0000
3003
,  // measure 63
0001
0100
0010
0100
,  // measure 64
0001
1000
0100
0010
,  // measure 65
0001
1000
0100
1000
,  // measure 66
0001
0010
0100
0000
,  // measure 67
0010
0001
1000
0001
,  // measure 68
0010
0100
1000
0010
,  // measure 69
0100
0001
0100
0010
,  // measure 70
0100
0000
0000
0000
,  // measure 71
0001
1000
0100
1000
,  // measure 72
0001
0010
0100
1000
,  // measure 73
0010
0100
0010
1000
,  // measure 74
0100
0010
0001
0000
,  // measure 75
0010
0001
1000
0001
,  // measure 76
0010
0100
1000
0010
,  // measure 77
0100
0001
0100
0010
,  // measure 78
0100
0001
1000
0000
,  // measure 79
0002
0000
0000
0000
,  // measure 80
2003
0000
0000
0000
,  // measure 81
3001
0010
0100
0010
,  // measure 82
0001
0100
0010
0100
,  // measure 83
0001
0010
0100
0010
,  // measure 84
0001
1000
0010
1000
,  // measure 85
0001
0010
0100
0010
,  // measure 86
0002
0000
0000
1000
0000
1003
0000
0000
,  // measure 87
0001
0000
0000
1000
0000
0000
0001
0000
,  // measure 88
0000
0100
0000
0000
0010
0000
1000
0000
,  // measure 89
0000
0001
1000
0100
,  // measure 90
1000
0001
0010
0100
,  // measure 91
1000
0010
0100
0010
,  // measure 92
1000
0100
0010
0001
,  // measure 93
1000
0100
1000
0100
,  // measure 94
0010
0001
0100
0010
,  // measure 95
1002
0000
0000
0000
,  // measure 96
0000
0000
0000
0000
,  // measure 97
2003
0000
0000
0000
,  // measure 98
0000
0000
0000
0000
,  // measure 99
3000
0000
0000
0000
;

//---------------dance-single - ----------------
#NOTES:
     dance-single:
     :
     Medium:
     10:
     0.436,0.615,0.237,0.170,0.000:
0000
0000
0000
0000
,
0000
0000
0000
0000
,
0000
0000
0000
0000
,
0000
0000
0000
0000
,
0000
0000
0000
0000
,
0000
0000
0000
0000
,
0000
0000
0000
0000
,
0000
0000
0000
0000
,
0002
0000
2003
0000
,
3200
0000
0320
0000
,
0230
0000
2300
0000
,
3002
0000
0203
0000
,
0320
0000
0230
0000
,
0302
0000
2003
0000
,
3200
0000
2300
0000
,
3002
0000
0023
0000
,
0230
0000
0000
0000
,
0000
0000
0000
0000
,
1300
0100
0000
1000
0100
0000
0010
0000
,
0001
1000
0000
0001
1000
0000
0010
0000
,
0100
0001
0000
0100
0001
0000
0010
0000
,
0100
1000
0000
0100
1000
0000
0010
0100
,
0010
1000
0000
0010
1000
0000
0001
0000
,
0010
0001
0000
0010
0001
0000
0100
0000
,
0010
1000
0000
0010
1000
0000
0100
0000
,
0010
0001
0000
0010
0001
0000
1000
0000
,
0100
1000
0100
1000
0100
0000
0010
0000
,
0001
0000
0100
0001
0000
0100
0001
0000
,
1000
0100
0010
0100
,
1000
0000
0001
0000
0100
0001
0100
0001
,
1000
0100
1000
0100
1000
0000
0010
0000
,
0100
0000
0001
1000
0000
0001
1000
0000
,
0010
0100
0001
1000
,
0100
0010
0100
0000
1000
0010
0100
0001
,
1000
0100
1000
0100
,
1000
0100
1000
0100
,
0010
0001
0010
0001
,
0010
0001
0010
0001
,
0100
0010
0100
0010
,
0100
0010
0100
0010
,
1000
0001
1000
0001
,
1000
0001
1000
0001
,
0011
0100
1000
0010
,
0100
0001
0010
0100
,
1010
0010
0100
0001
,
1000
0100
0010
0001
,
1001
1000
0100
0010
,
0100
1000
0001
0100
,
0110
0010
1000
0100
,
0010
0000
0001
0010
0001
0100
0000
0110
,
0000
0000
0110
0000
0000
0000
0000
1010
,
0000
0000
1010
0000
0000
0000
0000
1001
,
0000
0000
1001
0000
0000
0000
0000
0011
,
0000
0000
0011
0000
0000
0000
0000
0110
,
0000
0000
0110
0000
0000
0000
0000
1010
,
0000
0000
1010
0000
0000
0000
0000
1001
,
0000
0000
1001
0000
0000
0001
0000
0011
,
0000
0011
0000
0000
,
0220
0000
0000
0000
,
0000
0000
0000
0000
,
0000
0000
0000
0000
,
0000
0000
0000
0330
,
1001
0000
0001
1000
0100
0000
0010
0001
,
0000
0010
0001
0000
0010
0100
1000
0000
,
0020
0100
0100
0130
,
0001
1000
0010
0000
0100
0001
1000
0000
,
0100
0010
0000
0100
0010
0000
0001
1000
,
0001
0000
1000
0000
0100
0010
0001
0000
,
0100
0000
0010
1000
0000
0010
1000
0000
,
0010
0100
0010
0100
0001
1000
0001
0000
,
0010
0000
0100
1000
0000
0100
1000
0000
,
0010
0100
0001
0100
0010
0000
0100
0000
,
0001
0000
1000
0100
0000
1000
0100
0000
,
0010
0001
1000
0001
0010
0000
0100
0000
,
1000
0010
0100
0000
0010
0100
0010
0000
,
1000
0001
0010
0000
0100
0000
1000
0000
,
0001
0000
0100
0001
0000
0100
0001
0000
,
0010
0000
0100
1000
0010
1000
0100
0000
,
0020
0000
0000
0000
,
0230
0000
0000
0000
,
0310
0000
0001
1000
0100
0000
1000
0100
,
0010
0000
0001
1000
0000
0001
1000
0000
,
0010
0100
0001
0000
0100
0010
0100
0000
,
0010
1000
0100
0000
0010
0000
0001
0000
,
0100
0010
0100
0010
1000
0000
0100
0000
,
0020
0000
0000
0031
0000
0011
0000
0000
,
1001
0000
0000
1100
0000
0000
0110
0000
,
0000
0011
0000
0000
1001
0000
0110
0000
,
0000
0000
0010
0100
0000
0000
0001
0010
,
0100
1100
0011
1001
,
1000
0010
0100
0000
0001
1000
0100
0010
,
0001
0000
0100
0000
0010
1000
0100
0000
,
0010
0001
0010
0001
0010
0001
0010
0001
,
1000
0010
1000
0010
1000
0010
0100
0001
,
1000
0000
0000
0100
0000
0000
0010
0000
,
0000
0001
0000
0000
1000
0000
0000
0010
,
0000
0000
0100
0000
0000
0001
0000
0000
,
0010
0000
0000
0100
0000
0000
1000
0000
;

//---------------dance-single - ----------------
#NOTES:
     dance-single:
     :
     Hard:
     13:
     0.556,0.617,0.222,0.503,0.000:
0000
0000
0000
0000
,
0000
0000
0000
0000
,
0000
0000
0000
0000
,
0000
0000
0000
0000
,
0000
0000
0000
0000
,
0000
0000
0000
0000
,
0000
0000
0000
0000
,
0000
0000
0000
0000
,
0001
0000
0000
0010
0000
0100
0010
0001
,
0000
0100
0000
0000
0010
1000
0000
0010
,
1000
0000
0000
0100
0000
0010
0000
0000
,
0001
0000
0000
0100
0000
0000
0010
0000
,
1000
0000
0000
0001
0000
0000
0000
0000
,
0020
0000
0230
0000
,
2300
0000
0000
3002
,
0000
0000
0000
0100
0000
0100
0103
0000
,
0220
0000
0000
0000
,
0000
0000
0000
0000
0000
0000
0000
0330
,
0100
0001
0000
1000
0100
0010
1000
0000
,
0010
0100
0000
1000
0001
0010
0100
0000
,
0001
0100
0000
0010
0001
1000
0010
0000
,
1000
0001
0000
0010
0100
1000
0001
0100
,
0010
1000
0000
0100
0010
1000
0010
0000
,
0200
1000
0000
1300
0000
0001
0010
0200
,
0000
0320
0000
0230
0000
2300
0000
3002
,
0000
1003
0010
0001
0010
1000
0100
0010
,
0001
0100
0010
0000
1000
0010
0000
0010
,
0100
0000
0010
0100
0000
0100
0001
0010
,
0100
1100
0010
0110
,
0001
0000
0011
0000
0100
1000
0001
0100
,
0010
1000
0001
0000
0010
0100
0000
0100
,
1000
0000
0100
0010
0000
0010
0001
2000
,
0000
3020
0000
2030
0000
3002
0000
2003
,
0000
3001
0010
0100
1000
0001
0010
0001
,
0200
0010
0010
0010
,
0010
0010
0010
0310
,
2000
0100
0100
0100
,
0100
0100
0100
3100
,
0020
0001
0001
0001
,
0001
0001
0001
0031
,
0200
0010
0010
0010
,
0010
0010
0010
0310
,
1000
0100
0010
0000
0001
1000
0000
0001
,
1000
0000
0010
0100
0001
0100
0010
0000
,
1000
0001
0010
0000
0100
1000
0000
0100
,
1000
0000
0001
0100
0010
0100
0001
0000
,
0010
0100
1000
0000
0001
0100
0000
0001
,
0100
0000
0010
1000
0100
0010
0100
2000
,
0000
3002
0000
0203
0000
0302
0000
2003
,
0000
3001
0010
1000
0010
0001
1000
1010
,
0000
0000
2020
0000
0000
3030
0000
1001
,
0000
0000
2002
0000
0000
3003
0000
0011
,
0000
0000
0022
0000
0000
0033
0000
0110
,
0000
0000
0220
0000
0000
0330
0000
1100
,
0000
0000
1100
0000
0100
1000
0010
0110
,
0000
0000
0110
0000
0010
0100
0001
0101
,
0000
0000
0101
0000
0000
0010
0000
1010
,
0000
0000
2020
0000
0000
3030
0000
0000
,
2002
0000
0000
0000
,
0000
0000
0000
0000
,
0000
0000
0000
0000
,
0000
0000
0000
3003
,
2000
0000
3100
0010
0001
0000
1000
0010
,
0100
0010
2000
0000
3001
0010
0100
0000
,
1020
0000
0100
0000
1000
0000
0130
0001
,
0010
0100
1000
0000
0100
1000
0001
0200
,
0000
0001
0301
1000
0100
0010
0100
1000
,
0020
0100
0130
0000
0001
1000
0010
0100
,
0002
0000
1000
1000
0000
0100
0100
0000
,
1003
0001
0100
0010
0100
0001
1000
0000
,
0200
0000
1300
0020
0000
0130
0002
0000
,
1003
0100
0010
0100
1000
0001
0100
0000
,
0020
0100
0100
0130
,
0001
0100
1000
0100
0001
0100
1000
0100
,
0010
1000
0001
0000
0100
0010
1000
0100
,
0010
0001
2000
0000
3002
0000
0203
0000
,
0310
1000
0100
0010
0001
1000
0010
0000
,
1000
0001
0010
0100
1000
0001
0100
0001
,
2000
0000
0000
0100
0100
3100
0000
0000
,
0020
0000
0000
0001
0001
0031
0000
0000
,
1000
0010
0001
0010
0100
0001
1000
0010
,
0100
0000
0002
0100
0000
0100
0103
0010
,
1000
0100
0001
1000
0100
0010
1000
0001
,
0010
0100
1000
0000
0001
0010
0100
0000
,
0010
0001
1000
0010
0001
0010
0100
0001
,
1001
0000
0000
1100
0000
1100
0000
0010
,
0110
0000
0000
0101
0000
0000
1001
0000
,
0000
1010
0000
0000
0010
0100
0001
2000
,
0000
0000
3001
1001
0000
0000
1000
0010
,
0100
0010
2000
0000
3010
0100
0001
1000
,
0100
0010
0000
0000
0010
0100
2000
0001
,
0000
0000
3001
1000
0100
0010
0100
1000
,
0001
0010
1000
0010
0001
0010
1000
0010
,
0001
1000
0010
0100
0001
1000
0001
0010
,
0200
0000
0000
2300
0000
0000
3020
0000
,
0000
0032
0000
0000
0023
0000
0000
2030
,
0000
0000
3200
0000
0000
0302
0000
0000
,
0203
0000
0000
2300
0000
0000
3020
0000
,
0000
0030
0000
0000
0000
0000
0000
0000
;

//---------------dance-single - ----------------
#NOTES:
     dance-single:
     :
     Challenge:
     15:
     0.770,0.914,0.178,0.444,0.318:
0000
0000
0000
0000
,
0000
0000
0000
0000
,
0000
0000
0000
0000
,
0000
0000
0000
0000
,
0000
0000
0000
0000
,
0000
0000
0000
0000
,
0000
0000
0000
0000
,
0000
0000
0000
0000
,
1000
0000
0010
0100
0000
0010
0100
0002
,
0000
2003
0000
0000
3010
0100
0000
0001
,
0010
0200
0000
2300
0000
3020
0000
0000
,
2030
0000
0000
3002
0000
0000
0023
0000
,
0032
0000
0000
2003
0000
0000
3000
0000
,
1002
0000
0000
0000
0000
0000
0000
0000
1003
0000
0100
0000
,
2000
0000
0000
3020
,
0000
0000
0000
0130
0000
0001
0010
0000
,
2002
0000
0000
0000
,
0000
0000
0000
0000
0000
0000
0000
3003
,
0002
0100
0000
0203
0010
0000
0320
1000
,
0000
0000
2030
0000
0001
0000
0000
0000
3001
1000
0001
1000
0001
0000
0010
0000
,
0200
1000
0000
2300
0001
0000
3002
0100
,
0000
0000
0203
0000
0010
0000
0000
0000
0310
1000
0010
1000
0010
0000
0100
0000
,
0002
0010
0000
0203
0010
0000
0320
1000
,
0000
0000
2030
0000
0001
0000
0000
0000
3001
0010
0001
0010
0001
0000
0100
0010
,
0000
0000
1000
0010
0000
0000
0100
0001
0000
0000
0010
0100
0000
0000
0010
0001
,
0000
0000
1000
0000
0010
0000
0100
0000
0001
1000
0001
1000
0001
0000
0100
0000
,
0010
1000
0010
1000
0010
0000
0100
0000
0001
0010
0001
0010
0001
0000
1000
0000
,
0010
0100
0010
1000
0000
1000
0001
0010
,
0100
0000
1100
0000
0010
0001
1000
0001
,
0010
0000
0011
0000
0100
1000
0001
0100
,
0001
0000
1000
0000
0100
0000
0010
0000
0001
0100
0001
0100
0001
0000
0100
0000
,
0010
0000
0001
0000
0010
0000
0100
0000
0000
0000
0100
0000
0001
0000
0010
0100
,
0000
0000
1000
0010
0000
0000
1000
0001
0000
0000
0010
0100
0000
0000
1000
0010
,
0000
0000
0100
0000
0001
0000
0010
0000
0100
0010
0100
0010
0100
0000
1000
0000
,
0001
0010
1000
0010
0001
1000
0001
1000
,
0001
0100
1000
0100
0001
0010
0100
1000
,
0001
0100
1000
0100
0001
1000
0001
1000
,
0001
0000
0010
0000
1000
0000
0010
0000
0001
0000
0100
0010
0100
0010
1000
0100
,
0010
0001
0100
1000
0100
0010
1000
0100
,
1000
0001
0010
1000
0010
0100
1000
2000
,
0100
3200
0010
0320
0001
0032
1000
2003
,
0000
3010
0001
0010
1000
0100
0010
0001
,
1000
0010
1000
0001
1000
0010
1000
0100
,
0001
1000
0010
0001
1000
0010
0100
0010
,
1000
0100
1000
0001
0100
0001
0010
0100
,
1000
0000
0100
0000
0001
0000
1000
0000
0010
0000
0001
1000
0001
1000
0010
0100
,
0001
0100
0010
1000
0001
0010
0100
0010
,
0001
0000
0100
0000
1000
0000
0001
0000
0010
0000
1000
0000
0001
0000
0010
0001
,
0000
0000
0100
0010
0000
0000
1000
0010
0000
0000
0100
0001
0000
0000
0010
0100
,
0000
0000
1000
0000
0010
0000
0100
0000
0001
1000
0001
1000
0100
0010
0001
0000
,
0000
0000
1001
0010
0100
1000
0001
0101
,
0000
0000
1010
0100
0001
0010
0100
1001
,
0000
0000
1100
0010
0001
0100
0010
1001
,
0000
0000
0011
0100
1000
0001
0100
0110
,
0000
0000
0010
1000
0010
0000
0100
0000
0001
0000
0010
0000
0100
0000
1001
0000
,
0000
0000
1000
0001
1000
0000
0100
0000
0010
0000
0001
0000
0100
0000
0110
0000
,
0000
0000
1001
0010
0100
1000
0001
0011
,
0000
0000
0100
0000
1000
0000
0010
0000
0100
0000
0001
1000
0001
0010
0100
1000
,
0020
0000
0000
0000
,
0000
0000
0000
0000
,
0000
0000
0000
0000
,
0000
0000
0000
0000
0030
2001
0000
0000
,
3010
0000
0000
0000
0100
0000
0001
0010
0001
0000
0100
0000
0010
1000
0100
0000
,
0020
0000
0001
0000
0031
0000
0000
0000
0100
0010
0100
0000
0001
1000
0001
0000
,
0010
0100
1000
0001
0010
0100
1000
0010
,
0001
0000
0010
0000
1000
0000
0000
0000
0010
0100
0010
0000
1000
0000
0001
0000
,
0020
0000
0100
0000
0130
0000
1000
0000
0001
0010
0001
0000
1000
0100
1000
0000
,
0020
0100
0130
0000
0001
0010
0100
1000
,
0001
0100
1000
0100
0001
0010
1000
0010
,
0001
0100
0001
0000
1000
0001
1000
0000
0010
1000
0010
0000
1000
0001
1000
0000
,
0200
0010
0310
0002
0010
0013
0200
1000
,
1300
0020
0100
0130
0001
0010
0200
1000
,
1300
0010
0100
0000
0001
0000
0100
0000
0010
0000
0100
0000
0001
0000
0000
0000
,
2000
0100
3002
0100
2003
0100
3002
0100
,
1003
0010
0100
0000
0010
0000
0000
0000
0100
0001
0010
0000
0100
0000
1000
0000
,
0001
0100
1000
0100
0001
0010
0100
1000
,
0001
0010
0001
0000
1000
0001
1000
0000
0100
1000
0100
0000
1000
0001
1000
0000
,
0010
0000
0100
0000
0001
0000
0100
0010
0000
0100
0010
0000
1000
0000
0100
0000
,
0020
0001
0000
0100
0100
0130
0000
0000
,
2000
0010
0000
0001
0001
0001
3002
0000
,
1003
0010
0001
0010
0100
0001
1000
0100
,
0001
0000
0100
0000
1000
0000
0020
0000
0000
0000
0130
0001
0010
0100
1000
0001
,
2000
0100
3002
0100
2003
0100
3002
0100
,
1003
0010
0001
0010
0100
0001
1000
0100
,
0010
0100
1000
0001
0100
1000
0001
0010
,
0022
0000
0033
0110
0000
0110
0000
1000
,
1001
0000
0000
0000
0010
0001
0020
0000
0000
0000
0130
0010
0200
0000
0000
0000
,
1300
0100
2000
0000
0000
0000
3001
1000
0001
0000
0010
0000
0100
0000
1100
0000
,
0000
0000
1100
1001
0000
0001
1000
0010
,
0001
0000
0010
0000
0100
0000
0001
0000
1000
0100
1000
0100
1000
0000
0001
0000
,
0100
0000
1000
0000
0100
0000
0010
0000
1000
0001
1000
0001
1000
0000
0010
0000
,
0100
0001
0010
0001
1000
0010
0001
0010
,
1000
1000
0100
0100
0010
0010
0001
0001
,
0100
0001
0100
0001
1000
0100
1000
0100
0010
0001
0010
0001
1000
0010
0100
0001
,
1000
0100
0010
0001
0000
0100
0000
0100
,
0001
0010
0100
1000
0000
0010
0000
0010
,
0100
0001
0010
0100
0000
1000
0000
1000
,
0100
0010
0001
0100
0000
0000
0000
0010
,
0100
0000
0002
0000
0000
0000
0000
1003
;

//---------------dance-single - ----------------
#NOTES:
     dance-single:
     :
     Beginner:
     2:
     0.134,0.253,0.104,0.000,0.000:
0000
0000
0000
0000
,
0000
0000
0000
0000
,
0000
0000
0000
0000
,
0000
0000
0000
0000
,
0000
0000
0000
0000
,
0000
0000
0000
0000
,
0000
0000
0000
0000
,
0000
0000
0000
0000
,
0001
0000
0000
0000
,
0000
0000
0000
0000
,
0100
0000
0000
0000
,
0000
0000
0000
0000
,
0010
0000
0000
0000
,
0000
0000
0000
0000
,
1000
0000
0000
0000
,
0001
0000
0000
0000
,
1000
0000
0000
0000
,
0000
0000
0000
0000
,
1001
0000
0000
0000
,
0001
0000
0000
0000
,
1000
0000
0000
0000
,
0100
0000
0000
0000
,
0010
0000
0000
0000
,
0001
0000
0000
0000
,
0100
0000
0010
0000
,
0100
0000
0000
0000
,
0001
0000
0000
0000
,
1000
0000
0000
0000
,
0100
0000
0000
0000
,
0010
0000
0000
0000
,
0001
0000
0000
0000
,
0100
0000
0000
0000
,
0010
0000
1000
0000
,
0010
0000
0000
0000
,
1001
0000
0000
0000
,
0000
0000
0000
0000
,
1000
0000
0000
0000
,
0000
0000
0000
0000
,
0001
0000
0000
0000
,
0000
0000
0000
0000
,
1000
0000
0000
0000
,
0000
0000
0000
0000
,
0001
0000
0010
0000
,
0100
0000
0000
0000
,
0010
0000
0100
0000
,
1000
0000
0000
0000
,
0001
0000
0010
0000
,
0100
0000
0000
0000
,
0010
0000
0100
0000
,
1000
0000
0000
0000
0000
0000
0000
1001
,
0000
0000
0000
0000
0000
0000
0000
1001
,
0000
0000
0000
0000
0000
0000
0000
1001
,
0000
0000
0000
0000
0000
0000
0000
1001
,
0000
0000
0000
0000
0000
0000
0000
0110
,
0000
0000
0000
0000
0000
0000
0000
0110
,
0000
0000
0000
0000
0000
0000
0000
0110
,
0000
0000
0000
0000
0000
0000
0000
0110
,
0000
0000
0000
0000
,
1001
0000
0000
0000
,
0000
0000
0000
0000
,
0000
0000
0000
0000
,
0000
0000
0000
0000
,
1000
0000
0000
0000
,
0100
0000
1000
0001
,
1000
0000
0010
0000
,
0100
0000
0001
0000
,
0010
0000
0001
1000
,
0001
0000
0010
0000
,
0100
0000
1000
0000
,
0010
0000
0000
0000
,
0100
0000
0001
0000
,
0010
0000
0100
0000
,
1000
0001
1000
0000
,
0100
0000
0010
0000
,
0001
1000
0001
0000
,
0010
0000
0100
0000
,
1000
0010
1000
0000
,
0001
1000
0001
0000
,
1000
0000
0000
0000
,
0000
0000
0000
0000
,
0001
0000
0010
0000
,
0100
0010
0100
0000
,
1000
0000
0010
0000
,
1000
0010
1000
0000
,
0100
0000
0010
0000
,
0001
0000
0000
0000
,
1001
0000
0000
0000
,
0000
0000
1001
0000
,
0000
1001
0000
0000
,
1000
0000
0100
0000
,
1000
0000
0000
0000
,
0010
0000
0100
0000
,
0010
0000
0000
0000
,
1000
0000
0001
0000
,
0010
0000
0000
0000
,
0000
0000
0000
0000
,
0100
0000
0000
0000
,
0000
0000
0000
1000
;
