#TITLE:ふがいないや;
#SUBTITLE:;
#ARTIST:YUKI;
#TITLETRANSLIT:FUGAINAIYA;
#SUBTITLETRANSLIT:;
#ARTISTTRANSLIT:;
#CREDIT:DigiMindAxel;
#BANNER:FUGAINAIYA.png;
#BACKGROUND:FUGAINAIYA-bg.png;
#LYRICSPATH:FUGAINAIYA.lrc;
#CDTITLE:DigiMindAxel original simfile.png;
#MUSIC:FUGAINAIYA.ogg;
#METERTYPE:DDR X;
#OFFSET:-0.651;
#SAMPLESTART:22.972;
#SAMPLELENGTH:12.000;
#SELECTABLE:YES;
#BPMS:0.000=160.000;
#STOPS:;
#BGCHANGES:-4.000=FUGAINAIYA.avi=1.000=1=1=0,
99999=-nosongbg-=1.000=0=0=0 // don't automatically add -songbackground-
;

//---------------dance-single - ----------------
#NOTES:
     dance-single:
     :
     Easy:
     3:
     0.186,0.226,0.022,0.089,0.000:
0000
0000
0000
0000
,
0000
0000
0000
0000
,
0000
0000
0000
0000
,
0000
0000
0000
0000
,
0000
0000
0000
0000
,
0000
0000
0000
0000
,
0000
0000
0000
0000
,
0000
0000
0000
0000
,
1000
0000
1000
0000
,
0100
0000
0100
0000
,
1000
0000
1000
0000
,
0010
0000
0010
0000
,
0100
0000
0100
0000
,
0001
0000
0001
0000
,
1000
0000
1001
0000
,
0002
0000
0103
0000
,
0020
0000
0000
0000
,
2030
0000
3100
0000
,
0020
0000
0000
0000
,
0032
0000
1003
0000
,
0200
0000
0000
0000
,
2300
0000
3010
0000
,
0200
0000
0000
0000
,
0301
0000
1000
0000
,
0100
0000
1000
0000
,
0100
0000
0010
0000
,
0001
0000
0000
0000
,
1000
0000
0010
0000
,
1000
0000
0010
0000
,
0100
0000
0001
0000
,
1000
0000
0000
0000
,
1001
0000
0001
0000
,
1000
0000
0100
0000
,
1000
0001
1000
0000
,
0010
0000
0000
0000
,
0100
0000
0001
0000
,
1000
0000
0010
0100
,
0010
0000
1000
0000
,
0001
0000
0000
0000
,
0010
0001
0010
0000
,
0100
0000
1000
0000
,
0010
0100
0010
0000
,
0100
0000
0001
0000
,
1000
0100
1000
0000
,
0001
0000
1000
0000
,
0010
0000
0100
0000
,
0001
0000
0100
0000
,
0010
0000
1000
0000
,
0100
0000
0010
0000
,
0001
1000
0001
0000
,
0100
0001
0100
0000
,
0010
0100
0010
0000
,
1000
0001
1000
0000
,
0100
1000
0100
0000
,
0010
0100
0010
0000
,
0001
0001
0100
0000
,
0010
0010
1000
0000
,
0100
0000
0100
0000
0010
0000
0000
0001
;

//---------------dance-single - ----------------
#NOTES:
     dance-single:
     :
     Medium:
     7:
     0.346,0.420,0.078,0.134,0.000:
0000
0000
0000
0000
,
0000
0000
0000
0000
,
0000
0000
0000
0000
,
0000
0000
0000
0000
,
0000
0000
0000
0000
,
0000
0000
0000
0000
,
0000
0000
0000
0000
,
0000
0000
0000
0000
,
0001
0001
0001
0000
,
0100
0100
0100
0000
,
0001
0001
0001
0000
,
1000
1000
1000
0000
,
0010
0010
0010
0000
,
0100
0100
0100
0000
,
0001
0000
1000
0000
0001
1000
0000
0000
,
0100
0000
0110
0000
,
0001
0100
0010
0000
,
0100
0000
1001
0000
,
0001
0010
0100
0000
,
1000
0000
1010
0000
,
0010
0100
0001
0000
,
0100
0000
0110
0000
,
0010
1000
0100
0000
,
1001
1000
0001
0100
,
0001
0000
1000
0100
0010
0000
0001
0000
,
0100
0000
0010
1000
0100
0000
0010
0000
,
0001
0000
0100
0010
1000
0000
0100
0000
,
0010
0000
0001
0100
0010
0000
1000
0000
,
0100
0000
0010
0100
1000
0000
0001
0000
,
0010
0000
0100
0010
0001
0000
0000
1001
,
0000
0100
1000
0100
0000
0010
0100
0000
,
1001
0000
0001
0000
0010
0000
0100
1000
,
0000
0010
0000
0100
0000
0001
0000
0000
,
1000
0100
0010
0000
0001
0000
1000
0010
,
0000
0200
0000
0000
0000
0000
0300
0000
,
0001
0000
1000
0100
0010
0001
0000
1000
,
0000
0001
0000
0000
0100
0001
1000
0000
,
0100
0000
0010
0200
0000
0000
1300
0200
,
0000
0000
0000
0300
,
1000
0000
0010
0000
0100
0001
1000
0100
,
0000
0010
0000
0100
0000
0000
1000
0000
,
0001
0000
0100
0000
0001
0010
0100
1000
,
0000
0020
0000
0000
0000
0000
0030
0000
,
0100
0000
0001
0000
1000
0000
0100
1000
,
0000
0100
0000
0000
1000
0001
1000
0000
,
0010
0000
0100
0002
0000
0000
1003
0200
,
0000
0000
0300
0010
0001
0010
0001
0200
,
0000
0000
0310
2000
0000
0000
3100
0020
,
0000
0000
0000
0031
,
1000
0100
0010
0000
0100
0000
1000
0001
,
0100
0000
0001
0010
0100
0000
1000
0000
,
0001
0010
0100
0000
0010
0000
0001
1000
,
0010
0000
0100
0000
0001
0000
1000
0100
,
0010
0000
0001
0200
0000
0000
0310
2000
,
0000
0000
3002
0000
,
1003
0100
0010
0000
0100
1000
0100
0000
,
0010
0001
1000
0000
0010
0100
0010
0000
,
0100
0001
0010
0000
0001
0010
0100
1000
;

//---------------dance-single - ----------------
#NOTES:
     dance-single:
     :
     Hard:
     11:
     0.518,0.581,0.045,0.279,0.167: // measure 1
0000
0000
0000
0000
,  // measure 2
0000
0000
0000
0000
,  // measure 3
0000
0000
0000
0000
,  // measure 4
0000
0000
0000
0000
,  // measure 5
0000
0000
0000
0000
,  // measure 6
0000
0000
0000
0000
,  // measure 7
0000
0000
0000
0000
,  // measure 8
0000
0000
0000
0000
,  // measure 9
2000
3010
1000
0020
,  // measure 10
0130
0010
0100
0002
,  // measure 11
0013
0001
0010
0200
,  // measure 12
1300
0100
1000
0200
,  // measure 13
0310
0100
0010
0002
,  // measure 14
0103
0001
0100
0020
,  // measure 15
0130
0000
0010
0000
1000
0010
0000
0000
,  // measure 16
1002
0000
0000
0000
0013
0000
0000
0100
,  // measure 17
0000
1000
0000
0001
0000
0100
0000
0000
,  // measure 18
0020
0000
0000
0000
0130
0000
0000
0001
,  // measure 19
0000
2000
0000
0000
0100
0000
3100
0000
,  // measure 20
2001
0000
0000
0000
3010
0000
0000
0100
,  // measure 21
0000
0001
0000
0000
0100
0000
0010
2000
,  // measure 22
0000
0000
3010
0200
0000
0000
0301
2000
,  // measure 23
0000
0100
0100
3100
,  // measure 24
1001
0000
0000
0000
0001
0000
0000
0001
0100
0000
0001
0000
1000
0000
0000
0000
,  // measure 25
0100
0000
0000
0000
0010
0000
0000
0010
0001
0000
0010
0000
0100
0000
0000
0000
,  // measure 26
1000
0000
0000
0000
0010
0000
0000
0010
0100
0000
0010
0000
1000
0000
0000
0000
,  // measure 27
0001
0000
0000
0000
0010
0000
0000
0010
0001
0000
0010
0000
0100
0000
1000
0000
,  // measure 28
0010
0000
0000
0000
0100
0000
0000
0100
0001
0000
0100
0000
0010
0000
0000
0000
,  // measure 29
1000
0000
0000
0000
0100
0000
0000
0100
1000
0000
0100
0000
0010
0000
0000
0000
,  // measure 30
0001
0000
0100
0001
0010
0100
1000
0020
,  // measure 31
0000
0100
0100
0230
0000
0001
0001
0301
,  // measure 32
1001
0000
1000
0010
0100
0001
0010
1000
,  // measure 33
0000
0000
0010
0000
0000
0000
0001
0000
0000
0000
0100
0000
0010
0100
0010
0100
,  // measure 34
0010
1000
0001
0000
1000
0001
0010
1000
,  // measure 35
0000
0000
0020
0000
0000
0000
0000
0000
0000
0000
0000
0000
0031
1000
0001
1000
,  // measure 36
0001
0000
1000
0100
0010
0001
0000
0010
,  // measure 37
0000
0000
1000
0000
0000
0000
0010
0000
0001
0000
1000
0000
0010
0100
0010
0100
,  // measure 38
0010
1000
0001
0010
0000
0100
1000
0020
,  // measure 39
0000
0000
0000
0000
0100
0000
0000
0000
0130
0000
0000
0000
0001
1000
0001
1000
,  // measure 40
0001
0000
0010
0001
0100
0010
1000
0100
,  // measure 41
0000
0000
0001
0000
0000
0000
0100
0000
0000
0000
1000
0000
0100
0010
0100
0010
,  // measure 42
0100
1000
0010
0000
1000
0001
0010
1000
,  // measure 43
0000
0000
0020
0000
0000
0000
0000
0000
0000
0000
0000
0000
0031
1000
0001
1000
,  // measure 44
0001
0000
0010
0001
0100
0010
1000
0100
,  // measure 45
0000
0000
0001
0000
0000
0000
0100
0000
1000
0000
0001
0000
0010
0100
0010
0100
,  // measure 46
0010
0001
1000
0200
0000
0310
0001
2000
,  // measure 47
0000
0000
0000
0000
3010
0000
0100
0000
0001
0000
0100
0000
0010
1000
0010
1000
,  // measure 48
0010
0100
0001
0020
0000
0130
1000
0002
,  // measure 49
0000
0000
0000
0000
0100
0000
0000
0000
0103
0000
0000
0000
0010
0100
0010
0100
,  // measure 50
0010
1000
0010
0001
0010
0000
1000
0100
,  // measure 51
0001
0000
0100
0000
1000
0000
0010
0000
0100
0000
0000
0000
0001
1000
0001
1000
,  // measure 52
0001
0100
0001
0010
1000
0010
0001
0100
,  // measure 53
0010
0000
0000
0000
1000
0000
0010
0000
0001
0000
0010
0000
1000
0001
1000
0001
,  // measure 54
1000
0001
0100
0020
0000
1030
0100
0020
,  // measure 55
0000
0000
0000
0000
0001
0000
0000
0000
0031
0000
0000
0000
0100
0010
0100
0010
,  // measure 56
0100
0001
0100
1000
0001
0010
1000
0001
,  // measure 57
1000
1000
0100
0100
0010
0010
0001
0001
,  // measure 58
1000
0100
0001
1000
0010
0001
1000
0001
;

//---------------dance-single - ----------------
#NOTES:
     dance-single:
     :
     Beginner:
     1:
     0.107,0.127,0.000,0.000,0.000:
0000
0000
0000
0000
,
0000
0000
0000
0000
,
0000
0000
0000
0000
,
0000
0000
0000
0000
,
0000
0000
0000
0000
,
0000
0000
0000
0000
,
0000
0000
0000
0000
,
0000
0000
0000
0000
,
0001
0000
0000
0000
,
1000
0000
0000
0000
,
0100
0000
0000
0000
,
1000
0000
0000
0000
,
0001
0000
0000
0000
,
0100
0000
0000
0000
,
0010
0000
0000
0000
,
1000
0000
1000
0000
,
1000
0000
0000
0000
,
0001
0000
0001
0000
,
0001
0000
0000
0000
,
1000
0000
1000
0000
,
1000
0000
0000
0000
,
0001
0000
0001
0000
,
0001
0000
0000
0000
,
0100
0000
0010
0000
,
0100
0000
0000
0000
,
0001
0000
1000
0000
,
0001
0000
0000
0000
,
0100
0000
0010
0000
,
0100
0000
0000
0000
,
0001
0000
1000
0000
,
0001
0000
0000
0000
,
0010
0000
0100
0000
,
1000
0000
0000
0000
,
0001
0000
0010
0000
,
0100
0000
0000
0000
,
0010
0000
0100
0000
,
1000
0000
0000
0000
,
0001
0000
1000
0000
,
0001
0000
0000
0000
,
1000
0000
0001
0000
,
1000
0000
0000
0000
,
0001
0000
1000
0000
,
0001
0000
0000
0000
,
1000
0000
0001
0000
,
1000
0000
0000
0000
,
0100
0000
0010
0000
,
0001
0000
0000
0000
,
1000
0000
0100
0000
,
0010
0000
0000
0000
,
0001
0000
0000
0000
,
0100
0000
0000
0000
,
0010
0000
0000
0000
,
1000
0000
0000
0000
,
0010
0000
0000
0000
,
0100
0000
0000
0000
,
0001
0000
0000
0000
,
1000
0000
0000
0000
,
0100
0000
0000
0000
;
