#TITLE:Extra Mode;
#SUBTITLE:;
#ARTIST:USAO;
#TITLETRANSLIT:;
#SUBTITLETRANSLIT:;
#ARTISTTRANSLIT:;
#CREDIT:DigiMindAxel;
#BANNER:Extra Mode.png;
#BACKGROUND:Extra Mode-bg.png;
#LYRICSPATH:;
#CDTITLE:DigiMindAxel original simfile.png;
#MUSIC:Extra Mode.ogg;
#METERTYPE:DDR X;
#OFFSET:-6.209;
#SAMPLESTART:85.581;
#SAMPLELENGTH:12.000;
#SELECTABLE:YES;
#BPMS:0.000=195.000,18.000=97.500,42.000=195.000;
#STOPS:;
#BGCHANGES:;

//---------------dance-single - ----------------
#NOTES:
     dance-single:
     :
     Easy:
     6:
     0.268,0.314,0.000,0.031,0.000: // measure 1
1000
0001
0000
0001
,  // measure 2
0000
1000
0000
0100
,  // measure 3
0000
0010
0000
0001
,  // measure 4
0000
0100
0020
0000
,  // measure 5
0000
0000
0130
0000
,  // measure 6
0000
0000
0000
0000
,  // measure 7
0000
0000
0001
1000
,  // measure 8
0100
0010
0001
0001
,  // measure 9
0100
0010
1000
1000
,  // measure 10
0001
0010
0100
0100
,  // measure 11
0010
0001
1000
0001
,  // measure 12
1000
0000
0100
1000
,  // measure 13
0100
0010
0001
0100
,  // measure 14
0001
0000
0100
0001
,  // measure 15
0010
0100
1000
0001
,  // measure 16
1000
0000
0100
1000
,  // measure 17
0100
0010
0001
0100
,  // measure 18
0001
0000
0100
0010
,  // measure 19
0100
0001
0010
0000
,  // measure 20
0010
0000
0100
0000
,  // measure 21
0100
0000
1000
0000
,  // measure 22
1000
0000
0001
0000
,  // measure 23
0001
0000
1000
0001
,  // measure 24
1000
0001
1000
0001
,  // measure 25
1000
0001
0010
0100
,  // measure 26
1000
0001
0100
0000
,  // measure 27
0000
0000
0001
1000
,  // measure 28
0001
1000
0100
1000
,  // measure 29
0100
0000
0010
0001
,  // measure 30
0010
0001
1000
0001
,  // measure 31
0000
0000
1000
0100
,  // measure 32
1000
0100
0010
0001
,  // measure 33
0100
0010
0100
0000
,  // measure 34
0001
0000
1000
0100
,  // measure 35
0010
0001
1000
1000
,  // measure 36
0001
0001
1000
1000
,  // measure 37
0001
0000
1000
1000
,  // measure 38
0001
0001
1000
1000
,  // measure 39
0001
0000
0010
0010
,  // measure 40
0100
0100
0010
0010
,  // measure 41
0100
0000
1000
1000
,  // measure 42
0100
0100
0010
0010
,  // measure 43
0001
0001
2000
0000
,  // measure 44
0000
0000
0000
0000
,  // measure 45
0000
0000
0000
0000
,  // measure 46
0000
0000
0000
0000
,  // measure 47
3000
0000
0020
0000
,  // measure 48
0000
0000
0000
0000
,  // measure 49
0000
0000
0000
0000
,  // measure 50
0000
0000
0000
0000
,  // measure 51
0030
0000
0100
0000
,  // measure 52
0001
0000
0100
0000
,  // measure 53
0001
0000
1000
0000
,  // measure 54
0100
0000
1000
0000
,  // measure 55
0100
0000
0010
0001
,  // measure 56
0010
0000
0001
1000
,  // measure 57
0001
0000
1000
0100
,  // measure 58
0010
0001
1000
0000
,  // measure 59
0000
0000
0010
1000
,  // measure 60
0010
1000
0100
0010
,  // measure 61
0001
0000
0100
0001
,  // measure 62
0100
0001
0010
0100
,  // measure 63
1000
0000
0100
1000
,  // measure 64
0100
1000
0010
0100
,  // measure 65
0001
0000
0010
0001
,  // measure 66
0010
0001
0100
0010
,  // measure 67
1000
0000
0100
0010
,  // measure 68
0100
0010
0001
0100
,  // measure 69
0000
0000
0010
0100
,  // measure 70
0010
1000
0100
0010
,  // measure 71
0000
0000
0001
0100
,  // measure 72
0001
1000
0100
0010
,  // measure 73
0000
0000
0001
0010
,  // measure 74
0001
1000
0010
0100
,  // measure 75
0000
0000
0010
0100
,  // measure 76
0010
0100
0001
1000
,  // measure 77
0100
0010
0001
1000
,  // measure 78
0001
1000
0010
0100
,  // measure 79
0001
0000
1000
0001
,  // measure 80
1000
0001
0100
0010
,  // measure 81
1000
0010
0100
0001
,  // measure 82
1000
0100
0010
0000
,  // measure 83
0000
0000
0002
0000
,  // measure 84
0000
0000
0000
0000
,  // measure 85
0000
0100
0100
0000
,  // measure 86
0000
0000
0000
0000
,  // measure 87
0000
0000
0100
0000
,  // measure 88
0000
0000
0000
0000
,  // measure 89
0000
0000
0100
0000
,  // measure 90
0000
0000
0003
0000
;

//---------------dance-single - ----------------
#NOTES:
     dance-single:
     :
     Medium:
     10:
     0.505,0.610,0.428,0.117,0.039: // measure 1
1000
1010
1000
1010
,  // measure 2
1000
1001
1000
1001
,  // measure 3
0001
0011
0001
0011
,  // measure 4
0010
0110
2200
0000
,  // measure 5
0000
3300
2002
0000
,  // measure 6
0000
0000
0000
0000
,  // measure 7
0000
0000
0000
0000
0000
0000
3003
0000
1000
0000
0100
0000
0010
0001
0000
1000
,  // measure 8
0001
0000
0010
0000
0100
0000
0000
0000
0010
0000
0001
0000
0100
0010
0000
1000
,  // measure 9
0100
0000
0010
0000
0100
0000
0000
0000
1000
0000
0010
0000
0100
0001
0000
1000
,  // measure 10
0100
0000
1000
0000
0001
0000
0000
0000
0010
0000
0001
0000
0100
0010
0000
1000
,  // measure 11
0010
0100
0001
0000
1001
0000
1000
0000
,  // measure 12
0100
1000
0010
0000
0100
0000
0001
1000
,  // measure 13
0000
0100
1000
0000
0001
0000
0100
0000
,  // measure 14
0010
0100
0010
0000
0100
0000
0001
1000
,  // measure 15
0000
0100
1000
0000
0100
0000
0010
0000
,  // measure 16
0001
1000
0001
0000
1000
0000
0100
1000
,  // measure 17
0000
0001
0100
0000
0010
0000
1000
0000
,  // measure 18
0100
0010
0100
0000
0010
0000
0001
1000
,  // measure 19
0000
0010
1000
0000
1001
0000
0100
0000
,  // measure 20
1001
0100
1001
0100
,  // measure 21
1001
0000
1001
0010
,  // measure 22
1001
0010
1001
0010
,  // measure 23
1001
0000
1100
0100
,  // measure 24
1100
0100
0011
0010
,  // measure 25
0011
0000
0010
0000
0001
1000
0001
1000
,  // measure 26
0100
0010
0001
1000
0020
0000
0000
0000
,  // measure 27
0000
0000
1030
0000
0002
0000
1003
0100
,  // measure 28
1000
0100
0010
0000
0001
0000
0200
0000
,  // measure 29
0310
0000
1000
0001
0010
0000
0100
1000
,  // measure 30
0100
1000
0010
0000
0200
0000
0000
0001
,  // measure 31
0000
0000
0301
0000
2000
0000
3100
0010
,  // measure 32
0100
0010
0001
0000
1000
0000
0010
0000
,  // measure 33
1000
0001
0010
0000
0100
1000
0100
1000
,  // measure 34
0010
0000
0100
0000
0002
0000
0000
1000
,  // measure 35
0000
0000
1003
0000
0001
0010
0000
0100
,  // measure 36
0000
1000
0000
0001
0000
0100
0000
0010
,  // measure 37
0000
1000
0001
1000
0000
0100
0000
0010
,  // measure 38
0000
0001
0000
1000
0000
0010
0000
0100
,  // measure 39
0001
0100
0000
0001
1000
0001
1000
0100
,  // measure 40
0000
0010
0000
0001
0000
0100
0000
0001
,  // measure 41
0000
1000
0100
1000
0010
0000
0110
0000
,  // measure 42
0010
0110
1000
1001
,  // measure 43
1001
0000
0201
0000
,  // measure 44
0000
0000
0000
0000
,  // measure 45
0000
0000
0302
0000
,  // measure 46
0000
0000
0000
0000
,  // measure 47
0000
0000
2003
0000
,  // measure 48
0000
0000
0000
0000
,  // measure 49
0000
0000
3200
0000
,  // measure 50
0000
0000
0000
0000
,  // measure 51
0000
0000
1300
1001
,  // measure 52
1000
1001
0001
1001
,  // measure 53
0001
1001
0100
0110
,  // measure 54
0100
0110
0010
0110
,  // measure 55
0010
0110
1000
1001
,  // measure 56
1001
1001
0010
0101
,  // measure 57
0101
0000
0101
0000
0010
1000
0010
1000
,  // measure 58
0001
0010
0001
0010
0100
0000
0000
0000
,  // measure 59
0000
0000
1001
1100
,  // measure 60
0010
0001
0100
0000
0001
0000
1000
0100
,  // measure 61
0000
0010
0100
0000
1100
0000
1001
0000
,  // measure 62
0001
0100
0010
0000
0100
0000
0001
1000
,  // measure 63
0000
0100
1000
0000
1001
0000
0101
0000
,  // measure 64
0010
1000
0100
0000
0010
0000
0001
1000
,  // measure 65
0000
0010
1000
0000
1001
0000
0011
0000
,  // measure 66
0100
0000
1000
0000
0010
0000
0100
0000
0001
0000
0000
0001
0000
0000
0001
0000
,  // measure 67
0000
0000
0000
0000
0010
0000
0100
1000
,  // measure 68
0001
0000
1000
0010
0000
0100
0000
0001
,  // measure 69
0000
1000
0100
0000
0010
0000
0001
1000
,  // measure 70
0010
0000
0100
0001
0000
0010
0000
0100
,  // measure 71
0000
1000
0001
0000
0100
0000
0010
1000
,  // measure 72
0001
0000
0010
0100
0000
1000
0000
0001
,  // measure 73
0000
0100
0001
0000
0010
0000
0100
1000
,  // measure 74
0001
0000
0100
0001
1000
0100
1000
0100
,  // measure 75
1000
0000
0000
0000
1001
0000
0001
1000
,  // measure 76
0100
0000
0010
0001
1000
0000
0100
1000
,  // measure 77
0001
0000
0010
0001
1000
0000
0100
0010
,  // measure 78
0001
0000
1000
0100
0010
0000
0001
0100
,  // measure 79
0010
0000
1000
0000
1001
0000
0001
1000
,  // measure 80
0100
0000
0010
0001
1000
0000
0100
0010
,  // measure 81
0001
0000
1000
0100
0010
0000
0100
1000
,  // measure 82
0010
0000
0000
0000
0100
0000
0001
0000
0010
0000
0000
0010
0000
0000
0010
0000
,  // measure 83
0000
0000
1001
0001
,  // measure 84
0001
1000
0100
0010
,  // measure 85
0000
0001
1001
1000
,  // measure 86
1000
0010
0100
0001
,  // measure 87
0010
0000
1001
0001
,  // measure 88
0001
1000
0010
0100
,  // measure 89
0001
0000
1001
1000
,  // measure 90
1000
0001
0020
0000
,  // measure 91
0000
0000
0000
0000
,  // measure 92
0000
0000
0000
0000
,  // measure 93
0000
0030
0000
0000
;

//---------------dance-single - ----------------
#NOTES:
     dance-single:
     :
     Hard:
     13:
     0.724,0.898,0.592,0.343,0.117:
1001
0000
0001
1000
0001
1000
0100
1000
,
0100
0010
0001
0010
0001
1000
0010
1000
,
0010
0100
0001
0100
0001
0010
0100
0010
,
0100
1000
0010
0100
0020
0000
0000
0000
,
0000
0030
2002
0000
,
0000
0000
0000
0000
,
0000
0000
0000
0000
0000
0000
3003
0000
1010
0000
1000
0000
0010
0100
0001
0100
,
0010
0100
0001
1000
0000
1000
0010
0000
0100
0000
0100
0000
0010
1000
0100
0010
,
0100
1000
0001
0100
0000
0100
0010
0000
0100
0000
0100
0000
0001
0010
0100
0010
,
0001
1000
0010
1000
0000
1000
0001
0000
0010
0000
0010
0000
0100
1000
0001
0010
,
0001
0100
0010
1000
0000
1000
0001
0000
1001
0000
0000
0000
0011
0000
0000
0000
,
0100
1000
0001
1000
0100
1000
0001
0200
,
0000
0310
0100
0001
0010
0000
1001
0000
,
0001
0010
0001
0100
0001
0010
0001
0200
,
0000
0310
0000
0000
1000
0000
1001
0000
,
0001
0010
0100
0010
0001
1000
0010
2000
,
0000
3001
1000
0100
0010
0000
1001
0000
,
0001
1000
0100
1000
0001
1000
0100
0020
,
0000
0130
0000
0000
1010
0000
1001
0000
,
1010
1001
0011
1001
,
0011
0010
1001
1100
,
1001
1100
1001
1010
,
1001
0001
0110
1100
,
0110
0011
0110
1100
,
1001
1000
1000
0000
0100
0100
1000
1000
,
0001
1000
0010
0100
0002
0000
0000
1000
,
0000
1000
1003
0000
0012
0000
0103
0100
,
0010
0010
0100
0100
0001
0010
0100
2000
,
0010
3010
0100
0001
0020
0000
0031
0001
,
1000
0000
1000
0000
0001
0000
0001
0000
0020
0000
0000
0230
0000
0000
2300
0000
,
0000
3002
0000
0000
0103
0000
0000
0000
2010
0000
0000
0000
3001
0000
0001
0000
,
0010
0010
0001
0001
1000
0010
0100
0001
,
0010
0100
0010
0000
0001
0100
1000
0100
,
0001
0000
1000
0000
0100
0000
0010
0000
0002
0000
0000
2003
0000
0000
3020
0000
,
0000
0230
0000
0000
0310
0000
0000
0000
1000
0000
0001
0000
0010
0000
0001
0000
,
1000
0001
0010
0001
1000
0001
0010
0001
,
1000
0100
0001
0100
1000
0001
0100
0001
,
1000
0001
0100
0001
1000
0001
0100
0001
,
0100
1000
0100
0001
1000
1000
1000
0100
,
0010
0100
1000
0100
0010
0100
1000
0100
,
0010
0000
0000
0001
0000
0000
0100
0000
0000
0010
0000
0000
1000
0000
0000
0000
1000
0000
0020
0000
0000
0000
0000
0000
,
1030
0000
0001
0020
0000
0000
0031
0000
0000
0011
0000
0000
,
1001
0000
1001
1000
,
0010
0001
0010
1000
,
0100
0001
0100
1000
,
0010
0001
0010
1000
,
0100
0010
0001
0001
,
0100
0010
1000
0000
0001
0000
0010
0001
,
0000
0100
0010
0000
1000
0000
1000
0000
,
0100
0010
0001
0000
1000
0000
0010
1000
,
0000
0001
0010
0000
1001
0000
1010
0000
,
1001
1010
0110
0011
,
0110
0011
1001
1100
,
1001
1100
0110
0101
,
0110
0101
1001
0110
,
0110
0110
1001
0110
,
0110
0100
0100
0000
0001
0001
1000
1000
,
0001
1000
0010
0100
0002
0000
1000
0000
,
1000
1003
0011
1001
,
1000
0100
0001
0100
1000
0001
0020
0100
,
0000
0130
0010
0001
0100
0000
1001
0000
,
1000
0100
0001
0100
1000
0001
0200
0010
,
0000
0310
1000
0100
0010
0000
0011
0000
,
0100
1000
0001
0010
1000
0010
0002
0100
,
0000
0103
0010
1000
0100
0010
0100
0010
,
0001
0000
0100
0000
0010
0000
1000
0000
1100
0000
0000
1100
0000
0000
1100
0000
,
0000
1001
0000
0000
0002
0000
0013
0100
,
1000
0001
0100
0002
0000
2003
0000
3200
,
0000
0010
0310
0000
0002
0000
1003
0010
,
0100
1000
0100
0020
0000
2030
0000
3002
,
0000
0100
0103
0000
2010
0000
3001
0100
,
0010
0001
0010
0200
0000
0302
0000
2003
,
0000
0010
3010
0000
0200
0000
0301
0010
,
0100
0000
0010
0000
0001
0000
0100
0000
0010
0000
1000
0001
0000
1000
0001
0000
,
0010
0010
0010
0000
1100
0000
1000
1000
,
0001
0001
0010
0100
1000
1000
0001
0001
,
0100
0010
1000
1000
0001
0001
0010
0100
,
1000
1000
0001
0001
0100
0010
1000
1000
,
0001
0001
0010
0000
1001
0000
0001
0001
,
1000
1000
0100
0010
0001
0001
1000
1000
,
0010
0100
0001
0001
1000
0010
0100
1000
,
0100
0000
0010
0000
1000
0000
0001
0000
0101
0000
0000
0101
0000
0000
0101
0000
,
0000
1001
0000
0000
1200
0000
1000
0000
,
1000
0010
0010
0010
,
0010
0310
0110
0020
,
0001
0001
0100
0100
,
0100
0130
0110
0020
,
1000
1000
1000
0100
,
0100
0130
0210
0010
,
0010
0001
0002
0000
,
0000
0000
0000
0000
,
0000
0000
0000
0000
,
0000
0303
0000
0000
;

//---------------dance-single - ----------------
#NOTES:
     dance-single:
     :
     Challenge:
     16:
     0.894,1.000,0.841,0.335,0.335:
1001
0000
0001
0010
0001
0100
1000
0001
,
0010
1000
0001
0010
0001
0100
1000
0001
,
0010
1000
0001
0010
0001
0100
1000
0001
,
0010
0000
1000
0000
0001
0000
0010
0000
0200
0000
0000
2300
0000
0000
3002
0000
,
0000
0203
0000
0000
0301
0000
1000
0000
0220
0000
0000
0000
0000
0000
0000
0000
,
0000
0000
0000
0000
,
0000
0000
0000
0000
0000
0000
0330
0000
1100
0000
1001
0000
0001
0100
0010
0001
,
0010
0100
0001
1000
0000
1000
0010
0100
0010
0000
1010
0000
1000
0010
0100
1000
,
0100
0010
1000
0001
0000
0001
0100
0000
0101
0000
1001
0000
1000
0010
0001
0010
,
1000
0100
0010
0001
0000
0001
0100
0000
0101
0000
1001
0000
1000
0100
0001
0100
,
1000
0001
0010
0100
0000
0100
0010
0000
0101
0000
0000
0000
1001
0000
0000
0000
,
1100
0010
0001
1000
0100
0010
0100
1000
,
0000
1001
1000
0100
0011
0000
1001
0000
,
1000
0010
0001
0010
1000
0100
0010
0100
,
0000
1100
1000
0000
0101
0000
1001
0000
,
0001
0010
1000
0010
0001
1000
0100
0010
,
0000
0101
0010
1000
1100
0000
0011
0000
,
0100
1000
0010
0001
0010
1000
0100
0010
,
0000
0101
0000
0000
1001
1000
0100
0000
,
1001
1000
0100
0000
1001
1000
0100
0000
,
1001
1000
0100
0000
0011
0001
1000
0000
,
0011
0001
1000
0000
0011
0001
1000
0000
,
0011
0001
1000
0000
1001
0001
0101
0000
,
1001
1000
1010
0000
1001
0001
0101
0000
,
1001
1000
1010
0000
0101
0100
0010
0010
,
1000
0001
1000
0001
0100
0001
0100
0001
1000
0000
0000
0000
0100
0000
0010
0000
,
0001
0000
0100
0000
0110
0000
0000
0000
1002
0000
0103
0010
0200
0000
0001
0000
,
0302
1000
1003
0002
0100
0203
0010
0310
,
1100
0000
0010
0000
0001
0000
0100
0000
0020
0000
1030
0100
2000
0000
0001
0000
,
3002
0000
0010
0000
0013
0000
0100
0000
1100
0000
0000
0110
0000
0000
0011
0000
,
0000
0110
0000
0000
1100
0000
1000
0000
0020
0000
0130
0001
0200
0000
0010
0000
,
0310
0000
1000
0100
2000
0000
0001
0000
3001
0000
0010
0001
0010
0000
0100
0010
,
0100
0000
1000
0100
1000
0000
0001
0000
0100
0001
0100
0001
1000
0100
1000
0100
,
0010
0001
0010
0001
1000
0010
0100
0010
1000
0000
0000
1010
0000
0000
0110
0000
,
0000
0101
0000
0000
1001
0000
0000
0000
2000
0000
0100
0000
3002
0000
0100
0000
,
2003
0100
3002
0100
2003
0100
3002
0100
,
1003
0000
0100
0010
0002
0000
0010
0000
2003
0000
0010
0000
3002
0000
0010
0000
,
2003
0010
3002
0010
2003
0010
3001
1001
,
0100
0011
0100
1001
0001
1001
0002
0100
,
2003
0100
3002
0100
2003
0100
3002
0100
,
1003
0000
0000
0000
0000
0000
0100
0000
0000
0010
0000
0000
0002
0000
0000
0000
0000
0000
1000
0000
0000
0000
0000
0000
1003
0000
0000
0000
0000
0000
0000
0000
0001
0000
0000
0000
0101
0000
0000
0000
0000
0000
0000
0000
0100
0000
0000
0000
,
0110
0000
0010
1010
0000
0000
1001
0000
0000
0110
0000
0000
,
2002
3003
0011
0100
,
1000
0001
0000
0100
0001
0100
0001
1000
,
0000
1000
0001
0000
0010
0000
0100
0000
,
1000
0010
0000
1000
0001
0010
0001
0010
,
0000
0010
0100
0000
0010
0000
0001
0000
,
1000
0010
0000
1000
0010
0100
0010
0100
,
0000
0100
0001
0000
0010
0000
0100
0000
,
1000
0001
0000
0010
0100
1000
0100
1000
,
0000
1000
0001
0000
0101
0100
0010
0000
,
1010
0010
0100
0000
1001
1000
0100
0000
,
1001
0001
0010
0000
1100
1000
0001
0000
,
0011
0001
1000
0000
1100
0100
0010
0000
,
0011
0010
0100
0000
1010
0000
1001
0001
,
0101
0000
1001
1000
1010
0000
1001
0001
,
0011
0010
1001
0000
1000
1000
0010
0010
,
0100
0001
0100
0001
1000
0100
0010
0001
0200
0000
0000
0000
0010
0000
0010
0000
,
0010
0010
0310
0000
1100
0000
1001
0000
,
0011
0100
1000
0010
0001
0010
1000
0100
,
0010
0001
0101
0000
1001
0000
1100
0010
,
0001
0100
1000
0100
0001
0010
0100
0010
,
0001
1000
1010
0000
0110
0000
0101
0010
,
1000
0100
0001
0100
1000
0010
0100
0001
,
1001
0000
0000
0000
1001
0000
0000
0000
1000
0100
1000
0100
0010
0001
0010
0001
,
1000
0010
1000
0010
0100
0001
0010
0100
1000
0000
0000
1100
0000
0000
0011
0000
,
0000
2002
0000
3003
1100
0010
0001
1000
,
0001
0000
0010
0000
0100
0000
1000
0001
0000
0000
0100
0001
0000
0000
1000
0100
,
0000
0010
0100
1000
0101
0010
1000
0100
,
0010
0000
0001
0000
0100
0000
0001
1000
0000
0000
0100
1000
0000
0000
0010
0100
,
0000
0001
0100
0010
1001
0100
0010
0001
,
1000
0000
0010
0000
1000
0000
0001
0010
0000
0000
0100
0010
0000
0000
0001
0100
,
0000
0010
0100
0010
1000
0010
0001
0010
,
1000
0000
0100
0000
0010
0000
0100
0000
1000
0000
0001
0100
0001
0100
0001
0000
,
1000
0100
1000
0000
1001
0000
0000
0000
0011
0000
0000
0000
0100
0000
1000
0000
,
0010
0001
0010
1000
0100
0010
0001
0100
,
1000
0100
0001
0010
0100
0010
0001
1000
,
0001
0100
1000
0100
0001
1000
0010
1000
,
0001
0100
0110
0000
1100
0000
0010
0001
,
0100
1000
0100
0001
0010
0100
0010
0001
,
1000
0000
0010
0000
0110
0000
0000
0000
0100
0001
0100
0001
1000
0100
1000
0100
,
0010
0001
0010
0001
1000
0010
0100
0010
1000
0000
0000
1010
0000
0000
1001
0000
,
0010
0001
0020
0000
0000
0000
0030
0000
1001
0000
0000
0000
1000
0000
1000
0000
,
0100
0000
1000
1000
0100
0100
1000
1000
,
0010
0000
0110
0000
1001
0000
0001
0001
,
0010
0000
0001
0001
0010
0010
0001
0001
,
0100
0000
0100
0000
1001
0000
1000
1000
,
0010
0000
1000
1000
0010
0010
1000
1000
,
0001
0000
0001
0000
1001
0000
1000
1000
,
0001
0000
1000
1000
0220
0000
0000
0000
,
0000
0000
0000
0000
,
0000
0000
0000
0000
,
0000
0330
0000
0000
;

//---------------dance-single - ----------------
#NOTES:
     dance-single:
     :
     Beginner:
     3:
     0.142,0.174,0.109,0.000,0.000: // measure 1
1000
0000
0000
0000
,  // measure 2
0100
0000
0000
0000
,  // measure 3
1000
0000
0000
0000
,  // measure 4
0001
0000
0000
0000
,  // measure 5
0000
0000
1001
0000
,  // measure 6
0000
0000
0000
0000
,  // measure 7
0000
0000
1000
0000
,  // measure 8
0000
0000
0010
0000
,  // measure 9
0000
0000
0100
0000
,  // measure 10
0000
0000
0010
0000
,  // measure 11
0000
0000
1000
0000
,  // measure 12
0001
0000
1000
0000
,  // measure 13
0000
0000
0001
0000
,  // measure 14
1000
0000
0001
0000
,  // measure 15
0000
0000
1000
0000
,  // measure 16
0001
0000
1000
0000
,  // measure 17
0000
0000
0001
0000
,  // measure 18
1000
0000
0001
0000
,  // measure 19
0000
0000
1001
0000
,  // measure 20
0000
0000
0000
0000
,  // measure 21
0000
0000
0110
0000
,  // measure 22
0000
0000
0000
0000
,  // measure 23
0000
0000
1001
0000
,  // measure 24
0000
0000
1000
0000
,  // measure 25
0000
0000
0001
0000
,  // measure 26
0000
0000
0010
0000
,  // measure 27
0000
0000
0100
0000
,  // measure 28
0000
0000
0100
0000
,  // measure 29
0000
0000
0100
0000
,  // measure 30
0000
0000
0100
0000
,  // measure 31
0000
0000
0010
0000
,  // measure 32
0000
0000
0010
0000
,  // measure 33
0000
0000
0010
0000
,  // measure 34
0000
0000
1001
0000
,  // measure 35
0000
0000
0001
0000
,  // measure 36
0100
0000
0001
0000
,  // measure 37
0100
0000
0001
0000
,  // measure 38
1000
0000
0100
0000
,  // measure 39
1000
0000
0100
0000
,  // measure 40
0010
0000
0100
0000
,  // measure 41
0010
0000
0001
0000
,  // measure 42
0001
0000
0001
0000
,  // measure 43
0001
0000
1001
0000
,  // measure 44
0000
0000
0000
0000
,  // measure 45
0000
0000
1000
0000
,  // measure 46
0000
0000
0000
0000
,  // measure 47
0000
0000
0010
0000
,  // measure 48
0000
0000
0000
0000
,  // measure 49
0000
0000
0100
0000
,  // measure 50
0000
0000
0000
0000
,  // measure 51
0000
0000
1001
0000
,  // measure 52
0000
0000
1001
0000
,  // measure 53
0000
0000
0110
0000
,  // measure 54
0000
0000
0110
0000
,  // measure 55
0000
0000
1001
0000
,  // measure 56
0000
0000
1001
0000
,  // measure 57
0000
0000
0001
0000
,  // measure 58
0001
0000
1001
0000
,  // measure 59
0000
0000
1000
0000
,  // measure 60
0100
0000
1000
0000
,  // measure 61
0100
0000
1000
0000
,  // measure 62
0001
0000
1000
0000
,  // measure 63
0001
0000
1000
0000
,  // measure 64
0100
0000
1000
0000
,  // measure 65
0100
0000
0010
0000
,  // measure 66
0000
0000
0010
0000
,  // measure 67
0000
0000
0001
0000
,  // measure 68
0100
0000
0001
0000
,  // measure 69
0100
0000
0001
0000
,  // measure 70
1000
0000
0001
0000
,  // measure 71
1000
0000
0100
0000
,  // measure 72
1000
0000
0100
0000
,  // measure 73
1000
0000
0010
0000
,  // measure 74
0100
0000
0010
0000
,  // measure 75
0100
0000
0001
0000
,  // measure 76
0001
0000
0001
0000
,  // measure 77
0001
0000
1000
0000
,  // measure 78
1000
0000
1000
0000
,  // measure 79
1000
0000
0001
0000
,  // measure 80
0001
0000
0001
0000
,  // measure 81
0001
0000
1000
0000
,  // measure 82
1000
0000
1000
0000
,  // measure 83
0000
0000
1001
0000
,  // measure 84
0000
0000
0000
0000
,  // measure 85
0000
0000
0001
0000
,  // measure 86
0000
0000
0000
0000
,  // measure 87
0000
0000
0010
0000
,  // measure 88
0000
0000
0000
0000
,  // measure 89
0000
0000
0100
0000
,  // measure 90
0000
0000
1000
0000
;
