#TITLE:Elektrick Universe;
#SUBTITLE:;
#ARTIST:DJ Noriken;
#TITLETRANSLIT:;
#SUBTITLETRANSLIT:;
#ARTISTTRANSLIT:;
#CREDIT:DigiMindAxel;
#BANNER:Elektrick Universe.png;
#BACKGROUND:Elektrick Universe-bg.png;
#LYRICSPATH:;
#CDTITLE:DigiMindAxel original simfile.png;
#MUSIC:Elektrick Universe.ogg;
#METERTYPE:DDR X;
#OFFSET:-5.505;
#SAMPLESTART:76.778;
#SAMPLELENGTH:12.000;
#SELECTABLE:YES;
#BPMS:0.000=175.000,80.000=87.500,96.000=175.000,134.000=87.500,135.000=175.000,149.000=87.500,150.000=175.000,164.000=87.500,165.000=175.000,179.000=87.500,180.000=175.000,255.000=87.500,255.500=175.000,257.500=87.500,258.500=175.000,261.500=87.500,262.000=175.000,264.000=87.500,265.000=175.000,268.000=87.500,268.500=175.000,270.500=87.500,271.500=175.000,274.500=87.500,275.000=175.000;
#STOPS:;
#BGCHANGES:;

//---------------dance-single - ----------------
#NOTES:
     dance-single:
     :
     Easy:
     6:
     0.306,0.286,0.025,0.057,0.000: // measure 1
1000
0000
0001
0000
,  // measure 2
1000
0000
0001
0000
,  // measure 3
0010
0000
0100
0000
,  // measure 4
1000
0000
0001
0000
,  // measure 5
1000
1000
1000
1000
,  // measure 6
0100
0100
0100
0100
,  // measure 7
1000
1000
1000
1000
,  // measure 8
0010
0010
0010
0010
,  // measure 9
0100
0001
0100
0001
,  // measure 10
1000
0100
1000
0100
,  // measure 11
0010
0001
1000
0100
,  // measure 12
0010
0000
0000
0000
,  // measure 13
0001
0100
0010
0010
,  // measure 14
0100
0001
1000
1000
,  // measure 15
0100
0010
0001
0001
,  // measure 16
0010
0100
1000
0000
,  // measure 17
0010
0100
0001
0001
,  // measure 18
1000
0100
0010
0010
,  // measure 19
0001
0010
0100
1000
,  // measure 20
0001
0000
0000
0000
,  // measure 21
2001
0000
0000
0000
,  // measure 22
3002
0000
0000
0000
,  // measure 23
2003
0000
0000
0000
,  // measure 24
3002
0000
0000
0000
,  // measure 25
0013
0000
0001
0000
,  // measure 26
0100
0100
0100
0000
,  // measure 27
0010
0000
1000
0000
,  // measure 28
0010
0010
0010
0000
,  // measure 29
1000
0001
1000
0001
,  // measure 30
1000
1000
1000
0000
,  // measure 31
0001
1000
0001
1000
,  // measure 32
0001
0001
0001
0000
,  // measure 33
0010
0001
0010
0001
,  // measure 34
0100
0100
0100
0010
,  // measure 35
1000
0010
1000
0001
,  // measure 36
0001
0001
0000
1000
,  // measure 37
0100
1000
0100
0010
,  // measure 38
0010
0010
0001
1000
,  // measure 39
0001
1000
0100
0100
,  // measure 40
0100
0000
0010
0001
,  // measure 41
0010
0001
0100
0100
,  // measure 42
0100
0010
1000
0010
,  // measure 43
1000
0001
0001
0001
,  // measure 44
0000
0010
0100
0010
,  // measure 45
0100
1000
1000
1000
,  // measure 46
0100
0010
0100
0010
,  // measure 47
0001
0001
0001
0000
,  // measure 48
1000
0100
1000
0001
,  // measure 49
1000
1000
1000
0000
,  // measure 50
0100
1000
0001
1000
,  // measure 51
0010
0010
0010
0000
,  // measure 52
0100
0001
1000
0100
,  // measure 53
0010
0010
0010
0000
,  // measure 54
0001
0010
0100
1000
,  // measure 55
0001
0001
0001
0000
,  // measure 56
0100
0010
0100
0001
,  // measure 57
1000
1000
1000
0000
,  // measure 58
0100
1000
0010
0100
,  // measure 59
0001
0001
0001
0000
,  // measure 60
0100
0010
0100
0010
,  // measure 61
1000
0001
1000
0001
,  // measure 62
0100
0010
0100
0010
,  // measure 63
1000
0000
0000
0000
,  // measure 64
0001
0000
0010
0000
0100
0000
0000
0010
,  // measure 65
0000
0100
0000
1000
0000
0001
0000
0010
,  // measure 66
0000
0100
0000
0000
0010
0000
0100
0000
,  // measure 67
1000
0001
0100
0010
,  // measure 68
0000
0100
0000
0010
0000
1000
0000
0001
,  // measure 69
0000
1000
0000
0100
0000
0000
2001
0000
,  // measure 70
0000
0000
0000
3001
,  // measure 71
0010
0001
0010
0100
,  // measure 72
0010
0100
0000
1000
,  // measure 73
0100
1000
0100
0010
,  // measure 74
0100
0010
0000
0001
,  // measure 75
0100
0001
0100
0010
,  // measure 76
1000
0010
0000
1000
,  // measure 77
0001
1000
0001
0220
,  // measure 78
0000
0000
0000
0330
;

//---------------dance-single - ----------------
#NOTES:
     dance-single:
     :
     Medium:
     10:
     0.534,0.509,0.687,0.041,0.033: // measure 1
0000
0100
1000
0000
0000
0100
1000
0000
,  // measure 2
0000
0010
0100
0000
0000
0010
0100
0001
,  // measure 3
0000
1000
0100
0000
0000
1000
0100
0000
,  // measure 4
0000
0010
0001
0000
0010
0001
0100
0000
,  // measure 5
0110
0000
0010
0000
1000
0000
1000
0001
,  // measure 6
0010
0000
0010
0000
0100
0000
0100
1000
,  // measure 7
0001
0000
0001
0000
0010
0000
0010
0100
,  // measure 8
1000
0000
1000
0000
0010
0000
0010
0100
,  // measure 9
0001
0000
0001
0000
0010
0000
0010
0001
,  // measure 10
0100
0100
0010
0010
,  // measure 11
0100
0001
0100
0001
1000
0100
1000
0100
,  // measure 12
1000
0000
0000
0000
,  // measure 13
1001
0110
1001
1001
,  // measure 14
0001
0010
0001
0000
1000
0100
1000
0000
,  // measure 15
1001
0110
1001
1001
,  // measure 16
0001
0100
0001
0000
1000
0010
1000
0000
,  // measure 17
1001
0110
1001
1001
,  // measure 18
0001
0010
0001
0000
1000
0100
1000
0000
,  // measure 19
1001
0110
1001
1001
,  // measure 20
1000
0010
1000
0000
0001
0100
0001
0000
,  // measure 21
1001
0000
1000
0100
0000
1000
0100
0000
0000
0000
0000
0000
0000
0000
0010
0000
,  // measure 22
0001
0000
0100
0010
0000
0100
0010
0000
0000
0000
0000
0000
0000
0000
0100
0000
,  // measure 23
0001
0000
0010
0100
0000
0010
0100
0000
0000
0000
0000
0000
0000
0000
1000
0000
,  // measure 24
0010
0000
1000
0001
0000
1000
0001
0000
0000
0000
0000
0000
0000
0000
0000
0000
,  // measure 25
1100
1100
1001
1001
,  // measure 26
0011
0110
0011
0000
,  // measure 27
0110
0110
1001
1001
,  // measure 28
1010
0110
1010
0000
,  // measure 29
0101
0101
1001
1001
,  // measure 30
1100
0110
1100
0000
,  // measure 31
0110
0110
1001
1001
,  // measure 32
0011
0110
0011
0000
,  // measure 33
0100
0000
1000
0001
0000
1000
0001
0000
,  // measure 34
0010
0100
1100
0010
,  // measure 35
0001
0100
0000
0001
0100
0000
0010
0000
,  // measure 36
1000
0200
0000
1300
,  // measure 37
0010
0100
0000
0010
0100
0000
0001
0000
,  // measure 38
1000
0000
1010
0000
0100
0000
0001
0010
,  // measure 39
0000
0001
0010
0000
0100
0000
1000
0000
,  // measure 40
1010
0000
0000
0000
0100
0000
0001
1000
,  // measure 41
0000
0001
1000
0000
0100
0000
1100
0000
,  // measure 42
1100
0000
0010
0000
0001
1000
0000
0001
,  // measure 43
1000
0000
0010
0000
0110
0000
0010
0100
,  // measure 44
0010
0100
0001
0000
1000
0100
0000
1000
,  // measure 45
0100
0010
0101
0101
,  // measure 46
0010
0000
1000
0001
0000
1000
0001
0000
,  // measure 47
0010
0000
1100
0000
0100
1000
0100
1000
,  // measure 48
0001
0100
0001
0000
1001
0000
1001
0000
,  // measure 49
0100
1000
0100
1000
0010
0100
0010
0000
,  // measure 50
1000
0010
1000
0000
1001
0000
1001
0000
,  // measure 51
0001
0001
0001
0100
0010
0000
0100
0000
,  // measure 52
0001
0100
0001
0000
1001
0000
1001
0000
,  // measure 53
0010
0001
0010
0001
0100
0010
0100
0000
,  // measure 54
0010
1000
0010
0000
1001
0000
1001
0000
,  // measure 55
0010
0000
0110
0000
0010
0100
0010
0100
,  // measure 56
0001
0000
1000
0100
0000
1000
0001
0000
,  // measure 57
0100
0001
0100
0001
0100
0010
1000
0000
,  // measure 58
0001
0000
0010
0001
0000
1000
0010
0000
,  // measure 59
0100
0100
0100
0001
0010
0000
0000
0000
,  // measure 60
0100
0000
1000
0010
0000
1000
0001
0000
,  // measure 61
0010
0001
0010
0001
0100
0010
1000
0000
,  // measure 62
0100
0010
0100
0010
0001
1000
0001
1000
,  // measure 63
0001
0000
0000
0000
,  // measure 64
0000
0101
0000
0101
0000
1001
0000
0000
,  // measure 65
1100
1100
0000
0011
,  // measure 66
0011
0000
1001
0000
0000
1010
0000
1010
,  // measure 67
0000
0000
0000
0110
0000
0110
0000
1001
,  // measure 68
0000
1001
0110
0000
,  // measure 69
1010
0110
0101
2002
,  // measure 70
0000
0000
0000
0000
3003
0000
1000
0100
,  // measure 71
0010
0000
0100
1000
0100
0000
1000
0100
,  // measure 72
0010
0000
0100
1000
0100
0000
0010
0001
,  // measure 73
0010
0000
0001
0010
0100
0000
0010
0001
,  // measure 74
0010
0000
0001
0010
0100
0000
1000
0010
,  // measure 75
0100
0000
0010
0100
0010
0000
1000
0010
,  // measure 76
0100
0000
0010
0100
0010
0000
0100
0001
,  // measure 77
0010
0000
0100
0010
0100
0000
2002
0000
,  // measure 78
0000
0000
0000
3003
;

//---------------dance-single - ----------------
#NOTES:
     dance-single:
     :
     Hard:
     13:
     0.699,0.887,0.401,0.515,0.094:
1000
0010
0100
0000
0001
1000
0100
0000
,
1000
0010
0100
0000
0001
1000
0100
0010
,
0001
0100
0010
0000
1000
0001
0010
0000
,
0001
0100
0010
0000
1000
0001
0010
0000
,
0100
0000
0000
0100
0000
0000
1000
0000
0000
1000
0000
0000
0100
0000
0010
0000
,
0001
0000
0000
0001
0000
0000
0100
0000
0000
0100
0000
0000
0010
0000
1000
0000
,
0001
0000
0000
0001
0000
0000
0010
0000
0000
0010
0000
0000
0100
0000
1000
0000
,
0001
0000
0000
0001
0000
0000
0100
0000
0000
0100
0000
0000
0010
0000
1000
0000
,
0100
0000
0000
1000
0100
0000
1000
0000
0000
0001
0100
0000
0001
0000
1000
0000
,
0100
0000
0000
0010
0001
0000
0010
0000
0000
0100
0010
0000
0100
0000
1000
0000
,
0001
0100
0010
1000
0100
0001
0100
1000
,
0020
0000
0100
0130
,
0001
1000
0100
0010
0001
0001
0100
0100
,
0001
0010
0100
1000
0001
0010
0100
0000
,
1000
0010
0100
0010
1000
1000
0001
0001
,
0010
0010
0010
0100
1000
0010
0100
0001
,
1000
0100
1000
0001
0100
0100
0010
0010
,
1000
0100
0010
0001
0100
0010
0100
0000
,
0001
1000
0010
0100
0010
0010
1000
1000
,
0200
0010
0010
0310
,
1001
0000
1000
0100
0000
1000
0200
0000
0000
0000
0000
0000
0000
0000
1300
0000
,
0010
0000
0100
0001
0000
0100
0002
0000
0000
0000
0000
0000
0000
0000
0013
0000
,
0100
0000
1000
0001
0000
1000
0002
0000
0000
0000
0000
0000
0000
0000
0013
0000
,
0100
0000
1000
0010
0000
1000
0020
0000
0100
0000
0100
0000
0100
0000
0130
0000
,
1001
0000
0001
0100
0000
0001
1000
0000
,
2200
3300
0220
0330
0022
0033
0010
0000
,
1001
0000
1000
0100
0000
1000
0001
0000
,
0202
0303
0220
0330
2020
0000
3030
0000
,
0110
0000
1000
0001
0000
0010
0100
0000
,
2020
3030
2002
3003
0202
0303
0100
0000
,
1001
0000
0001
0010
0000
0100
0010
0000
,
0021
0000
0230
0000
1300
0001
0010
0100
,
1000
0000
0001
0100
0000
0100
0010
0000
,
1001
0110
1002
0013
,
0001
0010
0000
0010
0100
0000
1010
0000
,
0110
0000
0100
0001
0010
0100
1000
0000
,
0100
1000
0000
1000
0010
0000
0101
0000
,
0110
0000
1020
0000
0130
0000
0001
1000
,
0000
1000
0100
0000
0011
0000
0110
0000
,
0100
1000
0010
0100
0001
1000
0100
0010
,
0000
0100
0010
0000
0101
0000
0110
0000
,
1020
0000
0130
0001
0010
0100
0000
0010
,
0100
0000
1100
0000
1001
0000
0001
0010
,
0100
1000
0010
1000
0100
0010
0000
0001
,
0100
1010
0110
0102
,
1003
0001
0100
0000
0010
1000
0100
0000
,
0011
0000
1100
0000
0010
0001
1000
0100
,
0010
0001
1000
0001
0010
0010
0100
0100
,
1000
0010
0001
0010
1000
0010
0100
0000
,
0001
1000
0100
1000
0001
0001
0100
0100
,
0010
0010
0010
0100
0001
1000
0100
0000
,
0010
0001
1000
0001
0010
0010
0100
0100
,
1000
0010
0001
0010
1000
0100
0010
0000
,
0100
1000
0001
1000
0100
0100
0010
0010
,
0001
0100
1000
0100
0001
0010
0100
1000
,
0020
0000
0130
0101
0000
1000
1100
0000
,
0010
0001
1000
0010
0001
0010
1000
0000
,
1002
0000
0013
0011
0000
0100
0110
0000
,
1000
1000
1000
0010
0100
0001
1000
0000
,
1002
0000
0103
0110
0000
1000
1010
0000
,
0100
0001
1000
0100
0001
0100
1000
0000
,
0210
0000
0301
0011
0000
0100
0110
0000
,
1200
0000
1000
1300
,
0001
0200
0310
0200
0301
0200
0320
1030
,
0200
0000
0310
0000
0200
0000
2300
0010
3010
0000
0100
0000
0002
0000
1003
0000
,
0002
0103
0002
2003
3001
0020
0130
0020
,
0032
0100
0103
0000
0010
0000
2000
0000
3001
0000
2000
0000
3010
0000
2000
0000
,
3002
0000
1003
0000
0200
0000
0310
0000
0002
0000
0203
0010
0320
0000
1030
0000
,
0200
1300
0020
0130
0002
0013
2002
0000
,
0000
0000
0000
0000
3003
0000
1000
0010
,
0010
1000
0001
0010
0010
0000
0001
0100
,
0100
0010
1000
0100
0100
0000
0010
0001
,
0001
0100
0010
0010
1000
0000
0100
0010
,
0010
0001
0100
0100
0010
0000
1000
0100
,
0100
0010
0001
0001
0100
0000
0010
1000
,
1000
0100
0010
0010
0100
0000
0010
0001
,
0100
1000
0100
0001
0010
0100
2010
0000
,
0000
0001
3001
0000
;

//---------------dance-single - ----------------
#NOTES:
     dance-single:
     :
     Challenge:
     16:
     0.901,0.919,0.482,0.393,0.609:
0020
1000
1030
0000
0020
0100
0130
0000
,
0020
1000
1030
0000
0020
0100
0130
0001
,
0020
0001
0031
0000
0020
0100
0130
0000
,
0020
0001
0031
0000
0010
0010
0100
0100
,
1001
0000
0000
0001
0100
0000
0001
0000
0000
1000
0100
0000
1000
0000
0001
0000
,
0010
0000
0000
0010
0100
0000
0010
0000
0000
0001
0100
0000
0001
0000
1000
0000
,
0100
0000
0000
0100
0010
0000
0100
0000
0000
1000
0010
0000
1000
0000
0100
0000
,
0010
0000
0000
0010
0001
0000
0100
0000
0000
0010
1000
0000
0001
0000
0010
0000
,
0100
0000
1000
0010
1000
0000
0100
0000
0010
0100
0010
0000
0001
0000
0100
0000
,
0010
0000
1000
0001
1000
0000
0100
0000
0010
0100
0010
0000
0001
0000
0100
0000
,
0010
1000
0010
1000
0001
0010
0001
0010
0100
1000
0001
0010
0001
1000
0010
0100
,
0002
0000
1003
1001
,
0001
0000
1000
0100
1000
0000
0001
0010
0001
0000
1000
0000
0100
0000
0010
0000
,
0001
0000
1000
0100
1000
0000
0001
0010
0001
0000
1000
0000
0200
0000
0000
0000
,
1300
0000
0010
0100
0010
0000
1000
0010
1000
0000
0001
0000
0100
0000
0010
0000
,
1000
0000
0010
0100
0010
0000
1000
0010
1000
0000
0001
0010
0100
1000
0001
0000
,
0100
0000
0010
0100
0010
0000
1000
0100
1000
0000
0010
0000
0100
0000
0001
0000
,
1000
0000
0100
1000
0100
0000
0010
0100
0010
0000
0001
0000
0100
0000
0000
0000
,
0010
0000
0100
0010
0100
0000
0001
1000
0001
0000
1000
0000
0100
0010
0100
0010
,
0002
0100
0100
0100
0100
0100
0103
0000
,
1001
0000
1000
0200
0000
1300
0002
0000
0000
0000
0000
0000
0000
0000
0103
0000
,
0010
0000
1000
0002
0000
0103
0020
0000
0000
0000
0000
0000
0000
0000
0130
0000
,
0001
0000
0010
0200
0000
1300
0020
0000
0000
0000
0000
0000
0000
0000
1030
0000
,
0001
0000
0010
0200
0000
1300
0020
0000
0130
0001
0010
0100
1000
0001
0101
0000
,
2001
0000
3020
0100
0000
0130
0001
0000
,
0011
0100
1000
0010
0220
0000
0330
0000
,
1002
0000
0203
0010
0000
0310
1000
0000
,
1100
0010
0001
0100
0110
0010
0100
1000
,
1002
0000
0023
0001
0000
0031
0100
0000
,
1010
0100
0001
0010
2200
0000
3300
0000
,
1002
0000
0203
0010
0000
0310
1000
0000
,
2010
0000
3002
0000
1003
0100
0001
0100
,
1000
0000
0100
0010
0001
1000
1100
0000
,
0011
0000
1001
0000
1020
0130
0101
0000
,
0010
1000
0100
0010
0001
1000
1010
0000
,
0101
0000
0000
0000
0001
0000
0010
0000
0100
0010
0100
0010
0100
0000
0000
0000
,
1000
0010
0100
0010
1010
0000
0101
0000
,
1001
0000
0000
0000
0000
0000
0000
0000
0110
0000
0100
0010
0100
0000
0100
0000
1001
0000
0000
0000
0000
0000
0000
0000
0001
0000
0000
0000
0100
0000
0000
0000
,
0010
0100
0101
0000
1010
0000
1001
0000
,
0001
0000
0100
0000
0010
0100
0010
0100
0010
0000
0100
0000
0001
0000
1000
0000
,
0100
0010
0110
0000
1001
0000
0110
0000
,
0101
0000
0100
0010
0200
0000
0000
0000
0301
0000
0000
0000
0010
0000
0000
0000
1000
0000
0000
0000
0010
0000
0000
0000
0001
0000
0000
0000
1000
0000
0000
0000
,
1100
0000
0000
0000
0011
0000
0000
0000
1001
0000
0000
0000
1000
0000
0010
0100
,
0010
1000
0100
0010
0001
1000
0010
1000
,
1001
0000
0000
0000
1100
0000
0000
0000
0011
0000
0000
0000
1002
0000
0103
0100
,
0010
1000
1100
0000
0010
0001
0101
0000
,
0110
0000
0000
0000
0110
0000
0000
0000
0110
0000
1000
0000
0001
0100
0001
0100
,
0001
0010
1000
0010
0001
1000
0100
0010
,
0100
1000
0100
0000
0010
0100
0010
0000
0001
0010
0001
0000
1000
0000
0000
0000
,
0100
0010
0001
1000
0010
0001
0010
1000
,
0100
1000
0100
1000
0100
0000
0010
0000
0001
0100
0001
0000
1000
0001
1000
0001
,
1000
0010
0001
0010
1000
0100
0010
0100
,
1000
0010
1000
0000
0010
0100
0010
0000
0100
0001
0100
0000
0010
0000
0000
0000
,
1000
0000
0100
0000
0010
0000
0100
0000
1000
0010
1000
0000
0001
0010
0100
0010
,
0001
0000
1000
0000
0100
0000
0010
0000
0100
1000
0100
0000
0010
0100
0010
0000
,
1001
0000
0011
0110
0000
1100
0010
0001
,
1000
0010
1000
0000
0010
0100
0010
0000
0100
0001
0100
0000
0010
0000
0000
0000
,
1001
0000
1100
0110
0000
0011
0100
1000
,
0010
0100
0010
0100
0010
0000
1000
0000
0001
0010
0001
0000
1000
0010
0100
0010
,
1000
0000
1001
1100
0000
0011
0100
1000
,
0001
0010
0001
0000
1000
0100
1000
0000
0010
0100
0010
0000
0100
0000
0000
0000
,
0001
1000
0001
1000
0100
0010
0100
0010
0001
0100
0001
0100
0010
1000
0100
0010
,
0002
0000
0103
1001
,
1000
0000
0100
1000
0100
0000
0010
0100
0010
0000
0001
0010
0002
0000
0103
0000
,
0010
0000
0100
0000
0010
0000
0000
0000
1000
0000
0010
0000
1000
0000
0001
0010
0200
0000
0000
0000
0310
0000
0000
0000
0001
0000
0100
0000
0001
0000
0000
0000
,
1000
0001
1000
0000
0100
1000
0200
0000
0310
0000
0001
0100
0001
0000
0100
0010
,
0100
0000
0010
1000
0200
0000
0000
0000
1300
0000
0000
0000
0001
0000
0010
0000
0001
0000
0000
0000
1000
0000
0001
0000
1000
0000
0000
0000
0100
0000
1000
0000
,
0200
0000
0000
0000
0310
0000
0000
0000
0001
0000
1000
0000
0001
0000
0000
0000
1000
0000
0100
0000
1000
0000
0001
0010
0200
0000
0000
0000
0310
0000
0000
0000
,
0001
0100
0001
0000
1000
0001
1000
0000
0100
1000
0200
0000
0310
0000
0001
0000
,
0001
0000
0010
0000
0010
0000
0001
0000
0001
0000
0010
0000
0100
0000
1000
0001
,
0100
0000
0001
0100
0010
0000
1000
0000
0200
0000
0000
0000
1300
0000
0001
0010
,
0100
0000
0010
0001
0100
0010
0100
0010
2000
0000
0000
0000
3010
0000
0100
0001
,
0010
0000
0001
0010
0100
0000
1000
0000
0020
0000
0000
0000
0130
0000
0001
1000
,
0100
0000
0010
0100
1000
0001
1000
0001
0200
0000
0000
0000
0301
0000
1000
0100
,
0010
0000
0100
0010
0001
0000
1000
0000
0010
0000
0100
0001
0010
0000
0100
0010
,
0001
0000
0010
0001
1000
0010
1000
0010
0100
0001
0100
0000
0001
0010
0100
1000
,
0001
0100
0010
0100
0001
0010
0100
1000
0100
0010
0001
1000
0020
0000
0000
0000
,
0000
0130
0110
0000
;

//---------------dance-single - ----------------
#NOTES:
     dance-single:
     :
     Beginner:
     3:
     0.165,0.188,0.049,0.000,0.000: // measure 1
1000
0000
0001
0000
,  // measure 2
1000
0000
0001
0000
,  // measure 3
1000
0000
0001
0000
,  // measure 4
1000
0000
0001
0000
,  // measure 5
0010
0000
0010
0000
,  // measure 6
0100
0000
0100
0000
,  // measure 7
0010
0000
0010
0000
,  // measure 8
0100
0000
0100
0000
,  // measure 9
1000
0000
1000
0000
,  // measure 10
0001
0000
0001
0000
,  // measure 11
1000
0000
1000
0000
,  // measure 12
1001
0000
0000
0000
,  // measure 13
0001
0000
0001
0000
,  // measure 14
0001
0000
0001
0000
,  // measure 15
1000
0000
1000
0000
,  // measure 16
1000
0000
1000
0000
,  // measure 17
0100
0000
0100
0000
,  // measure 18
0100
0000
0100
0000
,  // measure 19
0010
0000
0010
0000
,  // measure 20
0010
0000
0000
0000
,  // measure 21
1001
0000
0000
0000
,  // measure 22
0000
0000
0000
0000
,  // measure 23
1000
0000
0000
0000
,  // measure 24
0001
0000
0000
0000
,  // measure 25
1001
0000
1000
0000
,  // measure 26
1000
0000
0000
0000
,  // measure 27
1001
0000
0001
0000
,  // measure 28
0001
0000
0000
0000
,  // measure 29
0110
0000
0100
0000
,  // measure 30
0100
0000
0000
0000
,  // measure 31
0110
0000
0010
0000
,  // measure 32
0010
0000
0000
0000
,  // measure 33
1000
0000
1000
0000
,  // measure 34
1000
0000
0000
0001
,  // measure 35
0000
0001
0000
0001
,  // measure 36
0000
0000
0000
0010
,  // measure 37
0000
0010
0000
0010
,  // measure 38
0000
0000
0100
0000
,  // measure 39
0100
0000
0100
0000
,  // measure 40
0000
0000
1000
0000
,  // measure 41
1000
0000
1000
0000
,  // measure 42
0000
0001
0000
0001
,  // measure 43
0000
0001
0000
0000
,  // measure 44
0000
0010
0000
0010
,  // measure 45
0000
0010
0000
0000
,  // measure 46
0100
0000
0100
0000
,  // measure 47
0100
0000
0000
0000
,  // measure 48
1000
0000
0001
0000
,  // measure 49
1000
0000
0001
0000
,  // measure 50
0100
0000
0001
0000
,  // measure 51
0100
0000
0001
0000
,  // measure 52
1000
0000
0100
0000
,  // measure 53
1000
0000
0100
0000
,  // measure 54
0010
0000
0001
0000
,  // measure 55
0010
0000
0000
0000
,  // measure 56
0000
0001
1000
0000
,  // measure 57
0001
0000
1000
0000
,  // measure 58
0100
0000
1000
0000
,  // measure 59
0100
0000
1000
0000
,  // measure 60
0010
0000
0000
0000
,  // measure 61
0010
0000
0000
0000
,  // measure 62
0010
0000
0010
0000
,  // measure 63
0010
0000
0000
0000
,  // measure 64
0100
0000
0000
0000
0100
0000
0000
0100
,  // measure 65
0000
0000
0000
0100
0000
0100
0000
0000
,  // measure 66
0000
0100
0000
0000
0100
0000
0000
0000
,  // measure 67
0100
0100
0000
0100
,  // measure 68
0000
0100
0000
0000
0000
0100
0000
0100
,  // measure 69
0000
0000
0000
0100
0000
0000
0100
0000
,  // measure 70
0000
0000
0000
1000
,  // measure 71
0000
1000
0000
0001
,  // measure 72
0000
0001
0000
1000
,  // measure 73
0000
1000
0000
0010
,  // measure 74
0000
0010
0000
0100
,  // measure 75
0000
0100
0000
0001
,  // measure 76
0000
0001
0000
0010
,  // measure 77
0000
0100
0000
1000
;
