#TITLE:Egret and Willow;
#SUBTITLE:;
#ARTIST:Dirty Androids;
#TITLETRANSLIT:;
#SUBTITLETRANSLIT:;
#ARTISTTRANSLIT:;
#CREDIT:DigiMindAxel;
#BANNER:Egret and Willow.png;
#BACKGROUND:Egret and Willow-bg.png;
#LYRICSPATH:;
#CDTITLE:beatmania IIDX.png;
#MUSIC:Egret and Willow.ogg;
#METERTYPE:DDR X;
#OFFSET:0.183;
#SAMPLESTART:20.032;
#SAMPLELENGTH:12.000;
#SELECTABLE:YES;
#BPMS:0.000=196.000;
#STOPS:348.000=0.1530612
,363.500=0.1530612
;
#BGCHANGES:0.000=Egret and Willow.avi=1.000=1=1=0,
99999=-nosongbg-=1.000=0=0=0 // don't automatically add -songbackground-
;

//---------------dance-single - ----------------
#NOTES:
     dance-single:
     :
     Easy:
     5:
     0.224,0.313,0.313,0.127,0.000: // measure 1
0000
0000
0000
0000
,  // measure 2
0000
0000
0000
0000
,  // measure 3
0000
0000
0000
0000
,  // measure 4
0000
0000
0000
0000
,  // measure 5
0000
0000
0000
0000
,  // measure 6
0000
0000
0000
0000
,  // measure 7
0000
0000
0000
0000
,  // measure 8
0000
0000
0000
0000
,  // measure 9
0000
0000
0000
0000
,  // measure 10
0002
0000
1000
0000
,  // measure 11
0000
0000
1003
0001
,  // measure 12
0200
0000
0010
0000
,  // measure 13
0000
0000
0310
1000
,  // measure 14
0002
0000
0100
0000
,  // measure 15
2003
0000
0100
0000
,  // measure 16
0002
0000
0000
0000
,  // measure 17
3003
0000
0000
0000
,  // measure 18
1001
0000
0000
1001
,  // measure 19
0000
0000
0000
0000
,  // measure 20
0110
0000
0000
0110
,  // measure 21
0000
0000
0000
0000
,  // measure 22
1001
0000
0000
1001
,  // measure 23
0000
0000
0000
0000
,  // measure 24
0110
0000
0000
0110
,  // measure 25
0000
0000
0000
0000
,  // measure 26
1001
0000
0000
1001
,  // measure 27
0000
0000
0000
0000
,  // measure 28
0110
0000
0000
0110
,  // measure 29
0000
0000
0000
0000
,  // measure 30
0001
0000
0010
0000
,  // measure 31
0001
0000
0100
0000
,  // measure 32
0010
0000
1000
0000
,  // measure 33
0200
0000
1000
0000
,  // measure 34
1300
0000
0000
0000
,  // measure 35
0000
0000
0000
0000
,  // measure 36
0001
0000
1001
0000
,  // measure 37
0000
0000
1000
0000
,  // measure 38
0100
0000
1001
0000
,  // measure 39
0000
0000
0001
0000
,  // measure 40
0100
0000
1001
0000
,  // measure 41
0000
0000
0001
0000
,  // measure 42
0010
0000
1001
0000
,  // measure 43
0000
0000
1000
0000
,  // measure 44
0100
0000
1001
0000
,  // measure 45
0000
0000
0001
0000
,  // measure 46
0010
0000
1001
0000
,  // measure 47
0000
0000
1000
0000
,  // measure 48
0100
0000
1001
0000
,  // measure 49
0000
0000
1000
0000
,  // measure 50
0010
0000
1001
0000
,  // measure 51
0000
0000
0001
0000
,  // measure 52
0100
0000
0100
0000
,  // measure 53
0100
0000
0000
0000
,  // measure 54
0010
0000
0010
0000
,  // measure 55
0010
0000
0000
0000
,  // measure 56
1000
0000
1000
0000
,  // measure 57
1000
0000
0000
0000
,  // measure 58
0001
0000
0001
0000
,  // measure 59
0001
0000
0000
0000
,  // measure 60
0100
0000
0010
0000
,  // measure 61
0100
0010
0100
0000
,  // measure 62
0001
0000
1000
0000
,  // measure 63
0001
1000
0001
0000
,  // measure 64
2000
0000
0000
0000
,  // measure 65
3200
0000
0000
0000
,  // measure 66
0320
0000
0000
0000
,  // measure 67
0000
0000
0030
0000
,  // measure 68
1001
0000
0000
1001
,  // measure 69
0000
0000
0000
0000
,  // measure 70
0110
0000
0000
0110
,  // measure 71
0000
0000
0000
0000
,  // measure 72
1001
0000
0000
1001
,  // measure 73
0000
0000
0000
0000
,  // measure 74
0110
0000
0000
0110
,  // measure 75
0000
0000
0000
0000
,  // measure 76
1001
0000
0000
1001
,  // measure 77
0000
0000
1000
0100
,  // measure 78
1001
0000
0000
1001
,  // measure 79
0000
0010
0001
0010
,  // measure 80
0100
0000
1000
0000
,  // measure 81
0100
1000
0100
0000
,  // measure 82
1000
0001
1000
0001
,  // measure 83
0100
0001
0100
0000
,  // measure 84
1001
0000
0000
1001
,  // measure 85
0000
0000
1000
0010
,  // measure 86
1001
0000
0000
1001
,  // measure 87
0000
0100
0001
0100
,  // measure 88
0000
1001
0000
0010
0000
0200
0000
0000
,  // measure 89
0000
0300
0000
1000
0000
0100
0000
1001
,  // measure 90
0000
0000
0000
0000
0000
1001
0000
0000
,  // measure 91
0000
0010
0000
0100
0000
0010
0000
0000
,  // measure 92
1001
0100
0010
0002
,  // measure 93
0000
0000
1003
0110
,  // measure 94
0000
0000
0110
0000
,  // measure 95
0010
0100
0010
2000
,  // measure 96
0000
0001
0000
3002
,  // measure 97
0000
0010
0000
0103
,  // measure 98
0010
0000
2000
0000
0000
0002
0000
0000
,  // measure 99
0000
0000
0000
0000
,  // measure 100
0000
0000
3003
0002
,  // measure 101
0000
0000
0000
0000
,  // measure 102
0000
0000
0000
0000
0000
0000
0003
0200
,  // measure 103
0000
0000
0000
0000
,  // measure 104
0000
0000
0000
0000
,  // measure 105
0000
0000
0000
0300
;

//---------------dance-single - ----------------
#NOTES:
     dance-single:
     :
     Medium:
     10:
     0.508,0.586,0.507,0.351,0.030: // measure 1
0000
0000
0000
0000
,  // measure 2
0000
0000
0000
0000
,  // measure 3
0000
0000
0000
0000
,  // measure 4
0000
0000
0000
0000
,  // measure 5
0000
0000
0000
0000
,  // measure 6
0000
0000
0000
0000
,  // measure 7
0000
0000
0000
0000
,  // measure 8
0000
0000
0000
0000
,  // measure 9
0000
0000
0000
0000
,  // measure 10
0200
0000
1000
1000
,  // measure 11
0000
0000
1000
0000
1300
0000
0010
0100
,  // measure 12
0002
0000
0100
0100
,  // measure 13
0000
0000
0100
0000
0103
0000
0010
1000
,  // measure 14
0002
0000
1000
1000
,  // measure 15
2003
0000
0001
3001
,  // measure 16
0200
0000
0010
0010
,  // measure 17
0300
0000
0000
0000
0001
0010
0100
0000
,  // measure 18
1010
0000
0000
1010
0000
0000
0110
0000
,  // measure 19
0000
0010
0100
0010
1000
0000
1000
0000
,  // measure 20
1001
0000
0000
1001
0000
0000
0011
0000
,  // measure 21
0000
0001
0100
0010
1000
0000
1000
0000
,  // measure 22
1100
0000
0000
1100
0000
0000
0110
0000
,  // measure 23
0010
0100
0010
0001
0100
0000
0100
0000
,  // measure 24
1010
0000
0000
0101
0000
0000
1001
0000
,  // measure 25
0000
1001
0000
0000
1000
0010
0100
0000
,  // measure 26
0101
0000
0000
0101
0000
0000
1001
0000
,  // measure 27
0000
0001
1000
0100
0010
0000
0010
0000
,  // measure 28
0101
0000
0000
0101
0000
0000
0110
0000
,  // measure 29
0000
0100
0010
0100
0001
0000
0001
0000
,  // measure 30
1000
0000
0100
1000
0000
0100
1000
0100
,  // measure 31
0010
0000
0001
1000
0010
1000
0010
0000
,  // measure 32
0100
0000
0001
1000
0000
0010
0100
0020
,  // measure 33
0000
0000
0100
0100
0100
0000
0030
0000
,  // measure 34
2002
0000
0000
0000
,  // measure 35
0000
0000
0000
3003
,  // measure 36
0001
0000
0000
0001
0000
0000
0001
0000
0100
0000
0000
0000
0000
0000
0000
0000
,  // measure 37
0000
0010
0100
0000
1001
0000
0000
0000
,  // measure 38
1000
0000
0000
1000
0000
0000
1000
0000
0010
0000
0000
0000
0000
0000
0000
0000
,  // measure 39
0200
0302
0023
0230
,  // measure 40
1300
0000
0000
1000
0000
0000
1000
0000
0001
0000
0000
0000
0000
0000
0000
0000
,  // measure 41
0100
0001
0100
0001
0000
1000
0001
0000
,  // measure 42
0100
0000
0000
0100
0000
0000
0100
0000
0010
0000
0000
0000
0000
0000
0000
0000
,  // measure 43
2000
3200
0320
0032
,  // measure 44
0103
0000
0000
0100
0000
0000
0100
0000
0001
0000
0000
0000
1000
0000
0010
0000
,  // measure 45
0100
0001
0000
0001
0000
0100
0010
0000
,  // measure 46
1000
0000
0000
1000
0000
0000
1000
0000
0001
0000
0000
0000
0000
0000
0000
0000
,  // measure 47
0020
0230
2300
3002
,  // measure 48
0103
0000
0000
0100
0000
0000
0100
0000
0010
0000
0000
0000
0000
0000
0000
0000
,  // measure 49
1000
0100
0010
0001
0000
0001
0100
0000
,  // measure 50
0001
0000
0000
0001
0000
0000
0001
0000
1000
0000
0000
0000
0000
0000
0000
0000
,  // measure 51
0020
2030
3200
0320
,  // measure 52
0031
0000
1000
0010
0100
0000
0010
0000
,  // measure 53
1000
0100
0010
0000
0200
0000
2300
0000
,  // measure 54
3001
0000
0100
0010
1000
0000
0001
0000
,  // measure 55
0010
0100
1000
0000
0002
0000
0203
0000
,  // measure 56
0310
0000
1000
0100
0010
0000
0001
0000
,  // measure 57
1000
0010
0100
0000
0002
0000
2003
0000
,  // measure 58
3100
0000
0010
0001
0100
0000
0010
0100
,  // measure 59
0002
0023
0230
0320
,  // measure 60
0031
0000
1000
0100
0010
0000
0100
1000
,  // measure 61
0001
0000
0010
0100
0010
0000
0010
0000
,  // measure 62
1001
0000
0100
0010
0001
0000
0010
0001
,  // measure 63
0100
0000
0010
0100
0010
0000
0010
0000
,  // measure 64
2000
0000
3200
0000
,  // measure 65
0320
0000
0032
0000
,  // measure 66
2003
0000
0000
0000
,  // measure 67
0000
0000
3000
0000
,  // measure 68
0101
0000
0000
0101
0000
0000
0110
0000
,  // measure 69
0000
1000
0010
1000
0001
0000
0001
0000
,  // measure 70
1001
0000
0000
1001
0000
0000
1100
0000
,  // measure 71
0000
0100
0010
0001
0100
0000
0100
0000
,  // measure 72
1010
0000
0000
1010
0000
0000
0110
0000
,  // measure 73
0010
0100
0001
0100
0010
0100
0001
0000
,  // measure 74
1001
0000
0000
0110
0000
0000
1001
0000
,  // measure 75
0000
1001
0000
0000
1001
0000
0000
0000
,  // measure 76
0101
0000
0000
0101
0000
0000
0110
0000
,  // measure 77
0000
0100
0010
1000
0001
0000
0001
0000
,  // measure 78
0011
0000
0000
0011
0000
0000
0110
0000
,  // measure 79
0000
0010
0100
1000
0010
1000
0010
0000
,  // measure 80
1000
0000
0001
0010
0000
0100
0010
0001
,  // measure 81
1000
0000
0001
1000
0100
1000
0001
0000
,  // measure 82
1001
0000
0010
0000
0100
0000
1000
0010
,  // measure 83
0000
0100
0010
0100
0001
0010
0100
0000
,  // measure 84
1001
0000
0000
1001
0000
0000
1100
0000
,  // measure 85
0000
0100
0010
0001
1000
0000
1000
0000
,  // measure 86
1010
0000
0000
1010
0000
0000
0110
0000
,  // measure 87
0000
0010
0100
0001
0100
0001
1000
0000
,  // measure 88
0000
1100
0000
0110
0000
0022
0000
0000
,  // measure 89
0000
0033
0000
0001
1000
0001
0000
0101
,  // measure 90
0000
0000
1010
0000
0000
1001
0000
0000
,  // measure 91
1001
0000
0000
2002
0000
0000
3003
0000
,  // measure 92
0011
0110
1100
1001
,  // measure 93
0000
0011
0000
0000
1100
0000
1001
0000
,  // measure 94
0000
0110
0000
0000
1001
0000
0000
1001
,  // measure 95
0000
1001
1000
0001
,  // measure 96
0100
0010
0000
0100
0010
2000
0000
0000
,  // measure 97
0001
0000
0001
0000
0001
0000
3001
0100
,  // measure 98
0010
1000
0000
0010
0100
0002
0000
0000
,  // measure 99
0000
0000
0000
0000
,  // measure 100
0000
0000
0003
0020
,  // measure 101
0000
0000
0000
0000
,  // measure 102
0000
0000
0000
0000
0000
0000
0030
0002
,  // measure 103
0000
0000
0000
0000
,  // measure 104
0000
0000
0000
0000
,  // measure 105
0000
0000
0000
0003
;

//---------------dance-single - ----------------
#NOTES:
     dance-single:
     :
     Hard:
     14:
     0.706,0.821,0.463,0.545,0.194: // measure 1
0000
0000
0000
0000
,  // measure 2
0000
0000
0000
0000
,  // measure 3
0000
0000
0000
0000
,  // measure 4
0000
0000
0000
0000
,  // measure 5
0000
0000
0000
0000
,  // measure 6
0000
0000
0000
0000
,  // measure 7
0000
0000
0000
0000
,  // measure 8
0000
0000
0000
0000
,  // measure 9
0000
0000
0000
0000
,  // measure 10
1010
0000
0000
0010
0100
0000
0100
0000
,  // measure 11
0001
0000
0100
0000
0110
0000
1000
0100
,  // measure 12
0010
0000
0000
0001
0100
0000
0100
0000
,  // measure 13
0010
0000
1000
0000
1100
0000
0010
0001
,  // measure 14
1000
0000
0000
0010
0100
0000
0100
0000
,  // measure 15
0001
1000
1010
0100
,  // measure 16
0001
0000
0000
0010
0100
0000
0200
0000
,  // measure 17
0000
0000
0300
0000
1000
0010
0100
0000
,  // measure 18
1001
0000
0100
1100
0000
0010
0110
0000
,  // measure 19
0001
1000
0001
1000
0100
0000
0020
0000
0001
0000
0000
0000
0031
0000
0000
0000
,  // measure 20
1001
0000
0010
0011
0000
0100
0120
0000
,  // measure 21
0000
0000
0130
1000
0001
0000
0001
0000
2000
0000
0000
0000
3001
0000
0000
0000
,  // measure 22
1100
0010
0001
0011
0100
1000
1001
0000
,  // measure 23
1000
0001
1000
0001
0010
0000
0100
0000
1000
0000
0001
0000
1000
0000
0000
0000
,  // measure 24
1001
0000
0100
0101
0000
0010
0110
0000
,  // measure 25
1000
0000
1020
0000
0000
0000
0000
0000
0130
0010
0100
0010
1000
0001
1000
0000
,  // measure 26
1001
0000
0100
1100
0000
0010
0110
0000
,  // measure 27
0001
0100
0001
0100
0010
0000
2000
0000
0100
0000
0000
0000
3100
0000
0000
0000
,  // measure 28
1001
0000
0010
0011
0000
0100
0120
0000
,  // measure 29
0000
0000
0130
1000
0001
0000
0001
0000
0010
0000
0100
0000
0010
0000
0000
0000
,  // measure 30
1001
0000
0000
0000
1000
0000
0010
0000
0100
0001
0100
0001
1000
0100
0010
0000
,  // measure 31
0100
0000
1000
0010
1000
1000
0001
0000
,  // measure 32
1000
0010
0100
1000
0100
0001
1000
0001
,  // measure 33
0000
0010
0100
0100
0200
0000
0310
0000
,  // measure 34
2002
0000
0000
0000
,  // measure 35
0000
0000
0000
3003
,  // measure 36
0010
0000
0000
0100
0000
0000
0010
0000
2002
0000
0000
0000
0000
0000
3003
0000
,  // measure 37
0000
1000
0100
0010
0000
0001
0010
0100
,  // measure 38
1000
0000
0000
0010
0000
0000
1000
0000
0220
0000
0000
0000
0000
0000
0330
0000
,  // measure 39
0002
0023
0230
2300
,  // measure 40
3100
0000
0000
0010
0000
0000
0100
0000
2002
0000
0000
0000
0000
0000
3003
0000
,  // measure 41
1000
0001
0010
0100
0000
0010
0001
1000
,  // measure 42
0010
0000
0000
0100
0000
0000
0010
0000
2002
0000
0000
0000
0000
0000
3003
0000
,  // measure 43
0002
0203
0320
2030
,  // measure 44
3010
0000
0000
0100
0000
0000
0010
0000
1001
0000
0000
0000
1000
0010
1000
0000
,  // measure 45
0001
0000
0000
0010
0000
0000
0100
0000
0000
0000
1000
0000
0010
0000
1000
0000
,  // measure 46
0100
0000
0000
0010
0000
0000
0100
0000
2002
0000
0000
0000
0000
0000
3003
0000
,  // measure 47
2000
0000
3020
0000
0031
0010
1000
0000
,  // measure 48
0010
0000
0000
0100
0000
0000
0010
0000
2002
0000
0000
0000
0000
0000
3003
0000
,  // measure 49
1000
0001
0010
0001
1000
0001
0010
0000
,  // measure 50
0100
0000
0000
0010
0000
0000
0100
0000
2002
0000
0000
0000
0000
0000
3003
0000
,  // measure 51
0002
0203
2300
3200
,  // measure 52
0301
0001
0010
0100
2000
0000
3010
0000
,  // measure 53
0100
0100
0001
0010
0200
0000
0320
0000
,  // measure 54
0031
0001
0010
0100
2000
0000
3010
0000
,  // measure 55
0100
0100
0001
0010
0200
0000
0320
0000
,  // measure 56
0031
0001
1000
0100
0020
0000
0130
0000
,  // measure 57
1000
1000
0010
0100
0002
0000
2003
0000
,  // measure 58
3010
0010
0100
0001
0020
0000
0130
1000
,  // measure 59
0001
0010
1000
0010
0002
0000
0103
0000
,  // measure 60
1001
0000
0100
1000
0001
0000
0001
1000
,  // measure 61
0100
0000
0000
0000
0010
0000
0001
0000
0100
0000
0000
0010
0000
0000
1000
0000
,  // measure 62
1001
0000
0001
1000
0010
0000
0010
1000
,  // measure 63
0001
0000
0000
0010
0000
0000
0100
0000
0000
1000
0000
0000
0001
0000
0100
0000
0001
0000
1000
0000
0100
0000
1000
0000
,  // measure 64
0002
0000
0203
0000
,  // measure 65
0320
0000
2030
0000
,  // measure 66
3200
0000
0000
0000
,  // measure 67
0000
0000
0000
0000
1300
0010
0100
0000
,  // measure 68
1001
0010
0100
1000
0000
0001
0101
0000
,  // measure 69
0010
0100
0010
0100
0010
0000
1000
0000
0002
0000
0000
0000
0013
0000
0000
0000
,  // measure 70
1001
0100
0010
0001
0000
0100
0102
0000
,  // measure 71
0000
0000
1003
0100
0010
0000
0010
0000
0100
0000
1000
0000
0010
0000
0000
0000
,  // measure 72
1001
0010
0100
1000
0001
0100
1001
0000
,  // measure 73
1000
0001
1000
0001
1000
0000
0010
0000
1000
0000
0100
0000
0010
0000
0000
0000
,  // measure 74
0101
0010
0100
1000
0100
0010
0001
1000
,  // measure 75
0010
0000
0100
0000
0001
0000
1000
0000
0010
0100
0010
0100
0001
1000
0001
0000
,  // measure 76
1001
0100
0010
0001
1000
0010
1010
0000
,  // measure 77
0100
0010
0100
0010
0100
0000
0002
0000
0100
0000
0000
0000
0103
0000
0000
0000
,  // measure 78
1001
0010
0100
1000
0001
0100
0102
0000
,  // measure 79
0000
0000
1003
0100
0010
0000
0010
0000
0100
0000
1000
0000
0010
0000
0000
0000
,  // measure 80
1001
0000
0000
0000
0001
0000
0101
0000
0010
0100
0010
0100
0001
0000
0010
0000
,  // measure 81
0100
0000
1000
0001
0200
0001
0301
0000
,  // measure 82
1000
0001
0010
1000
0010
0001
0100
0010
,  // measure 83
0000
0000
0100
0010
1000
0000
1000
0000
2000
0000
0000
0000
3001
0000
0000
0000
,  // measure 84
1001
0100
0010
0001
1000
0010
1010
0000
,  // measure 85
0100
0001
0100
0001
0100
0000
0010
0000
1000
0000
0100
0000
0010
0000
0000
0000
,  // measure 86
1001
0010
0100
1000
0001
0100
0102
0000
,  // measure 87
0000
0000
0013
0100
1000
0000
1000
0000
0001
0000
0100
0000
0010
0000
0000
0000
,  // measure 88
0000
0201
0000
0320
0000
2030
0000
0000
,  // measure 89
0001
3001
0000
1000
0010
0100
0000
1001
,  // measure 90
0100
0010
0001
1000
0010
0110
0000
0000
,  // measure 91
1001
0000
0010
0000
0100
0000
1000
0010
1000
0010
1000
0001
0010
0000
0000
0000
,  // measure 92
1200
0320
0032
0203
,  // measure 93
0000
0010
0000
0000
0310
1000
1001
0010
,  // measure 94
0100
0000
1000
0000
0001
0000
0100
0000
0101
0000
0000
0000
0100
0000
0010
0100
,  // measure 95
0001
0001
0001
0010
0100
0000
1001
0000
,  // measure 96
0001
0000
0011
0000
0100
1000
0100
1000
0010
0000
0100
0000
0001
0000
0000
0000
,  // measure 97
0010
0100
0020
0001
0031
0000
1000
0001
,  // measure 98
0100
1000
0001
0010
1000
0202
0000
0000
,  // measure 99
0000
0000
0000
0000
,  // measure 100
0000
0000
0303
0020
,  // measure 101
0000
0000
0000
0000
,  // measure 102
0000
0000
0000
0000
0000
0000
0030
0200
,  // measure 103
0000
0000
0000
0000
,  // measure 104
0000
0000
0000
0000
,  // measure 105
0000
0000
0000
0300
;

//---------------dance-single - ----------------
#NOTES:
     dance-single:
     :
     Beginner:
     2:
     0.091,0.146,0.172,0.000,0.000: // measure 1
0000
0000
0000
0000
,  // measure 2
0000
0000
0000
0000
,  // measure 3
0000
0000
0000
0000
,  // measure 4
0000
0000
0000
0000
,  // measure 5
0000
0000
0000
0000
,  // measure 6
0000
0000
0000
0000
,  // measure 7
0000
0000
0000
0000
,  // measure 8
0000
0000
0000
0000
,  // measure 9
0000
0000
0000
0000
,  // measure 10
0001
0000
0000
0000
,  // measure 11
0000
0000
0000
0000
,  // measure 12
0010
0000
0000
0000
,  // measure 13
0000
0000
0000
0000
,  // measure 14
0100
0000
0000
0000
,  // measure 15
0000
0000
0000
0000
,  // measure 16
1000
0000
0000
0000
,  // measure 17
0000
0000
0000
0000
,  // measure 18
0001
0000
0000
0000
,  // measure 19
0100
0000
0000
0000
,  // measure 20
0010
0000
0000
0100
,  // measure 21
0000
0000
0000
0000
,  // measure 22
0001
0000
0000
0000
,  // measure 23
1000
0000
0000
0000
,  // measure 24
0100
0000
0000
0000
,  // measure 25
1000
0000
0000
0000
,  // measure 26
0001
0000
0000
0000
,  // measure 27
0010
0000
0000
0000
,  // measure 28
0001
0000
0000
0000
,  // measure 29
0000
0000
0000
0000
,  // measure 30
0100
0000
0000
0000
,  // measure 31
0100
0000
0000
0000
,  // measure 32
0010
0000
0000
0000
,  // measure 33
0010
0000
0000
0000
,  // measure 34
0000
0000
0000
0000
,  // measure 35
0000
0000
0000
0000
,  // measure 36
1001
0000
0000
0000
,  // measure 37
0000
0000
0000
0000
,  // measure 38
1001
0000
0000
0000
,  // measure 39
0000
0000
0000
0000
,  // measure 40
1001
0000
0000
0000
,  // measure 41
0000
0000
0000
0000
,  // measure 42
1001
0000
0000
0000
,  // measure 43
0000
0000
0000
0000
,  // measure 44
1001
0000
0000
0000
,  // measure 45
0000
0000
0000
0000
,  // measure 46
0110
0000
0000
0000
,  // measure 47
0000
0000
0000
0000
,  // measure 48
1001
0000
0000
0000
,  // measure 49
0000
0000
0000
0000
,  // measure 50
0110
0000
0000
0000
,  // measure 51
0000
0000
0000
0000
,  // measure 52
1001
0000
0000
0000
,  // measure 53
0001
0000
0000
0000
,  // measure 54
1001
0000
0000
0000
,  // measure 55
1000
0000
0000
0000
,  // measure 56
1001
0000
0000
0000
,  // measure 57
0001
0000
0000
0000
,  // measure 58
1001
0000
0000
0000
,  // measure 59
1000
0000
0000
0000
,  // measure 60
0100
0000
0000
0000
,  // measure 61
0100
0000
0000
0000
,  // measure 62
0010
0000
0000
0000
,  // measure 63
0010
0000
0000
0000
,  // measure 64
0001
0000
0000
0000
,  // measure 65
0000
0000
0000
0000
,  // measure 66
0000
0000
0000
0000
,  // measure 67
0000
0000
0000
0000
,  // measure 68
1001
0000
0000
0000
,  // measure 69
0000
0000
0000
0000
,  // measure 70
0110
0000
0000
0000
,  // measure 71
0000
0000
0000
0000
,  // measure 72
1001
0000
0000
0000
,  // measure 73
0000
0000
0000
0000
,  // measure 74
0110
0000
0000
0000
,  // measure 75
0000
0000
0000
0000
,  // measure 76
1001
0000
0000
0000
,  // measure 77
0000
0000
0000
0000
,  // measure 78
1001
0000
0000
0000
,  // measure 79
0000
0000
0000
0000
,  // measure 80
0110
0000
0000
0000
,  // measure 81
0010
0000
0000
0000
,  // measure 82
0100
0000
0000
0000
,  // measure 83
0100
0000
0000
0000
,  // measure 84
1001
0000
0000
0000
,  // measure 85
0000
0000
0000
0000
,  // measure 86
0110
0000
0000
0000
,  // measure 87
0000
0000
0000
0000
,  // measure 88
0000
0001
0000
0000
0000
0000
0000
0000
,  // measure 89
0100
0000
0000
0000
0000
0000
0000
1001
,  // measure 90
0000
0000
0000
0000
,  // measure 91
0000
0000
0000
0000
,  // measure 92
1000
0000
0000
0100
,  // measure 93
0000
0000
0000
0010
,  // measure 94
0000
0000
0000
0000
,  // measure 95
0000
0000
0000
0001
,  // measure 96
0000
0000
0000
0100
,  // measure 97
0000
0000
0000
0010
,  // measure 98
0000
0000
0000
0000
0000
0110
0000
0000
;
