#TITLE:Dynamite;
#SUBTITLE:(Camellia's MACHO TNT REMIX);
#ARTIST:USAO;
#TITLETRANSLIT:;
#SUBTITLETRANSLIT:;
#ARTISTTRANSLIT:;
#CREDIT:DigiMindAxel;
#BANNER:Dynamite (Camellia's MACHO TNT REMIX).png;
#BACKGROUND:Dynamite (Camellia's MACHO TNT REMIX)-bg.png;
#LYRICSPATH:;
#CDTITLE:Konami original REMIX.png;
#MUSIC:Dynamite (Camellia's MACHO TNT REMIX).ogg;
#METERTYPE:DDR X;
#OFFSET:-10.248;
#SAMPLESTART:83.739;
#SAMPLELENGTH:12.000;
#SELECTABLE:YES;
#BPMS:0.000=111.000,16.000=222.000,308.000=111.000,310.000=222.000,314.000=111.000,316.000=222.000;
#STOPS:;
#BGCHANGES:;

//---------------dance-single - ----------------
#NOTES:
     dance-single:
     :
     Easy:
     7:
     0.346,0.474,0.038,0.084,0.000:
1000
1000
0001
0001
,
0010
0010
0100
0100
,
0010
0010
0001
0001
,
1000
0010
0100
0010
1000
0000
0010
0010
,
1000
0000
1001
0000
,
1000
0100
0010
0000
,
0001
0000
1001
0000
,
1000
0100
0010
0000
,
0001
0000
1001
0000
,
1000
0100
0010
0000
,
0001
0000
0110
0000
,
1000
0010
0100
0000
,
0001
0000
2000
0000
,
0000
0000
0000
0000
,
3002
0000
0000
0000
,
0000
0000
0003
0000
,
0200
0000
0000
0000
,
0000
0000
0000
0000
,
0320
0000
0000
0000
,
0000
0030
0000
0000
,
1000
0001
1000
0000
,
0100
1000
0100
0000
,
1000
0001
1000
0000
,
0001
0010
0001
0000
,
0100
0010
0100
0010
,
0100
0010
0100
0010
,
1000
0100
0010
0001
,
1000
0000
0000
0000
,
0001
0001
0001
0001
,
0001
0001
0001
0001
,
0100
0100
0100
0100
,
0100
0010
0100
0000
,
0001
1000
1000
1000
,
1000
1000
1000
1000
,
0100
0100
0100
0100
,
0100
1000
0100
0000
,
0010
0001
0001
0001
,
0001
0001
0001
0001
,
0100
0100
0100
0100
,
0100
0010
0100
0000
,
0001
0000
0000
1000
0000
0000
0001
0000
,
1000
0000
0000
0001
0000
0000
1000
0000
,
0100
0000
0010
0000
,
0001
0000
0100
0000
,
0020
0000
1000
0000
,
1000
0000
1000
0000
,
2030
0000
0001
0000
,
0001
0000
3001
0000
,
0010
0001
0010
0001
,
0100
0010
0100
0010
,
1000
0100
1000
0100
,
0010
0001
1000
0000
,
0010
0100
0010
0100
,
0001
0100
0001
0100
,
0010
1000
0100
0010
,
0001
1000
0100
0000
,
0010
0000
0000
0001
0000
0000
0010
0000
,
0001
0000
0000
1000
0000
0000
0001
0000
,
2000
0000
0100
0000
,
0100
0000
3100
0000
,
1001
0000
0000
0000
,
0000
0000
0000
0000
,
0010
0000
0010
0000
,
0010
0000
0000
0000
,
0100
0010
0100
0010
,
0100
0001
0100
0001
,
1000
0100
0010
0001
,
1000
0100
0010
0001
,
1000
0100
1000
0100
,
1000
0001
1000
0001
,
0100
0010
0100
0010
,
0100
0001
0010
0100
,
1000
0000
0000
0010
0000
0000
1000
0000
,
0010
0000
0000
0100
0000
0000
0010
0000
,
0100
0001
0010
0100
,
1000
0001
0100
0000
,
0002
0000
1000
0000
,
1003
0000
0200
0000
,
1000
0000
1300
0000
,
0020
0000
0100
0000
,
0100
0000
0100
0000
,
0130
0001
0100
0010
,
1000
0000
0000
0000
,
0001
1000
0001
1000
,
0100
0010
0100
1000
,
0010
0100
0010
0100
,
0001
0100
0010
0100
,
0001
1000
0001
1000
,
0100
0010
0100
1000
,
0010
0100
0010
0100
,
0001
1000
0100
0010
,
0001
1000
0100
1000
,
0001
0010
0100
1000
,
0001
0100
0010
0100
,
0001
1000
0100
1000
,
0001
0010
0100
1000
,
0001
0010
0100
1000
,
0010
0000
0010
0000
,
0100
0000
0100
0000
,
0001
0010
0001
1000
,
0100
0010
0002
0000
,
0000
0000
0000
0000
,
0000
0000
0000
0000
,
0000
0000
0000
0000
,
0003
0000
0000
0000
;

//---------------dance-single - ----------------
#NOTES:
     dance-single:
     :
     Medium:
     12:
     0.626,0.869,0.479,0.190,0.080: // measure 1
1000
0000
0100
1000
0100
1000
0000
0001
0100
0000
0010
0000
0110
0000
0000
0000
,  // measure 2
0100
0000
0001
0100
0001
0100
0000
0001
1000
0000
0100
0000
1100
0000
0000
0000
,  // measure 3
0010
0000
0001
1000
0001
1000
0000
0010
0100
0000
0001
0000
0011
0000
0100
0000
,  // measure 4
1000
0000
0010
0000
0001
0000
0010
0000
1000
0000
1000
0000
1000
0001
0010
0100
,  // measure 5
1000
0000
0100
1000
0100
0000
0010
0000
,  // measure 6
0001
1000
1100
0000
,  // measure 7
0010
0000
0001
0010
0001
0000
1000
0000
,  // measure 8
0100
0011
1001
0000
,  // measure 9
0001
0000
1000
0001
1000
0000
1100
0000
,  // measure 10
0010
0011
1001
0000
,  // measure 11
0010
0000
0100
1000
0100
0000
0010
0001
,  // measure 12
1000
0010
0110
0000
,  // measure 13
1001
0000
0002
0000
,  // measure 14
0100
0100
0100
0100
,  // measure 15
0203
0010
0010
0010
,  // measure 16
0010
0010
0010
0310
,  // measure 17
2000
0100
0100
0100
,  // measure 18
0100
0100
0100
0100
,  // measure 19
3200
0010
0010
0010
,  // measure 20
0310
0000
0000
0110
0000
0000
1001
0000
,  // measure 21
0001
0010
0001
0000
1000
0001
1000
0000
,  // measure 22
0001
0010
0001
0000
1000
0001
1000
0000
,  // measure 23
0010
0100
0010
0000
1000
0010
1000
0000
,  // measure 24
0010
0100
0010
0000
1000
0010
1000
0000
,  // measure 25
0001
1000
0001
1000
0100
0010
0100
0010
,  // measure 26
0001
0100
0001
0100
0010
1000
0010
1000
,  // measure 27
0100
0001
0100
1000
,  // measure 28
0220
0000
0000
0000
0000
0330
0000
0000
,  // measure 29
0101
0101
1001
1000
,  // measure 30
0010
0001
0010
1000
,  // measure 31
0100
0010
0101
0100
,  // measure 32
1010
0000
1000
0000
0001
0010
0100
1000
,  // measure 33
0001
0100
0001
0000
1001
0000
1000
0000
,  // measure 34
0010
0001
0010
1000
,  // measure 35
0110
0001
0100
0010
,  // measure 36
1100
0000
1100
0000
0010
0001
1000
0000
,  // measure 37
1001
0000
0000
1000
0001
0000
0010
0000
,  // measure 38
1000
0010
0001
0110
,  // measure 39
1000
0100
0011
0100
,  // measure 40
1100
0000
0010
0001
1000
0100
0010
0000
,  // measure 41
0101
0000
0000
0110
0000
0000
0101
0000
,  // measure 42
0110
0000
0000
1010
0000
0000
0010
1000
,  // measure 43
0001
0000
1001
0000
1000
0100
0010
0002
,  // measure 44
0000
0003
0200
0020
0000
0000
0330
0000
,  // measure 45
1100
0100
1000
0010
,  // measure 46
0100
0000
0001
1000
0000
1000
0000
1000
,  // measure 47
0001
0100
0010
0100
,  // measure 48
0001
1000
0001
1000
0100
0000
0000
0000
,  // measure 49
1001
0000
1001
0000
1000
0000
0010
0100
,  // measure 50
0001
0000
0100
0001
0100
0000
0010
1000
,  // measure 51
0100
0000
1000
0100
1000
0000
0001
0010
,  // measure 52
0100
0000
1000
0000
0100
0000
1000
0000
0000
0000
0000
0000
,  // measure 53
0010
0000
0110
0000
1000
0100
1000
0000
,  // measure 54
0100
1000
0001
0000
0010
0100
0010
0100
,  // measure 55
1000
0001
1000
0001
0100
0000
0010
1000
,  // measure 56
0010
0000
0100
0001
0010
0000
0100
0010
,  // measure 57
0100
0000
0000
0110
0000
0000
1000
0000
,  // measure 58
1001
0000
0000
0011
0000
0000
0100
0000
,  // measure 59
1100
0000
1100
0000
0010
0001
0010
0002
,  // measure 60
0000
0000
0203
0020
0000
0000
0330
0000
,  // measure 61
2002
0000
0000
0000
,  // measure 62
0000
0000
0000
3003
,  // measure 63
1000
0001
1000
0001
,  // measure 64
1000
0001
1001
0000
,  // measure 65
0100
0001
0100
0001
0000
1000
0100
0000
,  // measure 66
0010
0001
0010
0001
0000
1000
0010
0000
,  // measure 67
0100
0010
0100
0010
0000
1000
0001
0000
,  // measure 68
0010
0100
0010
0100
2000
0000
0000
0000
,  // measure 69
3001
0010
0001
0010
0000
0100
0010
0000
,  // measure 70
0001
0100
0001
0100
0000
0010
0100
0000
,  // measure 71
0001
1000
0001
1000
0000
0100
0010
0000
,  // measure 72
0001
0100
0001
0100
0010
0000
1010
0000
,  // measure 73
0101
0000
0000
0101
0000
0000
0101
0000
,  // measure 74
1001
0000
0000
1001
0000
0000
1001
0000
,  // measure 75
1000
0000
0000
0100
0000
0000
1000
0000
0001
0000
0000
1000
0000
0000
0001
0000
,  // measure 76
0100
0010
0200
0020
0000
0000
0330
0000
,  // measure 77
1100
0010
0001
1000
,  // measure 78
2200
0000
0000
3300
0011
0000
0100
0000
,  // measure 79
1000
0000
0001
0000
0022
0000
0000
0033
,  // measure 80
1001
0000
0000
0101
0000
0000
0101
0000
,  // measure 81
0110
0000
0000
1010
0000
0000
1010
0000
,  // measure 82
1001
0010
0100
2000
,  // measure 83
0200
0000
0000
3300
,  // measure 84
0010
0001
0100
0000
0001
0100
0001
0000
,  // measure 85
1000
0100
0010
0000
0100
1000
0100
0000
,  // measure 86
0010
0001
1000
0000
0001
1000
0001
0000
,  // measure 87
0010
0000
0100
0000
1000
0000
0000
0000
0001
0000
0000
0100
0000
0000
0001
0000
,  // measure 88
1000
0100
1000
0000
0100
1000
0001
0000
,  // measure 89
0100
0001
0100
0000
0001
1000
0100
0000
,  // measure 90
0010
0100
0010
0100
1000
0100
0010
0000
,  // measure 91
0001
0000
0100
0000
0001
0000
1000
0000
0000
1001
0000
0000
,  // measure 92
0001
0010
0100
0000
1000
0010
0100
0000
,  // measure 93
0010
0100
0010
0100
0010
0100
0001
0000
,  // measure 94
0010
0100
1000
0000
0100
1000
0100
0000
,  // measure 95
0010
0100
0010
0100
0010
0100
1000
0000
,  // measure 96
0010
0000
0000
0100
0000
0000
0010
0000
1000
0000
0000
0100
0000
0000
1000
0000
,  // measure 97
0001
0000
0000
0010
0000
0000
0001
0000
2000
0000
0000
0000
0000
0000
0000
0000
,  // measure 98
3001
0010
1000
0010
,  // measure 99
0001
0000
1000
0000
0001
0000
1000
0100
,  // measure 100
0010
0001
0010
0001
0100
0010
0100
0010
,  // measure 101
1000
0010
0100
0020
0000
0000
0000
0000
,  // measure 102
0000
0000
0000
0000
,  // measure 103
0000
0000
0000
0000
,  // measure 104
0000
0000
0000
0000
,  // measure 105
0030
0000
0000
0000
;

//---------------dance-single - ----------------
#NOTES:
     dance-single:
     :
     Hard:
     14:
     0.804,1.000,0.410,0.463,0.118: // measure 1
1000
0000
0001
0010
0001
2000
0000
0010
0000
3010
0100
0001
1000
0100
1000
0000
,  // measure 2
0001
0000
1000
0100
1000
0000
0001
0100
0010
0000
1000
0000
0100
0000
1001
0000
,  // measure 3
0001
0000
1000
0010
1000
0001
0010
0000
0100
0000
0010
0001
0100
0010
1000
0000
,  // measure 4
0100
0000
0010
0000
0001
0100
0001
2000
0000
0000
3010
0200
0000
0301
0010
0100
,  // measure 5
1000
0001
0100
0000
1001
0000
1000
0100
,  // measure 6
0010
0011
1100
1001
,  // measure 7
1000
0010
0100
0001
1000
0000
0100
0010
,  // measure 8
0001
0011
1100
1001
,  // measure 9
0001
1000
0010
1000
0001
0000
0010
0100
,  // measure 10
1000
1100
0011
1001
,  // measure 11
1000
0010
0100
0010
1000
0000
0001
0010
,  // measure 12
0100
1010
0101
1001
,  // measure 13
0110
0000
0000
0000
0200
0000
0301
1000
,  // measure 14
0001
1000
0100
0010
0100
0010
0001
0000
,  // measure 15
0100
0001
0100
0001
0010
0100
0010
0100
,  // measure 16
1000
0001
0010
0001
0010
0100
1000
0000
,  // measure 17
0200
0000
0310
0001
0010
0001
0100
0010
,  // measure 18
0100
0010
1000
0010
1000
0100
0010
0000
,  // measure 19
0100
1000
0100
1000
0010
0100
0010
0100
,  // measure 20
0002
0000
1003
0100
0000
0010
0100
0000
,  // measure 21
1000
0010
1000
0010
0100
0001
0100
0001
,  // measure 22
1000
0100
1000
0100
0010
0001
0010
0001
,  // measure 23
1000
0100
0010
0001
0100
1000
0100
0001
,  // measure 24
1000
0100
0010
0001
0010
1000
0010
0001
,  // measure 25
0010
0100
1000
0001
0100
1000
0100
0001
,  // measure 26
0010
0100
0010
0001
1000
0100
0010
0100
,  // measure 27
1000
0010
1000
0010
0100
0001
0100
0001
,  // measure 28
2000
0000
0000
0000
0000
3001
0010
0100
,  // measure 29
1000
0000
1001
0000
0102
0000
0000
1003
,  // measure 30
0100
1000
0001
1000
0100
1000
0001
1000
,  // measure 31
0100
1000
0001
0010
0200
0000
0310
0100
,  // measure 32
2000
0000
3010
0100
0001
1000
0100
0010
,  // measure 33
0001
1000
0001
0000
0201
0000
0310
1000
,  // measure 34
0001
1000
0010
1000
0001
1000
0010
0100
,  // measure 35
0001
0010
0001
0100
0001
0010
0001
0100
,  // measure 36
0001
0000
1000
0100
0000
0010
0100
0000
,  // measure 37
1002
0000
0000
1003
0100
1000
0001
1000
,  // measure 38
0100
1000
0001
1000
0100
1000
0002
0000
,  // measure 39
0103
0010
1000
0010
0200
0000
0310
0100
,  // measure 40
0002
0000
1003
0100
0010
0001
1000
0000
,  // measure 41
2020
0000
3030
0202
0000
0303
0110
0000
,  // measure 42
2200
0000
3300
0012
0000
1003
0100
0010
,  // measure 43
0001
0000
0101
0000
0100
0010
1000
0200
,  // measure 44
0000
1300
0100
0020
0000
0000
0030
0000
,  // measure 45
1001
0000
0001
0000
2000
0000
3010
0100
,  // measure 46
0010
0100
0001
0010
0000
0100
0010
0001
,  // measure 47
1000
0010
1000
0010
0200
0000
0301
1000
,  // measure 48
0001
1000
0100
0010
0000
0100
0010
0100
,  // measure 49
1000
0000
1001
0000
0102
0000
1003
0100
,  // measure 50
0001
0100
1000
0010
0100
0010
1000
0100
,  // measure 51
0001
0100
1000
0001
0010
0001
1000
0100
,  // measure 52
0010
0000
0010
0000
0010
0000
2002
0000
0000
3003
0000
0000
,  // measure 53
0100
0000
0101
0000
2010
0000
3001
0010
,  // measure 54
1000
0010
0001
1000
0100
1000
0001
0010
,  // measure 55
1000
0010
0001
0100
0010
0000
1000
0010
,  // measure 56
0001
0010
1000
0010
0100
1000
0100
0010
,  // measure 57
2002
0000
3003
0220
0000
0330
0101
0000
,  // measure 58
0220
0000
0330
2020
0000
3030
0110
0000
,  // measure 59
1000
0010
0100
0001
1000
0010
1000
0002
,  // measure 60
0000
0000
0013
0200
0000
0000
0300
0000
,  // measure 61
1020
0000
0000
0000
,  // measure 62
0000
0000
0000
0000
,  // measure 63
0100
0100
0100
0100
,  // measure 64
0100
0130
1001
0000
,  // measure 65
0001
1000
0001
0010
0001
0100
1000
0100
,  // measure 66
0001
0010
0001
1000
0001
0100
1000
0100
,  // measure 67
0001
0010
0001
1000
0001
0100
1000
0100
,  // measure 68
0001
0000
0000
0010
0000
0000
0100
0000
0000
1000
0000
0000
0010
0000
0100
0000
0010
0000
0100
0000
0010
0000
0100
0000
,  // measure 69
0010
0000
1000
0001
1000
0010
0001
0010
,  // measure 70
1000
0100
1000
0001
1000
0100
0001
0100
,  // measure 71
1000
0010
0100
1000
0100
0010
1000
0100
,  // measure 72
0001
0100
1000
0001
0010
0100
0010
0000
,  // measure 73
0202
0000
0303
0220
0000
0330
1010
0000
,  // measure 74
2002
0000
3003
0220
0000
0330
1100
0000
,  // measure 75
0011
0000
0000
0001
0000
0000
0100
0000
0010
0000
0000
0010
0000
0000
1000
0000
,  // measure 76
0100
0010
0002
2000
0000
0000
3003
0000
,  // measure 77
0101
0000
0001
1000
0000
0100
0010
0000
,  // measure 78
0202
0000
0000
0303
1010
0000
0010
0100
,  // measure 79
0000
0001
0010
0000
2200
0000
0000
3300
,  // measure 80
1001
0000
0001
0010
0000
0100
0010
0000
,  // measure 81
0101
0000
0010
1000
0000
0100
0010
0000
,  // measure 82
0001
0100
0010
1000
0100
0010
0100
1000
,  // measure 83
0002
0000
0000
0003
,  // measure 84
1000
0010
0001
0010
1000
0001
0010
0100
,  // measure 85
0010
0001
1000
0100
0010
0001
1000
0000
,  // measure 86
0001
0100
1000
0100
0001
0010
0100
0010
,  // measure 87
0001
0000
1000
0000
0100
0000
0010
0000
0001
0000
0000
0001
0000
0000
0001
0000
,  // measure 88
1000
0010
0100
0000
0001
0100
1000
0100
,  // measure 89
0001
0010
0001
1000
0010
0100
0001
0000
,  // measure 90
1000
0010
0001
0010
1000
0100
0010
0100
,  // measure 91
1000
0000
1000
0000
1000
0000
0220
0000
0000
0330
0000
0000
,  // measure 92
0001
0010
1000
0010
0001
1000
0100
0010
,  // measure 93
0100
1000
0001
0100
1000
0100
0001
0010
,  // measure 94
0100
0010
0001
0000
0010
0001
1000
0000
,  // measure 95
0100
0100
0100
0100
0200
0000
0300
0000
,  // measure 96
1001
0000
0000
0001
0000
0000
1000
0000
0100
0000
0000
0100
0000
0000
0100
0000
,  // measure 97
0010
0000
0000
0010
0000
0000
0010
0000
0002
0000
0000
0000
0000
0000
0000
0000
,  // measure 98
1003
0010
0001
0010
,  // measure 99
1000
0000
0100
0000
0010
0100
0010
0001
,  // measure 100
1000
0010
0100
0001
1000
0100
0001
0100
,  // measure 101
1000
0001
0010
0002
0000
0000
0000
0000
,  // measure 102
0000
0000
0000
0000
,  // measure 103
0000
0000
0000
0000
,  // measure 104
0000
0000
0000
0000
,  // measure 105
0003
0000
0000
0000
;

//---------------dance-single - ----------------
#NOTES:
     dance-single:
     :
     Challenge:
     17:
     1.000,1.000,0.585,0.387,0.543: // measure 1
1000
0000
0001
0100
0001
1000
0000
0002
0000
2003
0000
3001
0010
0001
2000
0000
,  // measure 2
3001
0000
1000
1000
1000
0000
0100
0100
0100
0000
0011
0000
0110
0000
1100
0000
,  // measure 3
1000
0000
0010
0100
0010
1000
0001
0000
0010
0001
0010
0001
1000
0010
0100
0001
,  // measure 4
2000
0000
3001
0001
0001
0000
0100
0100
0100
0001
1000
0001
1000
0100
0010
0001
,  // measure 5
0100
0010
0100
0010
0100
0000
0010
0000
1000
0000
0000
0000
0001
0000
0100
0010
,  // measure 6
0100
0001
1000
0100
0010
0100
1000
0000
,  // measure 7
0100
0000
1000
0000
0010
0100
0010
0100
0010
0000
1000
0000
0001
0000
0010
0100
,  // measure 8
0010
0001
1000
0010
0100
0010
1000
0000
,  // measure 9
0001
0010
0001
0010
0001
0000
1000
0000
0010
0000
0000
0000
1000
0000
0001
0010
,  // measure 10
0001
1000
0001
0010
0100
0010
0001
1000
,  // measure 11
0002
0000
0013
0001
0100
0010
2000
0200
,  // measure 12
0000
3300
0020
0002
0000
0000
0033
0000
,  // measure 13
1001
0000
0001
0100
0002
0000
1003
0100
,  // measure 14
0010
0100
1000
0001
0010
0100
0010
0001
,  // measure 15
1000
0100
0010
0100
1000
0001
0010
0100
,  // measure 16
0010
0001
1000
0001
0010
0001
1000
0010
,  // measure 17
0200
0000
0301
0100
0010
0100
0001
1000
,  // measure 18
0010
0100
0010
1000
0001
0100
0010
0100
,  // measure 19
0001
1000
0010
0100
0010
1000
0001
0010
,  // measure 20
0012
0000
0013
1100
0010
0001
2001
0000
,  // measure 21
3001
0000
1000
0000
0100
1000
0100
0000
1000
0000
0001
0000
0010
0001
0010
0000
,  // measure 22
0001
0000
1000
0000
0010
1000
0010
0000
1000
0000
0001
0000
0100
0001
0100
0000
,  // measure 23
0001
0000
1000
0000
0100
1000
0100
0000
1000
0000
0001
0000
0010
0001
0010
0000
,  // measure 24
0001
0000
1000
0000
0010
1000
0010
0000
1000
0000
0001
0000
0100
0001
0100
0000
,  // measure 25
0001
1000
0001
0000
1000
0100
1000
0000
0001
0010
0001
0000
1000
0001
1000
0000
,  // measure 26
0001
0100
0001
0100
0010
1000
0010
1000
0001
0010
0001
0010
0100
0010
0100
1000
,  // measure 27
0001
0010
0100
1000
0001
0010
0100
1000
,  // measure 28
0220
0000
0000
0000
0330
1000
0100
0010
,  // measure 29
0011
0000
1001
0000
0011
0000
1001
1000
,  // measure 30
0010
0100
0010
1000
0001
0100
1000
0100
,  // measure 31
0010
1000
0001
0010
0002
0000
1003
0010
,  // measure 32
0200
0000
0301
1000
0100
0010
0100
1000
,  // measure 33
0001
0001
0101
0000
0120
0000
1030
0001
,  // measure 34
0010
0001
1000
0010
0001
0010
0100
0001
,  // measure 35
1000
1000
0100
0100
0010
0010
0001
0001
,  // measure 36
0100
0100
0010
1000
1002
0000
0203
0000
,  // measure 37
0320
0000
0000
1000
1030
0001
0010
0100
,  // measure 38
0001
0100
1000
0001
0010
0100
0020
0000
,  // measure 39
0031
1000
0010
1000
0002
0000
0013
0100
,  // measure 40
2000
0000
3001
0100
1000
0100
0001
0010
,  // measure 41
2100
0000
3010
0210
0000
0301
1000
0100
,  // measure 42
0012
0000
0103
0120
0000
1030
0100
0010
,  // measure 43
0001
0100
0001
0100
0001
0000
1000
0000
0100
0000
0010
0000
0100
0000
1000
0010
,  // measure 44
1000
0001
0100
0002
0000
1003
0100
1000
,  // measure 45
1001
0000
1001
0000
0102
0000
1003
0100
,  // measure 46
0010
0100
1000
1001
0000
0101
0001
1000
,  // measure 47
1010
0010
0100
0010
2000
0000
3001
0100
,  // measure 48
0010
0010
1010
1001
0000
0011
0100
1000
,  // measure 49
0001
0000
0100
0000
0010
0000
0100
0000
0001
1000
0001
0000
1000
0000
0010
0000
,  // measure 50
0001
0010
1000
0100
0001
0100
1000
0001
,  // measure 51
0010
0000
0001
0000
0100
0000
0010
0000
1000
0010
1000
0000
0100
0000
0010
0000
,  // measure 52
0001
0000
0000
0000
0101
0000
0000
0000
0110
0000
0000
0000
1010
0000
0000
1000
0000
0000
0100
0000
0000
0010
0000
0000
,  // measure 53
1001
0000
0000
0000
1000
0000
0010
0000
0100
0010
0100
0000
0010
0000
1000
0000
,  // measure 54
0001
0010
1000
0010
0001
0001
1000
1000
,  // measure 55
0100
1000
0100
0000
0010
0000
0001
0000
0100
0001
0100
0000
0001
0000
1000
0000
,  // measure 56
0100
0000
0001
0000
0100
0000
1000
0000
0001
0000
0100
0010
0100
0000
0001
0000
,  // measure 57
2001
0000
3010
0210
0000
0301
0011
0000
,  // measure 58
1002
0000
0013
0210
0000
1300
1001
0000
,  // measure 59
0001
0100
0001
0100
0001
0000
0010
0000
0100
0000
1000
0000
0010
0000
0100
0010
,  // measure 60
0100
0000
0010
0000
1000
0001
1000
0001
1000
0000
0010
0000
0100
0000
0000
0000
,  // measure 61
2020
0000
0000
0000
,  // measure 62
0000
0000
0000
3030
,  // measure 63
0010
0100
0010
0100
0010
0100
0010
0100
,  // measure 64
0001
1000
0001
1000
0100
0010
0100
0010
0002
0000
0100
0000
0103
0000
0000
0000
,  // measure 65
0010
0100
0001
0000
0010
0000
0100
0000
0010
0000
0001
0000
1000
0010
1000
0000
,  // measure 66
0010
1000
0001
0000
0010
0000
0100
0000
0010
0000
0001
0000
1000
0100
1000
0000
,  // measure 67
0100
0010
0001
0000
1000
0000
0010
0000
1000
0000
0001
0000
0100
0001
0010
0000
,  // measure 68
0100
0000
0000
0010
0000
0000
0100
0000
0000
0000
0000
0000
1000
0000
0000
0000
0000
0000
0010
0000
0000
0000
0000
0000
1000
0000
0000
0000
0001
0000
0000
0000
0100
0000
0000
0000
1000
0000
0000
0000
0001
0000
0000
0000
0010
0000
0000
0000
,  // measure 69
1000
0000
0000
0000
0001
0000
0000
0000
1000
0000
0000
0000
0001
0000
0000
0000
0000
0000
0010
0000
0000
0000
0000
0000
0100
0000
0000
0000
0000
0000
1000
0000
0000
0000
0000
0000
0010
0000
0000
1000
0000
0000
0001
0000
0000
0000
0000
0000
,  // measure 70
0010
0001
0010
0000
0100
0000
0010
0000
0001
0000
1000
0000
0010
1000
0010
0000
,  // measure 71
0100
0001
0010
0000
0100
0000
1000
0000
0001
0000
0100
0000
0001
1000
0100
0000
,  // measure 72
0010
0100
0010
0000
0001
0000
0100
0000
0010
0000
0010
0000
0110
0000
0000
0000
,  // measure 73
1020
0000
0130
1002
0000
0013
1100
0000
,  // measure 74
0021
0000
0031
2001
0000
3010
0110
0000
,  // measure 75
0101
0000
0000
0101
0000
0000
0101
0000
1001
0000
0000
1001
0000
0000
1001
0000
,  // measure 76
1000
0100
0020
0200
0000
0000
0330
0000
,  // measure 77
1001
1000
0010
0101
0010
0100
1100
0010
,  // measure 78
1002
1000
1000
1003
0011
0100
1000
0110
,  // measure 79
0001
0100
1010
0100
2001
0001
0001
3001
,  // measure 80
1000
0010
1000
0000
0001
0000
0010
0001
0010
0000
0100
0000
1000
0001
1000
0000
,  // measure 81
0010
0100
0010
0000
1000
0000
0100
0010
0100
0000
1000
0000
0001
0100
0001
0000
,  // measure 82
1000
0000
0100
1000
0000
0010
0100
0000
0001
0010
0000
0100
1000
0000
0010
0100
,  // measure 83
0020
0000
0100
0130
,  // measure 84
0001
1000
0100
0000
1000
0100
1000
0000
0001
0000
0010
0000
0100
0000
1000
0000
,  // measure 85
0001
0100
0001
0000
1000
0000
0010
0000
0100
0001
0010
0000
0001
0010
0001
0000
,  // measure 86
0010
0100
1000
0000
0100
1000
0010
0000
0100
0000
0001
0000
0010
0000
0100
0000
,  // measure 87
0010
0001
0100
0000
0010
0100
0010
0000
0100
0001
0000
1000
0010
0000
0100
0000
,  // measure 88
0001
0001
1001
0000
1000
0001
0100
0001
,  // measure 89
1000
0100
1000
0000
0010
0100
0001
0000
0100
0001
0100
0000
0001
1000
0001
0000
,  // measure 90
1000
0000
0100
0000
0100
0000
1100
0000
0010
0001
0100
0000
0010
0100
0010
0000
,  // measure 91
1000
0000
1100
0000
0110
0000
0022
0000
0000
0033
0000
0000
,  // measure 92
0001
1000
0010
1000
0001
0000
1000
0000
0010
0100
0001
0000
0100
0001
0100
0000
,  // measure 93
0001
1000
0100
0000
1000
0100
1000
0000
0100
0000
0010
0000
0001
0000
1000
0000
,  // measure 94
0010
0010
0110
1000
0001
0001
0011
0000
,  // measure 95
0100
0010
0100
0010
0100
0010
0100
0010
0200
0000
0000
0000
0000
0000
0300
0000
,  // measure 96
1001
0000
0000
1001
0000
0000
1001
0000
1100
0000
0000
1100
0000
0000
1100
0000
,  // measure 97
0011
0000
0000
0011
0000
0000
0011
0000
1001
0000
1000
0000
0010
0000
0100
0000
,  // measure 98
0001
0000
1000
0000
0001
0000
1000
0000
0100
0000
0010
0000
0100
0000
0010
0100
,  // measure 99
0010
0000
0001
0000
1000
0000
0001
1000
0001
0000
1000
0000
0100
0000
0010
0000
,  // measure 100
0100
1000
0100
0000
0010
0100
0010
0000
0001
0100
0010
0100
0010
0100
0001
0000
,  // measure 101
1000
0001
0100
0001
1000
0100
0020
0000
0000
0000
0000
0000
0000
0000
0000
0000
,  // measure 102
0000
0000
0000
0000
,  // measure 103
0000
0000
0000
0000
,  // measure 104
0000
0000
0000
0000
,  // measure 105
0030
0000
0000
0000
;

//---------------dance-single - ----------------
#NOTES:
     dance-single:
     :
     Beginner:
     5:
     0.153,0.267,0.030,0.000,0.000:
1000
0000
0000
0000
,
0100
0000
0000
0000
,
0010
0000
0000
0000
,
0100
0000
0000
0000
,
1001
0000
0001
0000
,
0001
0000
0000
0000
,
1000
0000
1000
0000
,
1000
0000
0000
0000
,
0001
0000
0001
0000
,
0001
0000
0000
0000
,
1000
0000
1000
0000
,
1000
0000
0000
0000
,
0010
0000
0000
0000
,
0000
0000
0000
0000
,
0000
0000
0000
0000
,
0000
0000
0000
0000
,
0100
0000
0000
0000
,
0000
0000
0000
0000
,
0000
0000
0000
0000
,
0001
0000
0000
0000
,
1000
0000
0000
0000
,
0001
0000
0000
0000
,
0010
0000
0000
0000
,
0001
0000
0000
0000
,
0100
0000
0000
0000
,
0010
0000
0000
0000
,
1000
0000
0000
0000
,
0100
0000
0000
0000
,
1000
0000
1000
0000
,
1000
0000
1000
0000
,
0001
0000
0001
0000
,
0001
0000
0001
0000
,
0010
0000
0010
0000
,
0010
0000
0010
0000
,
0100
0000
0100
0000
,
0100
0000
0000
0000
,
0010
0000
0010
0000
,
0010
0000
0010
0000
,
0001
0000
0001
0000
,
0001
0000
0001
0000
,
0100
0000
0000
0000
,
0100
0000
0000
0000
,
0010
0000
0000
0000
,
1000
0000
0000
0000
,
0001
0000
0000
0000
,
0000
0000
0000
0000
,
1000
0000
0000
0000
,
0001
0000
0000
0000
,
1000
0000
1000
0000
,
0100
0000
0100
0000
,
0010
0000
0010
0000
,
0001
0000
0001
0000
,
1000
0000
0010
0000
,
1000
0000
0010
0000
,
0100
0000
0001
0000
,
0100
0000
0001
0000
,
0010
0000
0000
0000
,
0010
0000
0000
0000
,
0100
0000
0000
0000
,
1000
0000
0000
0000
,
0001
0000
0000
0000
,
0000
0000
0000
0000
,
0000
0000
0000
0000
,
0000
0000
0000
0000
,
1000
0000
0000
0000
,
0100
0000
0000
0000
,
0010
0000
0000
0000
,
0100
0000
0000
0000
,
1000
0000
0000
0000
,
0001
0000
0000
0000
,
0100
0000
0000
0000
,
0010
0000
0000
0000
,
0100
0000
0000
0000
,
0001
0000
0000
0000
,
1000
0000
0000
0000
,
1000
0000
0000
0000
,
1001
0000
0000
0000
,
0001
0000
1001
0000
,
0000
0000
1000
0000
,
1001
0000
0000
0000
,
0001
0000
0000
0000
,
0010
0000
0001
0000
,
0100
0000
0000
0000
,
0010
0000
0010
0000
,
0100
0000
0100
0000
,
0010
0000
0010
0000
,
0100
0000
0100
0000
,
0001
0000
0001
0000
,
1000
0000
1000
0000
,
0001
0000
0001
0000
,
1000
0000
0100
0000
,
1000
0000
1000
0000
,
0010
0000
0010
0000
,
0100
0000
0100
0000
,
0001
0000
0000
0000
,
1000
0000
0100
0000
,
0010
0000
0001
0000
,
1000
0000
1000
0000
,
0001
0000
0001
0000
,
1000
0001
1000
0001
,
0010
0100
1000
0000
;
