#TITLE:Drunk Crunk Franken;
#SUBTITLE:;
#ARTIST:t+pazolite;
#TITLETRANSLIT:;
#SUBTITLETRANSLIT:;
#ARTISTTRANSLIT:;
#CREDIT:DigiMindAxel;
#BANNER:Drunk Crunk Franken.png;
#BACKGROUND:Drunk Crunk Franken-bg.png;
#LYRICSPATH:;
#CDTITLE:DigiMindAxel original simfile.png;
#MUSIC:Drunk Crunk Franken.ogg;
#METERTYPE:DDR X;
#OFFSET:-10.720;
#SAMPLESTART:99.205;
#SAMPLELENGTH:12.000;
#SELECTABLE:YES;
#DISPLAYBPM:210.000:220.000;
#BPMS:0.000=220.000,32.000=187.350,62.000=210.000,90.000=212.000,92.000=218.000,94.000=220.000;
#STOPS:;
#BGCHANGES:;

//---------------dance-single - ----------------
#NOTES:
     dance-single:
     :
     Easy:
     6:
     0.301,0.352,0.015,0.093,0.000: // measure 1
1000
0000
0001
0000
,  // measure 2
0010
0000
0001
0000
,  // measure 3
0010
0000
0100
0000
,  // measure 4
1000
0000
0001
0001
,  // measure 5
1000
0000
0100
0000
,  // measure 6
0010
0000
0001
0000
,  // measure 7
0100
0010
0100
0010
,  // measure 8
2000
0000
0000
0000
,  // measure 9
3001
0000
0000
0000
,  // measure 10
0000
0000
0000
0000
,  // measure 11
0000
0000
0000
0000
,  // measure 12
0000
0000
0000
0000
,  // measure 13
0000
0000
0000
0000
,  // measure 14
0000
0000
0000
0000
,  // measure 15
0000
0000
0000
0000
,  // measure 16
0000
0000
2000
0000
,  // measure 17
0000
0000
3002
0000
,  // measure 18
0000
0000
2003
0000
,  // measure 19
0000
0000
3002
0000
,  // measure 20
0000
0000
0023
0000
,  // measure 21
0000
0000
0230
0000
,  // measure 22
0000
0000
2300
0000
,  // measure 23
0000
0000
3002
0000
,  // measure 24
0000
0003
1001
0000
,  // measure 25
1000
0000
0001
0000
,  // measure 26
1000
0000
0100
0000
,  // measure 27
0010
0000
0001
0000
,  // measure 28
0100
0000
0010
0100
,  // measure 29
0010
0000
1000
0010
,  // measure 30
1000
0000
0001
1000
,  // measure 31
0001
1000
0100
0010
,  // measure 32
0001
0100
0010
0000
,  // measure 33
0010
0000
0010
0010
,  // measure 34
0010
0000
0100
0000
,  // measure 35
0100
0000
0100
0100
,  // measure 36
0100
0000
0001
0000
,  // measure 37
0001
0000
0001
0001
,  // measure 38
0001
0000
1000
0000
,  // measure 39
1000
0000
1000
1000
,  // measure 40
1000
0000
0100
0000
,  // measure 41
0100
0000
0010
0010
,  // measure 42
0010
0000
0001
0000
,  // measure 43
0001
0000
0100
0100
,  // measure 44
0100
0000
0010
0100
,  // measure 45
0010
0000
1000
0010
,  // measure 46
1000
0000
0001
0010
,  // measure 47
0100
1000
0001
0000
,  // measure 48
0000
0000
1000
0100
,  // measure 49
1000
0001
1000
0100
,  // measure 50
1000
0000
0001
1000
,  // measure 51
0001
0010
0001
1000
,  // measure 52
0001
0000
0100
0010
,  // measure 53
0100
0001
0100
0010
,  // measure 54
0100
0000
0010
0100
,  // measure 55
0010
1000
0010
0100
,  // measure 56
0010
0000
1000
0010
,  // measure 57
1000
0001
1000
0010
,  // measure 58
1000
0000
0001
0010
,  // measure 59
0001
0010
0100
1000
,  // measure 60
0010
0000
0100
0010
,  // measure 61
0100
0010
1000
0100
,  // measure 62
0010
0000
0001
0100
,  // measure 63
0001
1000
0010
0100
,  // measure 64
0000
0000
0001
0010
,  // measure 65
0100
1000
0001
0010
,  // measure 66
0100
1000
0001
0010
,  // measure 67
0100
1000
0001
0000
,  // measure 68
0001
0000
1000
0100
,  // measure 69
0010
0001
1000
0100
,  // measure 70
0010
0001
1000
0100
,  // measure 71
0010
0001
1000
0000
,  // measure 72
1000
0000
0001
0100
,  // measure 73
0010
1000
0001
0100
,  // measure 74
0010
1000
0001
0100
,  // measure 75
0010
1000
0001
0000
,  // measure 76
0001
0000
1000
0010
,  // measure 77
0100
0001
1000
0010
,  // measure 78
0100
0001
1000
0010
,  // measure 79
0100
0001
1000
0000
,  // measure 80
1000
0000
0001
0010
,  // measure 81
0001
0100
0010
0100
,  // measure 82
0001
0000
1000
0100
,  // measure 83
1000
0010
0100
0010
,  // measure 84
1000
0000
0100
0010
,  // measure 85
0001
0010
0100
1000
,  // measure 86
0010
0000
0100
0001
,  // measure 87
0010
0100
1000
0010
,  // measure 88
0100
0000
0001
1000
,  // measure 89
0100
0010
0001
0010
,  // measure 90
0100
0000
1000
0100
,  // measure 91
0010
0001
0010
0100
,  // measure 92
0010
0000
0001
0100
,  // measure 93
0010
0100
0001
1000
,  // measure 94
0100
0010
0001
1000
,  // measure 95
0001
1000
0200
0000
,  // measure 96
0000
1300
2002
0000
,  // measure 97
0000
0000
0000
0000
,  // measure 98
0000
0000
0000
0000
,  // measure 99
0000
0000
0000
0000
,  // measure 100
0000
0000
0000
0000
,  // measure 101
0000
0000
0000
0000
,  // measure 102
3003
0000
0000
0000
;

//---------------dance-single - ----------------
#NOTES:
     dance-single:
     :
     Medium:
     10:
     0.543,0.586,0.503,0.162,0.000: // measure 1
0002
0000
0000
0000
0013
0100
0000
1000
,  // measure 2
0000
0010
0000
0010
0000
0100
0000
0100
,  // measure 3
0000
0001
0000
0001
0000
0010
0000
0100
,  // measure 4
0000
1000
0000
0001
0010
0001
0010
0000
,  // measure 5
0100
0000
1000
0000
0001
0100
0001
0000
,  // measure 6
1000
0000
0100
0000
0010
0100
0010
0000
,  // measure 7
0001
0100
0010
0000
0100
0010
1000
0000
,  // measure 8
0001
0001
1000
1000
,  // measure 9
0220
0000
0000
0000
,  // measure 10
0000
0000
0000
0000
,  // measure 11
0000
0000
0000
0000
,  // measure 12
0000
0000
0000
0000
,  // measure 13
0000
0000
0000
0000
,  // measure 14
0000
0000
0000
0000
,  // measure 15
0000
0000
0330
0000
,  // measure 16
0000
0000
1000
0100
,  // measure 17
0010
0100
1000
1000
,  // measure 18
0010
0010
0100
0001
,  // measure 19
0010
0100
1000
1000
,  // measure 20
0001
0000
0100
0001
,  // measure 21
0100
0010
1000
1000
,  // measure 22
0100
0100
0010
0001
,  // measure 23
0010
0100
1000
0010
,  // measure 24
0100
0000
0100
0000
1001
0000
0001
0100
,  // measure 25
0001
0000
1000
0100
0000
0010
0000
0001
,  // measure 26
0100
0100
0001
0010
,  // measure 27
1000
0000
0010
0000
0001
1000
0010
1000
,  // measure 28
0001
0000
1000
1100
,  // measure 29
0010
0000
0001
0100
0000
0010
0000
1000
,  // measure 30
0100
0000
0010
0000
1001
0000
0001
0100
,  // measure 31
0001
0000
1000
0000
0100
1000
0100
1000
,  // measure 32
0001
0100
0001
0000
2000
0000
0000
0000
,  // measure 33
3002
0000
1003
1001
,  // measure 34
0001
1001
0200
0000
,  // measure 35
0320
0000
0130
0110
,  // measure 36
0010
0110
2000
0000
,  // measure 37
3002
0000
1003
1001
,  // measure 38
0001
1001
0200
0000
,  // measure 39
0320
0000
0130
0110
,  // measure 40
0010
0110
1010
0000
,  // measure 41
1010
0000
1000
1001
,  // measure 42
0001
1001
1100
0000
,  // measure 43
1100
0000
1000
1001
,  // measure 44
0001
0000
1001
0000
1000
0010
0100
0000
,  // measure 45
0010
0100
0010
0000
1000
0001
1000
0001
,  // measure 46
1000
0000
1001
0000
0001
0010
0100
0000
,  // measure 47
0010
0100
0010
0000
0100
0000
1000
0000
,  // measure 48
0010
0000
1001
0000
1000
0100
0010
0000
,  // measure 49
0001
0010
0001
0000
1001
0000
1001
0000
,  // measure 50
1100
0000
1100
0000
0010
0001
0100
0000
,  // measure 51
0010
0100
0010
0000
1001
0000
1001
0000
,  // measure 52
0010
0010
0010
0000
0001
0010
0100
0000
,  // measure 53
1000
0100
1000
0000
1001
0000
1001
0000
,  // measure 54
0101
0000
0101
0000
0010
1000
0001
0000
,  // measure 55
0010
0001
0010
0000
1001
0000
1001
0000
,  // measure 56
0200
0000
1300
0000
0010
0001
0100
0000
,  // measure 57
0010
0100
0010
0000
1001
0000
1001
0000
,  // measure 58
1010
0000
1010
0000
0100
0001
0010
0000
,  // measure 59
0100
0010
0100
0000
1000
0001
0100
0001
,  // measure 60
1000
0000
1001
1100
,  // measure 61
0010
0001
0100
0000
0010
1000
0010
1000
,  // measure 62
0001
1001
1100
1001
,  // measure 63
0001
0010
0100
0000
2020
0000
0000
0000
,  // measure 64
0000
0000
3030
0000
0010
0100
0010
0100
,  // measure 65
0001
0000
0001
0000
0100
0010
0100
0010
,  // measure 66
1000
0000
1000
0000
0100
0010
0100
0010
,  // measure 67
0001
0000
0001
0000
0000
1001
0000
1001
,  // measure 68
0000
0000
0110
0000
0100
1000
0100
1000
,  // measure 69
0001
0000
0001
0000
0010
0001
0010
0001
,  // measure 70
1000
0000
1000
0000
0010
0100
0010
0100
,  // measure 71
0001
0001
0200
0010
,  // measure 72
0010
0000
0310
0000
1000
0001
1000
0001
,  // measure 73
0010
0000
0010
0000
0001
1000
0001
1000
,  // measure 74
0100
0000
0100
0000
0010
0001
0010
0001
,  // measure 75
0100
0000
0100
0000
0000
1001
0000
1001
,  // measure 76
0000
0000
0110
0000
0010
1000
0010
1000
,  // measure 77
0001
0000
0001
0000
0010
0100
0010
0100
,  // measure 78
1000
0000
1000
0000
0001
0100
0001
0100
,  // measure 79
0010
0010
2002
0000
,  // measure 80
0000
0000
3003
0000
0011
0000
0010
0001
,  // measure 81
0100
0000
0010
1000
0000
0100
0000
1000
,  // measure 82
0010
0000
0010
0000
1001
0000
1000
0100
,  // measure 83
0010
0110
0001
0001
,  // measure 84
1000
0000
1000
0000
1001
0000
0001
0010
,  // measure 85
0100
0000
1000
0001
0000
0100
0000
0001
,  // measure 86
1000
0000
1000
0000
1010
0000
0010
0100
,  // measure 87
0001
1001
2000
0010
,  // measure 88
3010
0000
1001
0001
,  // measure 89
1001
0000
1000
0000
1001
0000
0001
1000
,  // measure 90
0001
1000
0100
0000
1001
0000
0001
0000
,  // measure 91
1001
0000
1000
0000
0100
1000
0100
1000
,  // measure 92
0010
0000
0000
0000
1001
0000
0001
0100
,  // measure 93
0010
0000
0100
0001
0000
0010
0000
0100
,  // measure 94
1000
0000
1001
0000
0001
0100
0001
0100
,  // measure 95
0010
1000
0010
0200
0000
0000
0000
0000
,  // measure 96
0000
0310
2002
0000
,  // measure 97
0000
0000
0000
0000
,  // measure 98
0000
0000
0000
0000
,  // measure 99
0000
0000
0000
0000
,  // measure 100
0000
0000
0000
0000
,  // measure 101
0000
0000
0000
0000
,  // measure 102
3003
0000
0000
0000
;

//---------------dance-single - ----------------
#NOTES:
     dance-single:
     :
     Hard:
     14:
     0.697,0.742,0.627,0.209,0.039:
1000
0100
1000
0000
0001
0100
0001
2000
,
0000
3200
0000
0302
0000
0203
0000
2300
,
0000
3020
0000
0230
0000
0320
0000
2030
,
0000
3002
0000
0013
0010
0010
0100
0000
,
0010
0001
1000
0010
0100
0100
0100
0000
,
0010
1000
0010
1000
0001
0001
0001
1000
,
0001
0000
0100
0000
1000
0000
0100
0000
0001
1000
0001
1000
0001
0000
0100
0000
,
0010
0101
0100
1100
,
2002
0000
0000
0000
,
0000
0000
0000
0000
,
0000
0000
0000
0000
,
0000
0000
0000
0000
,
0000
0000
0000
0000
,
0000
0000
0000
0000
,
0000
0000
3003
0000
,
0000
0000
0000
0000
1000
0000
1000
0100
,
0010
0001
0010
1000
,
0010
0000
0001
0000
0100
0000
0100
0010
,
1000
0000
0100
0000
0001
0000
0100
1000
,
0001
0000
0000
0000
0010
0000
0010
0001
,
1000
0100
0001
0100
,
1000
0000
0001
0000
0010
0000
0010
0100
,
1000
0000
0010
0000
0001
0010
1000
0100
,
0010
0000
0010
0000
1001
0000
0002
0100
,
0103
0000
0010
1000
0100
1000
0000
0010
,
0100
0000
1001
0000
1001
0000
0001
1000
,
0010
1000
0001
0000
1000
0010
0001
0010
,
1000
1100
1001
0101
,
0001
1000
0010
0001
0010
1000
0000
0100
,
0010
0001
0100
0000
1001
0000
1000
0010
,
0100
0000
0101
0000
0001
0100
1000
0100
,
0001
0010
0100
1000
1010
0000
0100
0001
,
0011
0000
0100
1000
0010
0010
0100
0100
,
0010
0000
1001
0000
1100
0000
0010
0001
,
0101
0000
0010
1000
0100
0100
0010
0010
,
0100
0000
1001
0000
0011
0000
0100
1000
,
1010
0000
0100
0001
1000
1000
0010
0010
,
0100
0000
1001
0000
0101
0000
0010
1000
,
1100
0000
0010
0001
1000
1000
0010
0010
,
0100
0000
1001
0000
0011
0000
0100
1000
,
1001
0000
0100
0000
1100
0000
0010
0001
,
0100
0010
0100
0000
1010
0000
0100
0001
,
1001
0000
0100
0000
0101
0000
0010
1000
,
0100
0000
0011
0000
0100
1000
0001
1000
,
0100
1000
0001
1000
0100
0100
0010
0010
,
0100
1000
0010
0000
0100
0001
0010
0001
,
0100
0001
0010
0001
0200
0000
0320
0000
,
0130
0000
1001
0000
1000
0100
1000
0001
,
1000
0100
1000
0010
0110
0000
0101
0000
,
0110
0000
0101
0000
0001
1000
0010
1000
,
0001
0000
0100
0010
0100
0010
0100
0000
0001
0000
0001
0000
0100
0000
0000
0000
,
1001
1000
0001
0001
0010
0001
1000
0001
,
0010
0001
1000
0010
0110
0000
0101
0000
,
1010
0000
1001
0000
1000
0100
0010
0100
,
1000
0000
0010
1000
0010
1000
0010
0000
1000
0000
0100
0000
0010
0000
0000
0000
,
0100
0010
0011
0000
1000
0100
0001
0100
,
1000
0001
0010
0100
0110
0000
1100
0000
,
0011
0000
1001
0000
0001
0010
1000
0010
,
0001
0000
1000
0100
1000
0100
1000
0000
0001
0000
0001
0000
0001
0000
0010
0000
,
0100
0100
0010
0010
0001
0100
1000
0100
,
0001
0010
0001
1000
0010
0100
1000
0100
,
0010
1000
1001
0000
0101
0000
0200
0000
,
0310
1000
0001
0010
2200
0000
0000
0000
,
0000
0000
3300
0000
1000
0010
0001
0010
,
1000
0000
0110
0000
1000
0010
0001
0010
,
1000
0000
0110
0000
1000
0010
0001
0010
,
1000
0000
0110
0000
0000
1001
0000
0110
,
0100
0010
1001
0000
0001
0010
1000
0010
,
0001
0000
0110
0000
0001
0010
1000
0010
,
0001
0000
0110
0000
0001
0010
1000
0010
,
0001
0000
0110
0000
0001
0001
1000
1000
,
0100
0010
1001
0000
0010
0100
1000
0100
,
0010
0000
1001
0000
0100
0010
0001
0010
,
0100
0000
1001
0000
0010
0100
1000
0100
,
0010
0000
1001
0000
0000
1001
0000
0110
,
0100
0010
1001
0000
0010
0100
0001
0100
,
0010
0000
1001
0000
0100
0010
1000
0010
,
0100
0000
1001
0000
0010
0100
0001
0100
,
0010
1001
0202
0000
,
0000
0000
0303
0000
1001
0000
0001
0100
,
0010
0000
1000
0200
0000
0302
0000
0103
,
1000
0000
0100
0010
0001
0000
0100
0001
,
1000
1001
0011
0100
,
0011
0000
0100
0000
1001
0000
1000
0001
,
0100
0000
0001
0200
0000
2300
0000
3100
,
0001
0000
0010
0100
1000
0000
0010
0100
,
0001
1000
0100
0010
0001
0000
0101
0000
,
0100
0000
1001
0000
0200
0000
1300
0100
,
0010
0000
0001
1000
0000
1000
0001
0100
,
0010
0100
0001
0000
1001
0000
1000
0100
,
0010
0000
0011
0000
0001
1000
0010
1000
,
0001
0000
0010
0000
1100
0000
0010
0001
,
1000
0001
0010
0000
0010
0100
1000
0001
,
0100
0000
0100
0000
1001
0001
0100
0001
,
1000
0100
1000
0000
0001
1000
0001
0000
1000
0000
0000
0000
1000
0000
0000
0000
,
1000
0110
0022
0000
,
0000
0000
0000
0000
,
0000
0000
0000
0000
,
0000
0000
0000
0000
,
0000
0000
0000
0000
,
0000
0000
0000
0000
,
0033
0000
0000
0000
;

//---------------dance-single - ----------------
#NOTES:
     dance-single:
     :
     Beginner:
     2:
     0.108,0.185,0.101,0.000,0.000:
0001
0000
0000
0000
,
1000
0000
0000
0000
,
0001
0000
0000
0000
,
1000
0000
0000
0000
,
0010
0000
0100
0000
,
0010
0000
0000
0000
,
0100
0000
0010
0000
,
0100
0000
0000
0000
,
1001
0000
0000
0000
,
0000
0000
0000
0000
,
0000
0000
0000
0000
,
0000
0000
0000
0000
,
0000
0000
0000
0000
,
0000
0000
0000
0000
,
0000
0000
0000
0000
,
0000
0000
0001
0000
,
0000
0000
0000
0000
,
0000
0000
0001
0000
,
0000
0000
0000
0000
,
0000
0000
1000
0000
,
0000
0000
0000
0000
,
0000
0000
1000
0000
,
0000
0000
0001
0000
,
0000
0000
1001
0000
,
0000
0000
0000
0000
,
0000
0000
1000
0000
,
0000
0000
0000
0000
,
0000
0000
0010
0000
,
0000
0000
0000
0000
,
0100
0000
0010
0000
,
0100
0000
0001
0000
,
0000
0000
1001
0000
,
0000
0000
0000
0000
,
0000
0000
1001
0000
,
0000
0000
0000
0000
,
0000
0000
0110
0000
,
0000
0000
0000
0000
,
0000
0000
0110
0000
,
0000
0000
0000
0000
,
0000
0000
0001
0000
,
0000
0000
1000
0000
,
0000
0000
0100
0000
,
0000
0000
1000
0000
,
0000
0000
0001
0000
,
1000
0000
0001
0000
,
1000
0000
0001
0000
,
1000
0000
0001
0000
,
0000
0000
0010
0000
,
0000
0000
0001
0000
,
0000
0000
0010
0000
,
0000
0000
0001
0000
,
0000
0000
0100
0000
,
0000
0000
0010
0000
,
0000
0000
0100
0000
,
0000
0000
0010
0000
,
0000
0000
1000
0000
,
0000
0000
0001
0000
,
0000
0000
1000
0000
,
0000
0000
0100
0000
,
0000
0000
0010
0000
,
0000
0000
0100
0000
,
0000
0000
0010
0000
,
0000
0000
0001
0000
,
0000
0000
1000
0000
,
0000
0000
1000
0000
,
0000
0000
1000
0000
,
0000
0000
1001
0000
,
0000
0000
0001
0000
,
0000
0000
0001
0000
,
0000
0000
0001
0000
,
0000
0000
1001
0000
,
0000
0000
0100
0000
,
0000
0000
0100
0000
,
0000
0000
0100
0000
,
0000
0000
0110
0000
,
0000
0000
0010
0000
,
0000
0000
0010
0000
,
0000
0000
0010
0000
,
0000
0000
0110
0000
,
0000
0000
1000
0000
,
0000
0000
0100
0000
,
0000
0000
1000
0000
,
0000
0000
0001
0000
,
0000
0000
0100
0000
,
0000
0000
0010
0000
,
0000
0000
0100
0000
,
0000
0000
0001
0000
,
0000
0000
1001
0000
,
0000
0000
0000
0000
,
0000
0000
1001
0000
,
0000
0000
0000
0000
,
0000
0000
0010
0000
,
0000
0000
0100
0000
,
0000
0000
0010
0000
,
0000
0000
1000
0000
,
0000
0000
1001
0000
;
