#TITLE:DUB-I-DUB;
#SUBTITLE:(KCP Remix);
#ARTIST:ME & MY;
#TITLETRANSLIT:;
#SUBTITLETRANSLIT:;
#ARTISTTRANSLIT:;
#CREDIT:DigiMindAxel;
#BANNER:DUB-I-DUB (KCP Remix).png;
#BACKGROUND:DUB-I-DUB (KCP Remix)-bg.png;
#LYRICSPATH:DUB-I-DUB (KCP Remix).lrc;
#CDTITLE:Dancemania SPEED.png;
#MUSIC:DUB-I-DUB (KCP Remix).ogg;
#METERTYPE:DDR X;
#OFFSET:-0.498;
#SAMPLESTART:45.614;
#SAMPLELENGTH:12.000;
#SELECTABLE:YES;
#BPMS:0.000=170.100;
#STOPS:;
#BGCHANGES:;

//---------------dance-single - ----------------
#NOTES:
     dance-single:
     :
     Easy:
     6:
     0.282,0.304,0.173,0.000,0.000:
0000
0000
0000
0000
,
0000
0000
0000
0000
,
0000
0000
0000
0000
,
0000
0000
0000
0000
,
1001
0000
0000
0000
,
0000
0000
0000
0000
,
1001
0000
1000
0000
,
0001
1000
0001
1000
,
0100
0010
0100
0000
,
1000
0010
1000
0000
,
0001
1000
0001
0000
,
0010
0001
0100
0100
,
0010
0100
0010
0000
,
1000
0010
1000
0000
,
0001
1000
0001
0000
,
0010
0001
0100
0010
,
1000
0000
1000
0000
,
0001
1000
0100
0000
,
0010
0000
0010
0000
,
0001
0000
0001
0000
,
0100
0010
1000
0000
,
0010
0000
0100
0000
,
0001
1000
0001
1000
,
0001
0010
0100
1000
,
0010
0100
0010
0000
,
1000
0010
0100
0000
,
0010
0100
0010
0000
,
1000
0010
0100
0001
,
1000
0100
1000
0000
,
0001
1000
0100
0000
,
0010
0001
0010
0000
,
0001
1000
0010
0100
,
0001
0001
1001
0000
,
1000
1000
1001
0000
,
0001
0001
1001
0000
,
0100
0010
0100
0001
,
1000
1000
1001
0000
,
0001
0001
1001
0000
,
1000
1000
1001
0000
,
0100
1000
0010
0100
,
0010
0010
0110
0000
,
0100
0100
0110
0000
,
0001
0001
1001
0000
,
1000
0100
1000
0010
,
0100
0000
0100
0000
,
0100
0000
0100
0001
,
0010
0000
0000
0000
,
0000
0000
0000
0000
,
0100
0000
0000
0000
,
1000
0001
1000
0000
,
0001
0010
0000
0001
,
1000
0100
0000
1000
,
0001
0010
0000
0001
,
1000
0010
0100
0001
,
0010
0100
0000
0010
,
0001
1000
0000
0010
,
0100
0001
0000
0100
,
0001
1000
0100
1000
,
0100
0000
0000
0000
,
0000
0000
0000
0000
,
1001
0000
0100
0000
,
0010
0000
0001
0010
,
0100
0000
0010
0000
,
0001
0000
0000
0000
,
0110
0000
0010
0000
,
1000
0000
0001
0010
,
0100
0000
0010
0000
,
0001
0100
0001
0100
,
0010
0010
0110
0000
,
1000
1000
1001
0000
,
0001
0001
1001
0000
,
1000
0100
0010
0001
,
0100
0100
0110
0000
,
1000
1000
1001
0000
,
0001
0001
1001
0000
,
1000
0010
0100
0001
,
1000
0000
1000
0000
,
0010
0000
0100
0001
,
1001
0000
0000
0000
;

//---------------dance-single - ----------------
#NOTES:
     dance-single:
     :
     Medium:
     11:
     0.509,0.506,0.519,0.000,0.000:
0000
0000
0000
0000
,
0000
0000
0000
0000
,
0000
0000
0000
0000
,
0000
0000
0000
0000
0000
0000
0000
1000
,
0010
0000
0000
0000
,
0000
0000
0000
0000
0000
0000
0000
0001
,
0010
0000
0010
0000
,
1001
0000
1001
0000
0001
0010
0000
0100
,
1000
0010
0100
0000
0000
0001
0000
0000
,
1000
0010
0100
0000
0000
0001
0000
0000
,
0010
0100
1000
0000
0000
0010
0000
0000
,
1000
0100
0010
0000
0001
1000
0000
1000
,
0001
0010
0100
0000
0000
1000
0000
0000
,
0001
0010
0100
0000
0000
1000
0000
0000
,
0010
0100
0001
0000
0000
0010
0000
0000
,
0001
0100
0010
0000
1000
0001
1000
0001
,
1000
1100
1000
1100
,
0010
0110
0010
0110
,
0001
0101
0001
0101
,
0010
0000
0110
0000
1000
0010
0100
0000
,
1001
0001
0101
0001
,
0101
0010
0110
0010
,
0110
1000
1100
1000
,
1100
0000
1001
0000
0001
0010
0100
1000
,
0001
0000
0100
0001
0000
0100
0001
0000
,
1000
0100
1000
0000
0001
0100
0001
0000
,
1000
0000
0100
1000
0000
0100
1000
0000
,
1001
0000
0100
0000
0010
0001
0010
0001
,
0100
0110
0100
0110
,
1000
1010
1000
1010
,
1001
0000
0010
0000
0100
0000
1000
0001
,
0000
1000
0010
0000
1000
0001
1000
0001
,
1000
0100
1000
0000
1001
0000
1001
0000
,
0001
0010
0001
0000
1001
0000
1001
0000
,
0010
0100
0010
0000
1001
0000
1001
0000
,
0100
0010
0100
0000
0001
1000
0000
1000
,
0001
0010
0001
0000
1001
0000
1001
0000
,
1000
0100
1000
0000
1001
0000
1001
0000
,
0100
0010
0100
0000
1001
0000
1001
0000
,
0010
0100
0010
0000
1000
0100
0010
0001
,
1000
0010
1000
0000
1001
0000
1001
0000
,
0001
0100
0001
0000
1001
0000
1001
0000
,
0010
0100
0010
0000
1001
0000
1001
0000
,
0010
0100
0010
0000
0100
0001
1000
0000
,
1100
0010
0001
0010
,
0100
0000
1000
0000
0001
0100
0010
1000
,
0100
0010
0000
0010
0000
0010
0000
0010
,
0000
0010
0000
0010
0000
0010
0000
0010
,
0001
0100
0000
0100
0000
0100
0000
0100
,
0010
0000
0010
0000
1000
0100
0010
0001
,
1000
0010
0100
0000
0000
0001
0000
0001
,
1000
0100
0010
0000
0000
0100
0000
0100
,
1000
0001
0010
0000
0000
0100
0000
0100
,
1000
0001
0100
0000
0001
0100
0010
1000
,
0001
0010
0100
0000
0000
1000
0000
1000
,
0001
0100
0010
0000
0000
1000
0000
1000
,
0001
0010
0100
0000
0000
0010
0000
0010
,
0100
1000
0010
0000
1000
0100
0010
0001
,
1000
0000
0000
0000
,
0001
0000
0010
0000
0100
0010
0001
1000
,
0010
0000
1001
0000
,
0011
0000
1100
0010
,
1001
0000
1100
0000
,
0110
0000
0010
0001
,
1001
0000
1100
0000
,
0110
0000
1001
0010
,
1100
0000
0110
0000
,
0011
0011
1100
1100
,
1000
0010
1000
0010
0100
0100
0100
0000
,
0001
1000
0001
1000
0100
0000
1100
0000
,
0010
0001
0010
0001
0100
0100
0100
0000
,
0010
1000
0001
0000
0010
0000
0100
0000
,
0010
0001
0010
0001
0100
0100
0100
0000
,
0010
1000
0010
1000
0001
0000
1001
0000
,
0100
1000
0100
1000
0010
0010
0010
0000
,
0100
0001
1000
0000
0100
0000
0010
0000
,
0001
1000
0000
1000
0000
1000
0000
1000
,
0010
0100
0000
0100
0001
0010
0100
1000
,
0010
0000
0000
0000
;

//---------------dance-single - ----------------
#NOTES:
     dance-single:
     :
     Hard:
     13:
     0.617,0.608,0.796,0.000,0.043: // measure 1
0000
0000
0000
0000
,  // measure 2
0000
0000
0000
0000
,  // measure 3
0000
0000
0000
0000
,  // measure 4
0000
0000
0000
0000
0000
0000
0000
1000
,  // measure 5
0001
0100
0000
0100
0000
0100
0000
0100
,  // measure 6
0000
0100
0000
0100
0000
0100
0000
0010
,  // measure 7
1000
0001
0000
0001
1000
0010
0000
0010
,  // measure 8
1001
0000
1001
0000
1000
1000
0000
1000
,  // measure 9
0001
1000
0010
0000
0000
1010
0000
1000
,  // measure 10
0001
0010
0100
0000
0000
0110
0000
0100
,  // measure 11
0010
0001
1000
0000
0000
1001
0000
1000
,  // measure 12
0100
0010
0001
0000
1000
0100
0000
0001
,  // measure 13
0100
1000
0010
0000
0000
0110
0000
0100
,  // measure 14
0001
0010
0100
0000
0000
1010
0000
0010
,  // measure 15
1000
0100
0010
0000
0000
0011
0000
0001
,  // measure 16
0100
0000
0000
0100
0000
0000
0010
0000
1000
0000
0100
0000
0010
0000
0001
0000
,  // measure 17
0100
0001
0101
0000
0010
1000
1100
0000
,  // measure 18
0100
0001
0101
0000
1010
0000
0101
0000
,  // measure 19
0010
1000
0100
0010
0001
0100
0010
1000
,  // measure 20
0100
0010
0001
0100
0010
1000
1000
0000
,  // measure 21
0010
0100
1001
0000
1000
0001
0110
0000
,  // measure 22
1000
0010
0010
0000
0100
0001
0001
0000
,  // measure 23
0010
0001
0100
0010
1000
0100
0010
0001
,  // measure 24
0100
0010
1000
0100
0010
0001
1000
1000
,  // measure 25
0001
1100
1000
0101
,  // measure 26
0001
1000
1000
0100
1000
0001
0001
0000
,  // measure 27
0010
0001
0001
0000
0100
1000
1000
0000
,  // measure 28
0010
1001
0010
1001
,  // measure 29
1100
0000
0010
0001
0101
0000
0010
1000
,  // measure 30
0100
0100
0010
0001
0100
0000
0010
1000
,  // measure 31
0001
0010
1100
0010
,  // measure 32
0101
0000
1010
0000
1000
0100
0010
0001
,  // measure 33
0110
0000
1001
0000
1100
0001
0001
0000
,  // measure 34
1001
0000
0110
0000
0011
1000
1000
0000
,  // measure 35
0101
0000
0101
0000
1100
0001
0100
0000
,  // measure 36
0110
0000
1001
0000
0110
0001
0000
1000
,  // measure 37
0110
0000
1001
0000
0110
0001
0100
0000
,  // measure 38
1001
0000
0110
0000
1100
0001
0100
0000
,  // measure 39
0101
0000
0101
0000
0010
1000
1100
0000
,  // measure 40
0110
0000
1001
0000
0010
1000
0100
0010
,  // measure 41
1001
0000
0110
0000
1001
0010
0100
0000
,  // measure 42
1100
0000
1100
0000
0010
0001
0101
0000
,  // measure 43
1001
0000
0110
0000
1100
0001
0100
0000
,  // measure 44
0101
0000
0101
0000
0010
0100
0010
0100
,  // measure 45
0010
1000
0001
0010
1000
0001
0010
0100
,  // measure 46
0001
1000
0100
0001
1000
0100
0010
1000
,  // measure 47
0001
0010
0000
0010
0000
0010
0000
0010
,  // measure 48
0000
0100
0000
0100
0000
0100
0000
0100
,  // measure 49
1000
0001
0000
0001
0000
0001
0000
0001
,  // measure 50
0100
0001
0100
0001
1000
0100
0010
0001
,  // measure 51
1000
0001
0100
0000
0000
0101
0000
0100
,  // measure 52
0001
0010
0100
0000
0000
0110
0000
0010
,  // measure 53
0100
1000
0001
0000
0000
1001
0000
0001
,  // measure 54
1000
0100
0010
0000
0001
0001
0100
0100
,  // measure 55
0010
1000
0001
0000
0000
0101
0000
0100
,  // measure 56
0010
1000
0001
0000
0000
0011
0000
0010
,  // measure 57
0100
1000
0001
0000
0000
0110
0000
0100
,  // measure 58
0001
0010
0100
0000
1000
1000
0010
0010
,  // measure 59
0100
0000
0000
0000
,  // measure 60
0100
0000
0001
0000
0100
1000
0100
0001
,  // measure 61
0010
0000
1000
0000
,  // measure 62
0010
0000
0000
0000
0000
0000
0000
0001
1000
0000
0000
0000
0001
0000
0000
1000
,  // measure 63
0010
0000
0000
0000
1000
0000
0000
0001
0010
0000
0000
0000
0100
0000
0000
1000
,  // measure 64
0010
0000
0000
0000
0100
0000
0000
0100
0001
0000
0000
0010
0100
0000
0000
0000
,  // measure 65
1000
1000
0001
0001
,  // measure 66
1001
0000
0000
0000
0100
0000
0000
0010
0100
0000
0000
0000
1000
0000
0000
0100
,  // measure 67
1000
0000
0000
0000
0001
0000
0000
0100
0001
0000
0000
0000
1000
0000
0000
0000
,  // measure 68
1100
1100
0110
0110
,  // measure 69
1001
0000
0110
0000
0100
1000
0101
0000
,  // measure 70
1001
0000
0110
0000
0100
0001
1100
0000
,  // measure 71
0101
0000
1001
0000
1000
0010
0101
0000
,  // measure 72
0110
0000
1001
0000
0100
0001
0010
0100
,  // measure 73
1001
0000
0011
0000
1100
0001
0100
0000
,  // measure 74
1001
0000
1010
0000
0101
0010
0100
0000
,  // measure 75
1001
0000
0011
0000
1100
0010
0100
0000
,  // measure 76
1001
0000
1100
0000
0011
0100
1000
0010
,  // measure 77
0100
0001
0000
0001
0000
0001
0000
0001
,  // measure 78
1000
0100
0001
1000
0100
0010
1000
0001
,  // measure 79
0100
0000
0000
0000
;

//---------------dance-single - ----------------
#NOTES:
     dance-single:
     :
     Challenge:
     15:
     0.775,0.776,0.545,0.043,0.402:
0000
0000
0000
0000
,
0000
0000
0000
0000
,
0000
0000
0000
0000
,
0000
0000
0000
0000
0000
0000
0000
1000
,
0001
0000
0100
0000
0000
0100
0000
0000
0001
0000
0000
0001
0000
0000
1000
0000
,
0000
0000
0100
0000
0000
0100
0000
0000
0010
0000
0000
0010
0000
0000
0001
0000
,
0100
0000
0010
0000
0000
0010
0000
0000
1000
0000
0000
1000
0000
0000
0001
0000
,
0011
0000
0000
0000
0011
0000
0000
0000
0011
0000
0100
0000
1000
0001
1000
0001
,
1000
0010
0110
0000
0000
0101
0000
0100
,
0001
0010
1100
0000
0000
1001
0000
0001
,
1000
0100
0011
0000
0000
0110
0000
0100
,
0010
0000
1000
0000
1100
0000
0000
0000
0010
0001
0010
0001
0100
0010
0100
0010
,
0100
0001
1001
0000
0000
1010
0000
0010
,
0100
0001
0110
0000
0000
1010
0000
1000
,
0010
0100
0101
0000
0000
1001
0000
1000
,
0001
0000
0100
0001
0000
1000
0100
0000
0010
0001
0010
0001
0100
0010
0100
0010
,
1000
0100
0010
0100
1000
0001
0100
0001
,
1000
0100
0010
0100
1000
0001
0100
0010
,
1000
0000
0001
1000
0100
0001
1000
0010
,
0001
0000
1000
0000
0010
0000
0100
0000
0001
0100
0001
0000
1000
0000
0000
0000
,
0001
0100
0010
0100
0001
1000
0100
1000
,
0001
0010
0100
0010
0001
0100
0010
0100
,
0001
0000
1000
0001
0100
1000
0001
0010
,
1000
0000
0001
0000
0100
0000
0010
0000
1000
0001
1000
0001
0010
0001
0010
0001
,
1000
0000
0010
0100
0001
0100
0010
0100
,
0100
0001
0001
1000
0000
0100
0010
0001
,
1000
0010
0100
0010
1000
0001
0010
0001
,
1000
0000
0100
0000
0010
0000
0000
0001
0100
0000
0010
0000
1000
0000
1000
0000
,
1000
0010
0100
0001
0100
0010
0100
0001
,
0001
1000
1000
0001
0000
0010
0100
1000
,
0100
0010
0100
1000
0001
0000
0100
0010
,
1001
0000
1001
0000
1001
0100
0010
0001
,
1000
0000
0010
1000
0000
0010
1000
0001
0010
0000
0001
0000
0011
0000
0000
0000
,
0100
0000
1000
0001
0000
1000
0001
0100
0001
0000
0100
0000
0010
0000
0000
0000
,
1000
0000
0010
0100
0000
0010
0100
0001
0010
0000
0001
0000
0011
0000
0000
0000
,
1000
0000
0100
0000
0010
0000
0001
1000
0001
0000
0110
0000
0000
0000
0110
0000
,
1000
0000
0010
1000
0000
0010
1000
0001
0010
0000
0001
0000
0011
0000
0000
0000
,
0100
0000
1000
0010
0000
1000
0010
0100
0010
0000
0100
0000
1001
0000
0000
0000
,
0001
0000
0100
0010
0000
0100
0010
1000
0100
0000
1000
0000
1100
0000
0000
0000
,
0001
0000
0010
0000
0100
0000
1000
0000
0001
0100
0001
0100
0010
0100
0010
0100
,
0001
0000
1000
0100
0000
1000
0100
0010
0100
0000
0010
0000
0011
0000
0000
0000
,
0100
0000
1000
0010
0000
1000
0010
0100
0001
0000
1000
0000
1100
0000
0000
0000
,
0010
0000
0001
0100
0000
0001
0100
0010
1000
0000
0001
0000
0011
0000
0000
0000
,
1000
0100
0010
0001
1000
0010
0010
0010
,
2000
0000
0001
0000
0000
0000
0001
0000
0000
0000
3001
0000
0000
0000
1000
0100
,
1000
0000
0010
0000
0100
0000
0010
0000
0100
0001
0100
0001
1000
0100
1000
0100
,
0010
0001
0000
0001
0000
0001
0100
0100
,
0100
0010
0000
0010
0000
0010
1000
1000
,
1000
0001
0000
0001
0000
0001
0000
0001
,
1000
0000
0100
0000
0001
0000
0100
0000
1000
0001
1000
0001
0010
0001
0010
0001
,
1000
0100
0010
0000
0001
0101
0000
1010
,
0100
0010
0001
0000
1000
1100
0000
0011
,
0100
1000
0001
0000
0100
0110
0000
1010
,
0100
0010
0001
0000
0110
0110
1001
1001
,
1000
0100
0010
0000
0001
0101
0000
1010
,
0100
0010
0001
0000
0100
0110
0000
1001
,
0010
0100
1000
0000
0010
1010
0000
0101
,
0010
0100
1000
0000
0110
0110
1001
1001
,
0001
0010
0100
0000
0000
1000
0000
1000
,
0001
0010
0100
0000
1010
1010
0101
0101
,
2001
0000
3020
0000
,
0130
0000
0000
0000
0001
0100
0010
1000
,
0200
0000
0320
0000
,
0031
0000
0000
0000
0000
1000
0001
0000
,
1000
0001
0100
0000
0001
1000
0100
0000
,
1000
0100
0010
0000
0001
0100
0010
0100
,
0001
0010
0100
1000
0010
0100
0010
1000
,
0001
0000
0100
0000
1000
0000
0100
0000
0001
0010
0001
0010
0100
1000
0100
1000
,
0010
0000
0100
0001
0000
0100
0001
1000
0100
0000
1000
0000
1001
0000
0000
0000
,
0001
0000
0100
0010
0000
0100
0010
1000
0100
0000
0010
0000
1001
0000
0000
0000
,
1000
0000
0001
0010
0000
0001
0010
0100
1000
0000
0010
0000
1010
0000
0000
0000
,
0001
0000
0010
0000
0100
0000
1000
0001
1000
0000
0110
0000
0000
0000
0110
0000
,
0001
0000
0100
0010
0000
0100
0010
1000
0100
0000
1000
0000
1001
0000
0000
0000
,
0001
0000
0010
0100
0000
0010
0100
1000
0010
0000
0100
0000
0101
0000
0000
0000
,
0010
0000
1000
0100
0000
1000
0100
0010
0001
0000
0100
0000
0101
0000
0000
0000
,
1000
0100
0010
0001
1000
0010
0010
0010
,
1001
0000
0100
0000
0010
0000
0001
0000
1000
0000
0100
0000
0010
0000
0001
0100
,
0001
0000
1000
0000
0100
0000
0010
0000
0001
0100
0001
0100
0010
1000
0010
1000
,
0100
0000
0000
0000
;

//---------------dance-single - ----------------
#NOTES:
     dance-single:
     :
     Beginner:
     3:
     0.147,0.270,0.173,0.000,0.000:
0000
0000
0000
0000
,
0000
0000
0000
0000
,
0000
0000
0000
0000
,
0000
0000
0000
0000
,
1000
0000
0000
0000
,
0000
0000
0000
0000
,
1000
0000
1000
0000
,
1000
0000
0000
0000
,
0001
0000
0000
0000
,
0100
0000
0000
0000
,
0001
0000
0000
0000
,
0100
0000
0010
0010
,
0100
0000
0000
0000
,
0010
0000
0000
0000
,
0100
0000
0000
0000
,
0001
0001
1000
0000
,
0100
0000
0000
0000
,
0100
0000
0000
0000
,
0010
0000
0000
0000
,
0010
0000
0000
0000
,
0001
0000
0000
0000
,
0001
0000
0000
0000
,
1000
0000
0000
0000
,
1000
0000
0000
0000
,
0100
0000
1000
0000
,
0100
0000
0000
0000
,
0010
0000
0100
0000
,
0010
0000
0000
0000
,
0001
0000
0001
0000
,
0100
0000
0000
0000
,
0010
0000
0010
0000
,
1000
0000
0000
0000
,
1001
0000
1001
0000
,
1001
0000
0000
0000
,
0110
0000
0110
0000
,
0110
0000
0000
0000
,
1001
0000
1001
0000
,
1001
0000
0000
0000
,
0110
0000
0110
0000
,
0110
0000
0000
0000
,
1001
0000
1001
0000
,
1001
0000
0000
0000
,
0110
0000
0110
0000
,
0110
0000
0000
0000
,
1001
0000
0000
0000
,
0010
0000
0100
0000
,
1000
0000
0000
0000
,
0000
0000
0000
0000
,
1000
0000
0000
0000
,
0000
0000
0000
0000
,
0001
0000
1000
0000
,
0001
0000
1000
0000
,
0100
0000
1000
0000
,
0100
0000
0000
0000
,
0010
0000
0001
0000
,
0010
0000
0001
0000
,
1000
0000
0001
0000
,
1000
0000
0000
0000
,
0010
0000
0000
0000
,
0000
0000
0000
0000
,
1001
0000
0000
0000
,
0100
0000
0000
0000
,
0010
0000
0000
0000
,
0001
0000
0000
0000
,
1000
0000
0000
0000
,
0100
0000
0000
0000
,
0010
0000
0000
0000
,
0001
0000
0000
0000
,
1000
0000
1000
0000
,
1000
0000
0000
0000
,
0001
0000
0001
0000
,
0001
0000
0000
0000
,
0100
0000
0010
0000
,
0100
0000
0000
0000
,
0001
0000
1000
0000
,
0001
0000
0000
0000
,
0010
0000
0100
0000
,
0010
0000
0100
0000
,
1000
0000
0000
0000
;
