#TITLE:DRUNK MONKY;
#SUBTITLE:;
#ARTIST:DJ ODDBALL;
#TITLETRANSLIT:;
#SUBTITLETRANSLIT:;
#ARTISTTRANSLIT:;
#CREDIT:DigiMindAxel;
#BANNER:DRUNK MONKY.png;
#BACKGROUND:DRUNK MONKY-bg.png;
#LYRICSPATH:;
#CDTITLE:beatmania.png;
#MUSIC:DRUNK MONKY.ogg;
#METERTYPE:DDR X;
#OFFSET:-7.056;
#SAMPLESTART:10.339;
#SAMPLELENGTH:12.000;
#SELECTABLE:YES;
#BPMS:0.000=145.000;
#STOPS:;
#BGCHANGES:;

//---------------dance-single - ----------------
#NOTES:
     dance-single:
     :
     Beginner:
     5:
     0.214,0.235,0.074,0.000,0.000: // measure 1
1000
1000
1000
1000
,  // measure 2
0001
0001
0001
0001
,  // measure 3
1000
1000
1000
1000
,  // measure 4
0010
0010
0010
0010
,  // measure 5
0100
0100
0100
0100
,  // measure 6
0001
1000
0001
1000
,  // measure 7
0010
0010
0100
0100
,  // measure 8
0110
0000
0000
0000
,  // measure 9
1001
0000
0010
0000
,  // measure 10
0010
0000
0100
0000
,  // measure 11
0100
0000
0001
0000
,  // measure 12
1000
0000
0001
0000
,  // measure 13
1001
0000
1000
0000
,  // measure 14
0010
0000
0100
0000
,  // measure 15
1001
0000
0010
0000
,  // measure 16
0110
0000
0000
0010
,  // measure 17
0010
0000
1000
0000
,  // measure 18
0001
0000
1000
0001
,  // measure 19
0001
0000
0010
0000
,  // measure 20
0100
0000
0000
0000
,  // measure 21
1000
1000
1000
0000
,  // measure 22
0001
0001
0001
0000
,  // measure 23
0010
0010
0010
0000
,  // measure 24
0100
0000
0000
0000
,  // measure 25
1000
0000
0001
0000
,  // measure 26
0100
0000
0010
0000
,  // measure 27
0100
0000
0001
0000
,  // measure 28
1000
0000
0100
0000
,  // measure 29
0010
0000
0001
0000
,  // measure 30
0010
0000
0001
0000
,  // measure 31
1000
0000
0100
0000
,  // measure 32
1000
1000
0001
0001
,  // measure 33
0010
0010
0100
0100
,  // measure 34
1000
1000
0010
0010
,  // measure 35
0100
0100
0001
0001
,  // measure 36
1000
0000
0000
0000
,  // measure 37
0001
0001
0100
0000
,  // measure 38
0010
0100
0100
0000
,  // measure 39
0010
1000
0100
0000
,  // measure 40
0010
0100
1000
1000
,  // measure 41
0001
0010
0100
0000
,  // measure 42
0010
0001
1000
0000
,  // measure 43
0010
0010
1001
0000
;

//---------------dance-single - ----------------
#NOTES:
     dance-single:
     :
     Medium:
     11:
     0.503,0.501,0.147,0.135,0.098: // measure 1
0001
0010
0001
0000
1000
0100
1000
0000
,  // measure 2
0001
0010
0001
0000
1000
0100
1000
0000
,  // measure 3
0001
0100
0001
0000
1000
0010
1000
0000
,  // measure 4
0001
0100
0001
0000
1000
0010
1000
0000
,  // measure 5
0001
0100
0010
0000
0100
0010
1000
0000
,  // measure 6
0001
0010
0100
0000
0100
0010
0001
0000
,  // measure 7
1000
0100
0010
0000
0010
0100
1000
0000
,  // measure 8
0010
0100
0010
0100
0010
0100
0010
0100
,  // measure 9
0001
0000
0010
0000
0001
0000
0010
0000
0001
0000
0000
0001
0000
0000
0001
0000
,  // measure 10
0100
0000
0010
0000
1000
0000
0100
0000
1000
0000
0000
1000
0000
0000
1000
0000
,  // measure 11
0010
0000
0100
0000
0001
0000
0010
0000
0001
0000
0000
0001
0000
0000
0001
0000
,  // measure 12
1000
0000
0100
0000
1000
0000
0010
0000
0100
0000
0000
0100
0000
0000
0100
0000
,  // measure 13
0001
0000
0010
0000
0001
0000
0010
0000
0100
0000
0000
0100
0000
0000
0100
0000
,  // measure 14
1000
0000
0010
0000
1000
0000
0100
0000
0010
0000
0000
0010
0000
0000
0010
0000
,  // measure 15
0001
0000
1000
0000
0100
0000
1000
0000
0010
0000
0000
0010
0000
0000
0010
0000
,  // measure 16
0100
0001
0010
0001
0100
0000
1001
0000
,  // measure 17
1001
0000
1000
0010
0100
0001
0100
0000
,  // measure 18
1000
0000
0100
0000
0001
0010
0100
0000
,  // measure 19
1001
0000
0010
0000
0100
0001
1000
0000
,  // measure 20
2002
0000
0000
3003
,  // measure 21
0100
0000
0010
0000
1000
0000
0100
0000
1000
0000
0000
1000
0000
0000
0000
0000
,  // measure 22
0010
0000
0100
0000
0001
0000
0010
0000
0001
0000
0000
0001
0000
0000
0000
0000
,  // measure 23
0010
0000
0100
0000
1000
0000
0010
0000
1000
0000
0000
1000
0000
0000
0000
0000
,  // measure 24
0100
0000
1000
0000
0000
1000
0000
0000
0010
0000
0100
0000
0000
0001
0000
0000
,  // measure 25
0010
0001
0200
0000
0310
1000
0200
0000
,  // measure 26
1300
0010
0200
0000
0310
0100
0002
0000
,  // measure 27
0103
0010
2000
0000
3100
1000
0020
0000
,  // measure 28
0130
0001
0020
0000
0031
0100
0010
0000
,  // measure 29
0000
1000
0100
0000
0000
1000
0100
0000
,  // measure 30
0000
0010
0001
0000
0000
0010
0001
0000
,  // measure 31
0000
1000
0010
0000
0000
0100
0001
0000
,  // measure 32
1000
0100
0010
0000
0100
0010
0100
0000
,  // measure 33
1000
0001
0010
0000
0001
0010
0001
0000
,  // measure 34
1000
0001
0100
0000
0001
0100
0001
0000
,  // measure 35
1000
0100
0010
0000
0100
0010
0100
0000
,  // measure 36
1000
0000
1000
0000
1000
0000
0001
0000
0001
0000
0001
0000
,  // measure 37
1000
0100
0010
0001
0100
0010
1000
1100
,  // measure 38
0010
0001
0100
0010
0100
0010
0100
0101
,  // measure 39
0010
0100
0010
1000
0100
1000
0001
0011
,  // measure 40
0100
1000
0010
0100
0010
1001
0000
1001
,  // measure 41
0100
0010
1000
0100
0010
0001
1000
1010
,  // measure 42
0100
0001
0100
0010
0100
0001
0100
0110
,  // measure 43
1000
1000
0001
0001
2002
0000
0000
0000
,  // measure 44
3003
0000
0000
0000
;

//---------------dance-single - ----------------
#NOTES:
     dance-single:
     :
     Hard:
     13:
     0.613,0.633,0.393,0.049,0.252: // measure 1
1000
0100
1000
0000
0001
0010
0001
0000
,  // measure 2
1000
0100
1000
0000
0001
0010
0001
1001
,  // measure 3
1000
0010
1000
0000
0001
0100
0001
0000
,  // measure 4
1000
0010
1000
0000
0001
0100
0001
0000
,  // measure 5
1001
0010
0100
0000
0010
0100
0001
0000
,  // measure 6
1000
0100
0010
0000
0010
0100
1000
1001
,  // measure 7
0001
0010
0100
0000
0100
0010
0001
0000
,  // measure 8
0100
0010
0100
0010
0100
0010
0100
0010
,  // measure 9
1000
0000
0100
0000
1000
0000
0100
0000
1000
0000
0000
0010
0100
0000
0100
0000
,  // measure 10
0010
0000
0100
0000
0001
0000
0010
0000
0001
0000
0000
0100
0010
0000
0010
0000
,  // measure 11
1001
0000
0010
0000
0001
0000
0010
0000
0100
0000
0000
1000
0100
0000
0100
0000
,  // measure 12
1000
0000
0100
0000
1000
0000
0010
0000
0100
0000
0000
0010
0100
0000
1001
0000
,  // measure 13
0001
0000
0010
0000
0001
0000
0010
0000
0100
0000
0000
1000
0100
0000
0100
0000
,  // measure 14
1000
0000
0010
0000
1000
0000
0100
0000
0010
0000
0000
0001
0100
0000
0100
0000
,  // measure 15
1001
0000
1000
0000
0100
0000
1000
0000
0010
0000
0000
0100
0010
0000
0010
0000
,  // measure 16
1001
0001
0010
0001
1000
0100
0011
0000
,  // measure 17
0011
0000
0100
0000
1000
0000
0001
0000
0100
0000
0000
0001
0100
0000
0100
0000
,  // measure 18
0001
0010
0100
1000
0001
0010
1100
0000
,  // measure 19
1100
0000
0010
0000
0001
0000
1000
0000
0010
0000
0000
1000
0010
0000
0010
0000
,  // measure 20
1000
0001
1000
0001
1000
0001
1000
0001
,  // measure 21
0100
0000
0010
0000
1000
0000
0100
0000
1000
0000
0000
1000
0000
0000
1000
0000
,  // measure 22
0010
0000
0100
0000
0001
0000
0010
0000
0001
0000
0000
0001
0000
0000
0001
0000
,  // measure 23
0010
0000
0100
0000
1000
0000
0010
0000
1000
0000
0000
1000
0000
0000
1000
0000
,  // measure 24
0200
0000
1000
0000
0000
1300
0000
0000
0020
0000
0100
0000
0000
0130
0000
0000
,  // measure 25
0001
0000
0100
0000
0010
0100
0000
0000
0010
0000
0100
0000
0001
0010
0000
0000
,  // measure 26
0001
0000
0010
0000
0001
0100
0000
0000
0010
0000
1000
0000
0010
0100
0000
0000
,  // measure 27
0010
0000
0100
0000
0001
0010
0000
0000
0100
0000
1000
0000
0100
0010
0000
0000
,  // measure 28
0100
0010
0001
0000
0001
0100
0010
0000
,  // measure 29
0100
0010
1000
0000
0100
0010
0001
1000
,  // measure 30
0100
1000
0001
0000
0001
1000
0100
0000
,  // measure 31
0010
0001
1000
0000
1000
0001
0010
0000
,  // measure 32
0001
1000
0100
0010
0001
1000
0001
0000
,  // measure 33
1000
0000
0100
0000
0001
0000
0100
0000
1000
0000
0000
0000
0010
0100
0000
0000
,  // measure 34
0001
0000
0010
0000
1000
0000
0010
0000
0001
0000
0000
0000
0010
0100
0000
0000
,  // measure 35
1000
0000
1000
0010
0000
0010
0100
0000
0100
0001
0000
0000
,  // measure 36
0011
0000
0011
0000
1001
0000
1100
0000
1100
0000
1001
0000
,  // measure 37
0010
0001
0010
0001
0000
0000
1000
0000
0010
0000
0100
0000
0011
0000
0011
0000
,  // measure 38
0100
1000
0100
1000
0000
0000
0001
0000
0010
0000
0100
0000
1010
0000
1010
0000
,  // measure 39
0100
0001
0100
0001
0000
0000
1000
0000
0001
0000
0010
0000
1100
0000
1100
0000
,  // measure 40
0010
0001
0010
0001
0000
0000
0010
0000
0100
0000
1001
0000
0000
0000
1001
0000
,  // measure 41
0010
0100
0010
0100
0000
0000
0001
0000
1000
0000
0010
0000
0101
0000
0101
0000
,  // measure 42
0010
1000
0010
1000
0000
0000
0100
0000
0010
0000
0001
0000
0110
0000
0110
0000
,  // measure 43
1100
1000
1001
0001
0022
0000
0000
0000
,  // measure 44
0033
0000
0000
0000
;

//---------------dance-single - ----------------
#NOTES:
     dance-single:
     :
     Easy:
     7:
     0.380,0.391,0.245,0.025,0.000: // measure 1
0001
0001
0010
0010
,  // measure 2
0001
0001
0100
0100
,  // measure 3
0110
0010
1000
1000
,  // measure 4
0100
0100
1000
1000
,  // measure 5
0110
0010
0100
0100
,  // measure 6
0001
1000
0001
1000
,  // measure 7
0110
0010
0010
0100
,  // measure 8
0001
1000
0001
1000
0001
1000
0001
1000
,  // measure 9
0001
0001
0100
0100
,  // measure 10
0010
0010
1000
1000
,  // measure 11
1001
0000
0001
0000
0100
0010
0100
0000
,  // measure 12
0001
0000
1000
0000
0001
1000
0001
0000
,  // measure 13
1001
0000
1000
0000
0100
1000
0100
0000
,  // measure 14
1000
0000
0001
0000
0010
0001
0010
0000
,  // measure 15
1001
0000
1000
0000
0010
0100
0010
0000
,  // measure 16
1001
0000
0001
0000
0100
0010
0100
0000
,  // measure 17
1001
0000
0001
0000
0010
0100
0010
0000
,  // measure 18
0001
0000
1000
0000
0010
0100
0010
0000
,  // measure 19
1001
0000
1000
0000
0100
1000
0100
0000
,  // measure 20
1000
0001
1000
0001
1000
0001
1000
0001
,  // measure 21
1000
0000
0100
0000
0010
0000
0001
1000
,  // measure 22
0001
0000
0010
0000
0100
0000
1000
0001
,  // measure 23
1000
0000
0010
0000
0100
0000
0001
1000
,  // measure 24
0002
0000
2003
0000
,  // measure 25
3010
0100
0010
0100
,  // measure 26
0001
0010
0001
0010
,  // measure 27
0100
1000
0100
1000
,  // measure 28
0001
1000
0001
1000
,  // measure 29
0010
0100
0010
0100
,  // measure 30
0001
0100
0001
0100
,  // measure 31
0010
1000
0010
1000
,  // measure 32
0001
0001
1000
1000
,  // measure 33
0010
0110
0010
0110
,  // measure 34
0001
1001
0001
1001
,  // measure 35
0100
0110
0100
0110
,  // measure 36
1001
0000
0110
0000
,  // measure 37
1001
0000
1000
0000
0001
0000
0100
0100
,  // measure 38
0001
0000
0010
0000
0100
0000
1000
1000
,  // measure 39
0010
0000
0100
0000
0010
0000
0100
0100
,  // measure 40
0001
0000
0010
0000
0100
1000
0000
0100
,  // measure 41
1000
0000
0010
0100
0010
0000
1000
1000
,  // measure 42
0001
0000
0010
0001
0010
0000
0001
0001
,  // measure 43
1000
0110
1001
0000
;

//---------------dance-single - ----------------
#NOTES:
     dance-single:
     :
     Challenge:
     16:
     0.880,0.871,0.528,0.135,0.932: // measure 1
1000
0001
1000
0001
0000
0000
1000
0000
0010
0100
0010
0100
0000
0000
0001
0000
,  // measure 2
1000
0100
1000
0100
0000
0000
0010
0000
0001
0100
0001
0100
0000
0000
1001
0000
,  // measure 3
1000
0100
1000
0100
0000
0000
0010
0000
0001
0100
0001
0100
0000
0000
0010
0000
,  // measure 4
1000
0001
1000
0001
0000
0000
0010
0000
0100
1000
0100
1000
0000
0000
0000
0000
,  // measure 5
0010
0100
0010
0100
0000
0000
0001
0000
1000
0100
1000
0100
0000
0000
0010
0000
,  // measure 6
0001
0100
0001
0100
0000
0000
0010
0000
1000
0100
1000
0100
0000
0000
1001
0000
,  // measure 7
0001
0100
0001
0100
0000
0000
0010
0000
1000
0100
1000
0100
0000
0000
0000
0000
,  // measure 8
0011
0011
1001
1001
1100
1100
0110
0110
,  // measure 9
1001
0000
0001
0100
0001
0000
1000
0000
0100
0000
0000
1000
0010
0000
0100
0010
,  // measure 10
0100
0000
0001
1000
0001
0000
0010
0000
0100
0000
0000
0010
0001
0000
0100
0000
,  // measure 11
0110
0000
0010
1000
0010
0000
1000
0000
0001
0000
0000
0010
0100
0000
1000
0100
,  // measure 12
1000
0000
0001
1000
0001
0000
0100
0000
0010
0000
0000
0100
0001
0000
1001
0000
,  // measure 13
1100
0000
0010
0100
0010
0000
0001
0000
0100
0000
0000
0010
1000
0000
0001
0010
,  // measure 14
0001
0000
1000
0010
1000
0000
0010
0000
0100
0000
0000
0010
1000
0000
0001
0000
,  // measure 15
0011
0000
0100
0010
0100
0000
1000
0000
0001
0000
0000
0100
0010
0000
1000
0000
,  // measure 16
1001
0000
0001
0010
0001
0000
0100
0000
0010
0000
1000
0001
1000
0000
0100
1000
,  // measure 17
0100
0000
0010
0100
0010
0000
0001
0000
1000
0000
0000
0100
0010
0000
0001
0000
,  // measure 18
0100
0000
0010
1000
0010
0000
0100
0000
0001
0000
1000
0010
1000
0000
0001
1000
,  // measure 19
0001
0000
0010
0001
0010
0000
0100
0000
1000
0000
0000
0010
0100
0000
0010
0000
,  // measure 20
1000
0100
1000
0100
1000
0001
1000
0001
1000
0001
0010
0001
0010
0100
0010
0100
,  // measure 21
1000
0000
0001
0010
0100
0000
1000
0100
0010
0000
0001
0100
0000
0001
1000
0000
,  // measure 22
0001
0000
0010
0100
1000
0000
0100
0010
0001
0000
1000
0010
0000
1000
0001
0000
,  // measure 23
0100
0000
0010
1000
0100
0000
0010
0001
0100
0000
0010
1000
0000
0001
0010
0000
,  // measure 24
0100
0000
1000
0001
0000
1000
0001
0000
0100
0000
0010
1000
0000
0010
1000
0000
,  // measure 25
0001
0000
0001
0000
0100
0010
1000
0010
0100
0000
0010
0000
0100
0001
0010
0100
,  // measure 26
1000
0000
0010
0000
0100
0001
0010
0001
0100
0000
0010
0000
1000
0100
0010
0001
,  // measure 27
1000
0000
0100
0000
0010
0100
1000
0001
0100
0000
0010
0000
0100
0001
0010
0100
,  // measure 28
1000
0000
0001
0000
0100
0010
1000
0010
0100
0000
0010
1000
0100
0010
0100
0000
,  // measure 29
1010
0000
1000
0000
0100
0010
0001
0000
0101
0000
0100
0000
0110
0000
0010
0000
,  // measure 30
1010
0000
1000
0000
0001
0100
0010
0000
1000
0000
0010
0000
1000
0100
0010
0000
,  // measure 31
0101
0000
0001
0000
1000
0100
0010
0000
0011
0000
0001
0000
0100
0010
1000
0000
,  // measure 32
1010
0000
0010
0000
0110
0000
0100
0000
0101
0000
0001
0000
0100
0010
1000
0001
,  // measure 33
2000
0000
0100
0000
3100
0010
0000
0000
0002
0000
0100
0000
0103
0010
0000
0000
,  // measure 34
0200
0000
0001
0000
0301
1000
0000
0000
0200
0000
1000
0000
1300
0010
0000
0000
,  // measure 35
1000
0010
0001
0010
1000
0100
0010
0100
1000
0010
0100
0010
,  // measure 36
1001
0000
1001
0000
1001
0000
0110
0000
0110
0000
0110
0000
,  // measure 37
1000
0100
0010
0001
1000
0010
1000
0001
0010
0100
1000
0010
0100
0000
0210
0000
,  // measure 38
0310
1000
0100
0010
0100
1000
0001
0100
0001
1000
0100
0010
0100
0000
0120
0000
,  // measure 39
0031
0010
1000
0010
0001
1000
0100
0010
0100
1000
0001
0100
0010
0000
0210
0000
,  // measure 40
1300
0100
0001
0100
1000
0001
0010
0100
0010
0000
1002
0000
0003
0000
2001
0000
,  // measure 41
3001
0100
1000
0100
0001
0010
0100
0010
0001
1000
0010
1000
0001
0000
1001
0000
,  // measure 42
1000
0010
0001
0010
1000
0100
0010
0100
1000
0001
0100
0001
1000
0000
1001
0000
,  // measure 43
0011
0011
1100
1100
0220
0000
0000
0000
,  // measure 44
0330
0000
0000
0000
;
