#TITLE:D.A.N.C.E.;
#SUBTITLE:-Midnight Bossa Mix-;
#ARTIST:Remixed by TOMOSUKE;
#TITLETRANSLIT:;
#SUBTITLETRANSLIT:;
#ARTISTTRANSLIT:;
#CREDIT:DigiMindAxel;
#BANNER:D.A.N.C.E. -Midnight Bossa Mix-.png;
#BACKGROUND:D.A.N.C.E. -Midnight Bossa Mix--bg.png;
#LYRICSPATH:;
#CDTITLE:Konami original REMIX.png;
#MUSIC:D.A.N.C.E. -Midnight Bossa Mix-.ogg;
#METERTYPE:DDR X;
#OFFSET:-8.196;
#SAMPLESTART:61.692;
#SAMPLELENGTH:12.000;
#SELECTABLE:YES;
#BPMS:0.000=125.000;
#STOPS:;
#BGCHANGES:;

//---------------dance-single - ----------------
#NOTES:
     dance-single:
     :
     Easy:
     5:
     0.224,0.228,0.017,0.086,0.000:
1000
1000
1000
0000
,
0100
0100
0100
0000
,
1000
1000
1000
0000
,
0002
0000
0000
0000
,
0103
0010
1000
0100
,
0010
0001
1000
0010
,
1000
0001
1000
0000
,
0020
0000
0000
0000
,
0130
0001
0010
0100
,
0010
0001
1000
0010
,
0100
0010
1000
0000
,
0002
0000
0000
0000
,
0013
0001
0010
0000
,
0100
0010
0100
0000
,
1000
0100
1000
0000
,
0001
0001
0001
0000
,
0100
0010
0100
0000
,
0001
0100
0001
0000
,
2000
0000
0100
0000
,
3100
0010
0100
0000
,
1000
1000
1000
0000
,
0010
0100
0001
0100
,
0010
0010
0010
0000
,
1000
0100
0010
0100
,
2000
0000
3002
0000
,
2003
0000
3002
0000
,
0013
0010
0010
0000
,
0001
0100
0010
0000
,
1001
1000
1000
0000
,
0100
0000
0010
0001
,
0010
0100
0010
0100
,
1000
0000
0001
0000
,
0100
0100
0100
0000
,
0010
0000
1000
0100
,
0010
0100
0010
0001
,
0100
0100
0100
0000
,
0001
1000
0001
0010
,
0100
0100
0010
0010
,
0100
1000
0010
0100
,
0001
0001
1000
1000
,
0001
0100
0010
0100
,
0001
1000
0100
0010
,
0001
0001
0100
0100
,
0001
1000
0100
0000
,
0010
0001
0100
0010
,
0100
0001
0010
0001
,
1000
0100
1000
0001
,
0100
0010
0100
0001
,
1000
0100
1000
0001
,
0100
0010
0100
0001
,
1000
0100
0010
0100
,
1000
0100
0010
0001
,
2002
0000
0000
3003
;

//---------------dance-single - ----------------
#NOTES:
     dance-single:
     :
     Medium:
     8:
     0.393,0.387,0.250,0.207,0.000:
0001
0100
0010
0000
0100
0000
0110
0000
,
1000
0001
0010
0000
0100
0000
0110
0000
,
1000
0100
0010
0000
0001
0000
0011
0000
,
0200
0000
0000
1000
0000
0000
1300
0000
,
0001
2000
3200
0320
,
0230
0000
2300
0000
3002
0000
0103
0010
,
1000
0000
0100
0010
0001
0000
0001
0000
,
2000
0000
0100
0000
,
3200
0320
0032
2003
,
3020
0000
0230
0000
0320
0000
1030
0001
,
0010
0000
0100
0010
0100
0000
0100
0000
,
2000
0000
3002
0000
,
1003
0100
0010
0000
0100
1000
0100
0000
,
0010
0011
1001
1100
,
0010
0001
0100
0000
0010
0100
0010
0000
,
1000
1010
1001
0101
,
0010
1000
0001
0000
0010
0001
0010
0000
,
0100
1100
1001
0011
,
0200
0000
0000
1000
0000
0000
1300
0000
,
0001
1000
0001
0000
1000
0100
0010
0000
,
0001
0001
0001
0000
0100
0010
1000
0000
,
1010
0000
0010
0100
0010
0100
0001
0000
,
1000
1000
0001
0001
1000
0100
0010
0000
,
0101
0000
0100
0000
0110
0000
0000
0001
,
0200
0000
0310
0000
1000
0001
1000
0000
,
0200
0000
1300
0000
0010
0100
0010
0000
,
1001
1100
1001
1100
,
0010
0001
0010
0000
2002
0000
3003
0000
,
0001
0100
0001
0100
0010
0000
1000
0000
,
0100
0000
0010
0100
1000
0010
0100
0000
,
0001
0000
0100
0001
0100
0001
1000
0000
,
0100
1100
0010
0110
,
0001
1000
0001
1000
0100
0000
0010
0000
,
0001
0000
0100
0010
0100
0001
0010
0000
,
0100
0110
1000
1100
,
1001
1001
1001
0000
,
0001
0100
0010
0100
0001
0000
1000
0000
,
0100
1000
0100
0000
0010
0100
0010
0000
,
0001
0010
0000
0100
1000
0100
0000
0010
,
0001
0100
0001
0000
0100
0010
0100
0000
,
0010
1000
0001
0000
0010
0001
1000
0000
,
0010
0100
0010
0100
0010
0100
0010
0000
,
1000
0010
0000
0100
0001
0000
1000
0100
,
0000
0010
0001
0000
0100
0000
0100
0000
,
1001
0000
0001
0100
0001
0000
1000
0001
,
1000
0000
0100
1000
0100
0000
0010
0100
,
0010
0000
0001
0100
0001
0000
1000
0001
,
1000
0000
0100
1000
0100
0000
0010
0001
,
0100
0000
0010
1000
0100
0000
1000
0100
,
0010
0000
0100
0010
0001
0000
0010
0001
,
0100
0000
0010
1000
0100
0000
0010
0001
,
1000
0000
0010
1000
0001
0000
0010
0000
,
2200
0000
0000
3300
;

//---------------dance-single - ----------------
#NOTES:
     dance-single:
     :
     Hard:
     11:
     0.468,0.501,0.060,0.302,0.203: // measure 1
1000
0100
0010
1000
0010
0100
1000
1000
,  // measure 2
0020
0000
0100
0130
0002
0000
1000
1003
,  // measure 3
0001
0100
0010
0001
0010
0100
0001
1000
,  // measure 4
0010
0000
0000
0100
0000
0000
0001
0000
0000
1000
0000
0000
0100
0000
0000
0000
,  // measure 5
1001
2000
3200
0302
,  // measure 6
0203
0000
0000
0000
2300
0000
0000
0000
3020
0000
0000
0000
0130
0000
0001
1000
,  // measure 7
0001
0000
0010
0000
0100
0000
1000
0000
0001
0000
0000
0001
0000
0000
0000
0000
,  // measure 8
0200
0000
0010
0310
2000
0000
0100
3100
,  // measure 9
0010
0002
0203
2300
,  // measure 10
3200
0000
0000
0000
0302
0000
0000
0000
2003
0000
0000
0000
3100
0000
0010
0001
,  // measure 11
0010
0000
0100
0000
1000
0000
0010
0000
0100
0000
0000
0100
0000
0000
0000
0000
,  // measure 12
0002
0000
1000
1003
0020
0000
0100
0130
,  // measure 13
0001
0010
0100
0000
1000
0100
0001
0100
,  // measure 14
1000
0010
1000
0001
0010
0001
1000
0000
,  // measure 15
0100
0010
0001
0000
1000
0010
0001
0010
,  // measure 16
1000
0100
1000
0001
0100
0001
0010
0000
,  // measure 17
0100
1000
0010
0000
1000
0010
0001
0010
,  // measure 18
1000
0100
1000
0010
0100
0010
1000
0000
,  // measure 19
0100
0000
0000
0010
0000
0000
0001
0000
0000
1000
0000
0000
0010
0000
0100
0000
,  // measure 20
0010
0010
1000
1000
0100
0010
0001
1000
,  // measure 21
0010
0000
0010
0000
0010
0000
0100
0000
0001
1000
0000
0100
1000
0000
0001
0000
,  // measure 22
0101
0000
0000
0000
0100
0010
0100
0010
0100
0000
0001
0000
0010
0000
0100
0000
,  // measure 23
1000
0010
0001
0010
0100
0001
1000
0000
,  // measure 24
0100
0000
0000
0010
0000
0000
0002
0000
0200
0000
0000
0000
0303
0000
0100
0000
,  // measure 25
0020
0000
0000
1030
0000
0000
0010
0000
0200
0000
0000
0301
0000
0000
1000
0000
,  // measure 26
0200
0000
0000
1300
0000
0000
0010
0000
0002
0000
0000
0013
0000
0000
0000
0000
,  // measure 27
0100
0000
0000
1000
0000
0000
0001
0000
0000
0100
0000
0000
0010
0000
0000
0000
,  // measure 28
1001
0000
0000
1000
0000
0000
0001
0000
0000
0001
0000
0000
0100
0000
0010
0000
0100
0000
0010
0000
0000
1000
0000
0000
,  // measure 29
0001
0000
0010
0000
1000
0000
0010
0000
0001
0000
0000
0011
0000
0000
0000
0000
,  // measure 30
0100
0000
1000
0001
0100
1000
0100
0010
,  // measure 31
1000
0000
0001
0000
0010
0000
0100
0000
0010
0000
0000
0001
0000
0000
0200
0000
,  // measure 32
0000
0000
0310
0000
0000
0000
0010
1000
,  // measure 33
0001
0000
0100
0000
1000
0000
0100
0000
0001
0000
0000
0101
0000
0000
0000
0000
,  // measure 34
0010
0000
1000
0001
0010
1000
0010
0100
,  // measure 35
1000
0001
0100
0001
1000
0100
0010
0000
,  // measure 36
0002
0000
0000
0000
1000
0000
0000
0000
1003
0000
0001
1000
0001
0000
0000
0000
,  // measure 37
0010
0100
1000
0001
0200
0000
0301
0000
,  // measure 38
1000
0100
1000
0000
0001
0000
0100
0000
0010
0100
0010
0000
0100
0000
0001
0000
,  // measure 39
2000
0100
3100
0010
0002
0100
0103
0010
,  // measure 40
1000
0001
0010
1000
0010
0001
1000
0010
,  // measure 41
1000
0000
0100
0000
0010
0000
0001
0000
1000
0010
0000
0100
0000
0010
0000
0100
,  // measure 42
0001
0010
1000
0010
0001
0100
1000
0100
,  // measure 43
0002
1000
1003
0010
0200
0001
0301
1000
,  // measure 44
0200
1000
1300
0010
0002
0010
0013
0100
,  // measure 45
1001
0000
0001
0000
0000
0100
0000
0000
0010
0000
0000
1000
0000
0000
0100
0000
,  // measure 46
0000
0000
0010
0000
0000
0100
0000
0000
1000
0000
0000
0001
0000
0000
0100
0000
,  // measure 47
0000
0000
0010
0000
0000
1000
0000
0000
0100
0000
0000
0010
0000
0000
0100
0000
,  // measure 48
0000
0000
0010
0000
0000
0001
0000
0000
1000
0000
0000
0010
0000
0000
0100
0000
,  // measure 49
0000
0000
0001
0000
0000
1000
0000
0000
0010
0000
0000
1000
0000
0000
0001
0000
,  // measure 50
0000
0000
0010
0000
0000
0100
0000
0000
1000
0000
0000
0010
0000
0000
0100
0000
,  // measure 51
0000
0000
0001
0000
0000
1000
0000
0000
0010
0000
0000
0100
0000
0000
0001
0000
,  // measure 52
0000
0000
1000
0000
0000
0100
0000
0000
0010
0000
0000
0001
0000
0000
0100
0000
,  // measure 53
0202
0000
0000
0303
;

//---------------dance-single - ----------------
#NOTES:
     dance-single:
     :
     Challenge:
     14:
     0.630,0.660,0.371,0.052,0.725: // measure 1
0001
0000
0001
0000
1000
0010
0000
0100
0000
0100
0000
0010
0100
0000
0001
0000
,  // measure 2
1000
0100
0010
0001
1000
0100
0010
0001
,  // measure 3
1000
0000
1000
0000
0001
0100
0000
0010
0000
0010
0000
0100
0010
0000
1000
0000
,  // measure 4
0011
0000
0000
0110
0000
0000
1100
0000
0000
0110
0000
0000
1001
0000
0000
0000
,  // measure 5
0110
0000
0000
0100
0001
0000
0000
0001
1000
0000
0000
1000
0100
0000
0000
0100
,  // measure 6
0001
0000
0000
0001
0100
0000
0000
0100
1000
0000
0000
1000
0001
0000
0010
0100
,  // measure 7
1000
0000
0001
0000
0010
0000
0100
0000
1100
0000
0000
1001
0000
0000
0000
0000
,  // measure 8
1000
0010
0100
0001
1000
0010
0100
0001
,  // measure 9
1000
0000
0000
1000
0001
0000
0000
0001
0100
0000
0000
0100
1000
0000
0000
1000
,  // measure 10
0100
0000
0000
0100
0001
0000
0000
0001
1000
0000
0000
1000
0100
0000
0010
0001
,  // measure 11
1000
0000
0100
0000
0010
0000
0100
0000
1100
0000
0000
1001
0000
0000
0000
0000
,  // measure 12
1000
0100
0010
0100
1000
0001
0100
0001
,  // measure 13
1000
0000
0100
1000
0100
0000
0000
0010
0001
0000
0100
0000
0010
0000
1000
0001
,  // measure 14
1000
0000
0100
0000
0001
0000
0100
0000
1000
0010
1000
0000
0010
0000
0100
0000
,  // measure 15
0001
0000
1000
0100
1000
0000
0000
0010
0100
0000
0001
0000
1000
0000
0001
0000
,  // measure 16
0010
0000
1000
0000
0010
0000
0001
1000
0001
0000
1000
0000
0100
0000
0000
0000
,  // measure 17
0010
0000
0001
1000
0001
0000
0000
0100
0010
0000
1000
0000
0100
0000
1000
0000
,  // measure 18
0010
0000
0001
0000
0010
0000
1000
0001
1000
0000
0001
0000
0010
0000
0100
0000
,  // measure 19
1100
0000
0000
0110
0000
0000
0011
0000
0000
0110
0000
0000
1001
0000
0001
0100
,  // measure 20
0001
0000
1000
0100
0000
1000
0100
0000
0000
0000
0011
0000
0100
0000
1000
0000
,  // measure 21
0110
0000
0010
0000
0110
0000
0001
0100
0001
1000
0000
0001
1000
0000
0100
0000
,  // measure 22
0010
0100
0010
0000
0001
1000
0010
1000
0001
0000
0010
0001
0010
0000
0100
0000
,  // measure 23
1000
0001
1000
0000
0001
0010
0001
0000
1000
0100
1000
0000
0010
0100
0010
0000
,  // measure 24
1000
0000
0010
1000
0000
0010
0100
0000
1001
0000
0000
1001
0000
0000
0001
0000
,  // measure 25
0011
0000
0000
0011
0000
0000
0100
0000
1010
0000
0000
1010
0000
0000
0100
0000
,  // measure 26
0011
0000
0000
0011
0000
0000
0100
0000
1010
0000
0000
1010
0000
0000
0100
0000
,  // measure 27
0011
0000
0000
0110
0000
0000
1100
0000
0000
0110
0000
0000
1001
0000
0000
0000
,  // measure 28
0110
0000
0000
0000
0000
0000
0100
0000
0000
0000
0000
0000
0110
0000
0000
0000
0000
0000
0010
0000
0000
0000
0000
0000
1000
0000
0000
0000
1000
0000
0000
0000
0010
0000
0000
0000
0100
0000
0000
0000
0000
0000
0001
0000
0000
1000
0000
0000
,  // measure 29
0001
0000
1000
0100
1000
0000
0100
0010
0001
0000
0000
2001
0000
0000
0000
0000
,  // measure 30
3001
0000
0100
0000
0010
0000
0100
0000
0001
0000
0000
0010
0000
0100
0000
1000
,  // measure 31
0000
0000
1000
0000
0001
0000
0010
0000
1100
0000
0000
0110
0000
0000
0012
0000
,  // measure 32
0000
0000
0000
0000
0103
0000
0010
0000
0100
0000
0000
0000
0010
0000
1000
0001
,  // measure 33
1000
0000
0001
1000
0001
0000
0010
0100
1000
0000
0000
1200
0000
0000
0000
0000
,  // measure 34
1300
0000
0010
0000
0100
0000
0010
0000
1000
0000
0000
0100
0000
0010
0000
0001
,  // measure 35
0000
0000
0010
0000
0001
0000
0010
0000
1100
0000
0000
0110
0000
0000
0000
0000
,  // measure 36
0001
0000
0100
0000
1000
0000
0100
0000
0001
0000
0010
0100
0010
0000
0000
0000
,  // measure 37
0001
0000
1000
0100
0000
1000
0000
0020
0000
0000
0000
0000
0130
0000
0000
0000
,  // measure 38
0001
1000
0001
1000
0000
0100
1000
0100
0000
0010
0100
0010
0000
0001
0010
0001
,  // measure 39
1000
0100
0010
0001
0000
0001
0000
1000
0100
0010
0001
0000
0000
1000
0000
1000
,  // measure 40
0001
0010
0001
0010
0100
1000
0100
1000
0010
0100
0010
0100
0001
0010
0100
0010
,  // measure 41
0001
1000
0010
1000
0000
0010
0100
0010
1000
0001
0000
0001
0000
1000
0000
1000
,  // measure 42
0100
0010
0100
0010
0001
0100
0001
0100
0001
0010
0100
0010
0001
0010
0100
1000
,  // measure 43
0001
0010
0100
1000
0000
0001
0000
0001
0100
0000
0000
0001
0000
0001
1000
0000
,  // measure 44
0000
0000
0000
0100
0000
0000
0000
0000
0000
0100
0000
0000
1000
0000
0000
0000
0000
0000
0000
0000
0000
0010
0000
0000
0000
0000
0000
0010
0000
0000
0100
0000
0000
0000
0000
0000
0001
0000
0000
0000
0010
0000
0000
0000
0100
0000
0000
0000
,  // measure 45
1000
0000
0001
0100
0000
0001
0100
0000
0010
0000
1000
0001
0000
1000
0001
0000
,  // measure 46
0010
0000
0100
1000
0000
0100
1000
0000
0001
0000
0100
0010
0000
0100
0010
0000
,  // measure 47
1000
0000
0100
1000
0000
0100
1000
0000
0001
0000
0100
0001
0000
0100
0001
0000
,  // measure 48
1000
0000
0100
0010
0000
0100
0010
0000
0001
0000
1000
0010
0000
1000
0010
0000
,  // measure 49
0100
0000
0001
0100
0000
0100
0010
0000
1000
0000
0010
0100
0000
0100
0001
0000
,  // measure 50
0010
0000
0100
1000
0000
1000
0001
0000
1000
0000
0100
0010
0000
0010
0001
0000
,  // measure 51
1000
0000
0001
0010
0000
1000
0010
0000
0001
0000
1000
0100
0000
0001
0100
0000
,  // measure 52
1000
0000
0001
0100
0000
1000
0100
0000
0001
0000
1000
0010
0000
0001
0010
0000
,  // measure 53
2002
0000
0000
3003
;

//---------------dance-single - ----------------
#NOTES:
     dance-single:
     :
     Beginner:
     3:
     0.123,0.180,0.052,0.000,0.000:
0001
0000
0000
0000
,
0100
0000
0000
0000
,
0010
0000
0000
0000
,
1000
0000
0000
0000
,
1001
0000
0001
0000
,
0001
0000
0001
0000
,
1000
0000
0000
0000
,
0100
0000
0000
0000
,
0010
0000
0010
0000
,
0010
0000
0010
0000
,
0001
0000
0000
0000
,
0100
0000
0000
0000
,
1001
0000
1000
0000
,
1000
0000
0000
0000
,
0001
0000
0001
0000
,
0001
0000
0000
0000
,
0010
0000
0010
0000
,
0010
0000
0000
0000
,
0001
0000
0001
0000
,
0001
0000
0000
0000
,
0100
0000
0010
0000
,
0100
0000
0010
0000
,
0100
0000
0010
0000
,
1000
0000
0000
0000
,
0100
0000
0000
0000
,
0010
0000
0000
0000
,
0001
0000
0000
0000
,
1001
0000
0000
0000
,
1000
0000
0010
0000
,
0100
0000
0100
0000
,
0001
0000
0010
0000
,
0100
0000
0000
0000
,
1000
0000
1000
0000
,
0001
0000
0010
0000
,
0100
0000
0100
0000
,
0110
0000
0000
0000
,
1001
0000
0001
0000
,
1000
0000
0100
0000
,
0010
0000
0010
0000
,
0100
0000
0100
0000
,
0010
0000
0001
0000
,
1000
0000
0010
0000
,
0100
0000
0100
0000
,
0001
0000
0001
0000
,
1000
0001
1000
0000
,
0100
1000
0100
0000
,
0010
0100
0010
0000
,
0001
0010
0001
0000
,
0100
0010
0100
0000
,
0010
1000
0010
0000
,
0100
0010
0100
0000
,
0001
1000
0001
0000
,
1001
0000
0000
0000
;
