#TITLE:Cranberry City ft. Luschel;
#SUBTITLE:;
#ARTIST:lapix;
#TITLETRANSLIT:;
#SUBTITLETRANSLIT:;
#ARTISTTRANSLIT:;
#CREDIT:DigiMindAxel;
#BANNER:Cranberry City ft. Luschel.png;
#BACKGROUND:Cranberry City ft. Luschel-bg.png;
#LYRICSPATH:;
#CDTITLE:beatmania IIDX.png;
#MUSIC:Cranberry City ft. Luschel.ogg;
#METERTYPE:DDR X;
#OFFSET:-7.010;
#SAMPLESTART:48.710;
#SAMPLELENGTH:12.000;
#SELECTABLE:YES;
#BPMS:0.000=138.000;
#STOPS:;
#BGCHANGES:;

//---------------dance-single - ----------------
#NOTES:
     dance-single:
     :
     Easy:
     5:
     0.255,0.256,0.085,0.140,0.000: // measure 1
0002
0000
0103
0010
,  // measure 2
2000
0000
3100
0010
,  // measure 3
0002
0000
1003
0100
,  // measure 4
0020
0000
0130
1000
,  // measure 5
0020
0000
0130
0001
,  // measure 6
2000
0000
3100
0010
,  // measure 7
0002
0000
0013
0100
,  // measure 8
1000
1000
1000
0000
,  // measure 9
1001
0000
0110
0000
,  // measure 10
1001
0001
0001
0000
,  // measure 11
1000
0100
0010
0000
,  // measure 12
0100
0010
0001
0000
,  // measure 13
2000
0000
3010
0000
,  // measure 14
0100
0001
0010
0000
,  // measure 15
0100
0010
0100
0010
,  // measure 16
0001
1000
0001
0000
,  // measure 17
0020
0000
0230
0000
,  // measure 18
0310
0010
0010
0000
,  // measure 19
0200
0000
2300
0000
,  // measure 20
3100
0100
0100
0000
,  // measure 21
1000
0100
0010
0000
,  // measure 22
0100
0010
0001
0000
,  // measure 23
1000
0001
1000
0001
,  // measure 24
2000
0000
3000
0000
,  // measure 25
1001
1000
0001
1000
,  // measure 26
0100
0010
0100
0010
,  // measure 27
0001
0100
0010
0000
,  // measure 28
0100
0010
1000
0000
,  // measure 29
0001
1000
0001
1000
,  // measure 30
0100
0010
0100
0010
,  // measure 31
0001
0100
0010
0000
,  // measure 32
0200
0000
0310
0010
,  // measure 33
1001
0000
1001
0000
,  // measure 34
1001
0000
1001
0000
,  // measure 35
0001
1000
0100
0010
,  // measure 36
0001
0100
0001
0000
,  // measure 37
0100
0010
0100
0001
,  // measure 38
1000
0100
0010
0000
,  // measure 39
0001
1000
0001
0010
,  // measure 40
0200
0000
0000
0300
,  // measure 41
1001
0000
1000
0000
,  // measure 42
0100
0000
0010
0000
,  // measure 43
0001
0000
1000
0000
,  // measure 44
0010
0000
0100
0000
,  // measure 45
0001
0001
1000
1000
,  // measure 46
0001
0001
1000
1000
,  // measure 47
0100
0010
0001
1000
,  // measure 48
0020
0000
0000
0030
,  // measure 49
0100
0010
0100
0001
,  // measure 50
0100
0010
0100
0001
,  // measure 51
0100
0010
1000
0100
,  // measure 52
0010
0001
1000
0000
,  // measure 53
0100
1000
0010
1000
,  // measure 54
0100
1000
0010
1000
,  // measure 55
0100
0010
0001
1000
,  // measure 56
0010
0000
0000
0110
,  // measure 57
1000
0001
1000
0001
,  // measure 58
0100
0010
1000
0010
,  // measure 59
0100
0010
0100
0010
,  // measure 60
1000
0100
0010
0001
,  // measure 61
0100
0010
0100
0001
,  // measure 62
1000
0100
1000
0001
,  // measure 63
1000
0010
0100
0001
,  // measure 64
1000
0000
1000
0000
1000
0000
0000
2002
,  // measure 65
0000
0000
0000
0000
,  // measure 66
0000
0000
0000
0000
,  // measure 67
3003
0000
0000
0000
;

//---------------dance-single - ----------------
#NOTES:
     dance-single:
     :
     Medium:
     9:
     0.390,0.385,0.202,0.187,0.000:
1100
0000
0000
0000
0100
0010
0001
0000
,
0100
0000
0000
0000
0010
1000
0100
0000
,
0010
0000
0000
0000
0001
0100
0010
0000
,
0100
0000
0100
0000
0010
1000
0100
0010
,
0001
0000
0000
0000
1000
0100
0010
0000
,
0100
0000
0000
0000
1000
0010
0100
0000
,
0010
0000
0000
0000
0100
0001
0010
0000
,
2200
0000
0000
3300
,
1000
0001
1000
0000
0001
1000
0001
0000
,
0100
0010
0100
0010
0100
0010
0100
0000
,
1001
0000
0001
0000
0010
0100
1000
0000
,
0010
0010
0100
0000
,
0002
0000
2003
0000
3100
0010
0100
0000
,
2000
0000
3002
0000
0103
0010
0100
0000
,
0001
0100
0010
0000
1000
0010
0100
0000
,
0001
1000
0001
1000
0010
0100
0010
0000
,
2000
0000
3200
0000
,
0310
0010
0011
0000
,
0002
0000
0203
0000
,
0310
0010
1010
0000
,
1000
0001
1000
0001
1000
0000
0000
0000
,
0100
1000
0100
1000
0100
0000
0000
0000
,
0010
0001
0010
0001
0100
0000
0010
0000
,
1100
1001
0011
1001
,
0001
0100
0001
0100
0010
0000
1000
0000
,
0100
0010
0100
0010
0001
0000
1000
0000
,
0010
1000
0010
1000
0100
0010
0000
0001
,
1000
0001
0000
0100
0010
0100
0000
0000
,
0001
1000
0001
1000
0100
0000
0010
0000
,
0001
0100
0001
0100
0010
0000
1000
0000
,
0100
0000
0010
0001
0010
0001
0100
0000
,
0010
0000
0110
1001
,
1000
0100
0000
0000
1000
0100
0000
0000
,
0010
0001
0000
0000
0010
0001
1000
0000
,
1001
0000
0101
0000
0100
0010
0100
0000
,
0010
1000
0100
0000
0010
0001
0100
0000
,
1001
0000
1001
0000
1000
0100
0010
0000
,
0001
0100
0001
0100
0010
0000
0000
0000
,
1000
0100
0010
0001
,
1000
0100
2000
0000
0000
0000
3100
0000
,
0020
0000
0032
0000
,
0203
0000
0320
0000
,
2030
0000
3002
0000
,
0023
0000
0032
0000
,
1003
0000
1100
0000
0010
0001
1000
0000
,
0001
0000
1001
0000
0001
1000
0100
0000
,
0010
0000
0110
0000
0100
0010
0001
0000
,
2002
0000
0000
3003
,
1000
0100
0010
0000
0100
1000
0100
0000
,
0010
0001
0010
0000
0001
0010
0100
0000
,
1000
0010
1000
0000
0010
0100
0001
0000
,
0100
0010
1000
0000
0010
1000
0010
0000
,
1000
0001
1000
0001
1000
0100
0010
0000
,
0001
1000
0001
1000
0001
0010
0100
0000
,
1000
0010
0001
0010
,
1100
1001
0011
1001
,
2000
0010
3010
0100
,
0002
0010
0013
0100
,
1000
0001
1000
0000
0100
1000
0100
0000
,
0010
0001
0100
0000
0010
0100
0010
0000
,
1000
0100
0010
0000
0001
0010
0100
0000
,
0010
0001
0100
0010
1000
0000
1000
0000
,
0100
0010
0001
0010
0100
0000
0100
0000
,
1001
0000
0110
0000
1001
0000
0010
0200
,
0000
0000
0000
0000
,
0000
0000
0000
0000
,
0300
0000
0000
0000
;

//---------------dance-single - ----------------
#NOTES:
     dance-single:
     :
     Hard:
     13:
     0.565,0.564,0.218,0.117,0.377:
0001
0000
1000
0000
0100
0000
0000
0010
0000
0001
0100
0000
0010
0000
0000
0000
,
0100
0000
0001
0000
0010
0000
0000
0100
0000
1000
0010
0000
0100
0000
0000
0000
,
0010
0000
1000
0000
0100
0000
0000
1000
0000
0001
0010
0000
0100
0000
0000
0000
,
0010
0001
1000
0100
0001
0100
1000
0001
,
0010
0000
0100
0000
1000
0000
0000
0010
0000
0100
0001
0000
1000
0000
0100
1000
,
0100
0000
0010
0000
0001
0000
0000
1000
0000
0010
1000
0000
0001
0000
0000
0000
,
0010
0000
0100
0000
1000
0000
0000
0100
0000
1000
0001
0000
0100
0000
0010
0100
,
0010
0000
1000
0001
0000
0001
0000
0001
0000
0000
1000
0001
1000
0000
0000
0000
,
1100
0010
0001
0000
0011
0100
1000
0000
,
0110
0001
0010
1000
0010
0001
0100
0000
,
0010
1000
0100
0000
1000
0100
0010
0000
,
0100
0010
0001
1000
0010
0000
1010
0000
,
0100
0001
0010
0100
0010
0001
1000
0000
,
0010
0100
0001
1000
0100
0001
0100
1000
,
0000
0000
0010
1000
0010
0000
0100
0000
0001
0000
1000
0100
1000
0000
0100
0000
,
0010
0000
0001
1000
0001
0000
0100
0000
0010
0000
1000
0010
1000
0000
0000
0000
,
1001
0100
0010
0001
,
0110
0110
1001
0000
,
0011
0100
1000
0010
,
0110
0110
1001
0000
,
1000
0000
0010
0000
0100
0000
0001
0000
1000
0000
0000
1001
0000
0000
0001
0000
,
1000
0000
0100
0000
0010
0000
0001
0000
1000
0000
0000
1001
0000
0000
0001
0000
,
1000
0010
0100
0001
1000
0100
0001
0100
,
1000
0000
0000
0000
0010
0000
0000
0000
1000
0000
0000
0000
0001
0000
0000
0000
0010
0000
0000
0000
0001
0000
0000
0000
1000
0000
0000
0000
0000
0000
0001
0000
0000
1000
0000
0000
0001
0000
0000
0000
0000
0000
0000
0000
0000
0000
0000
0000
,
0101
0000
0010
0000
1000
0000
0010
0100
0000
0001
0000
0010
0000
0100
0000
0000
,
1100
0000
0010
0000
0001
0000
1000
0010
0000
0100
0000
0010
0000
0000
1000
0000
,
0001
0010
0001
0000
1000
0000
0100
0000
0010
0000
0001
0000
1000
0000
0010
0000
,
0100
0010
0100
0000
0001
0000
1000
0000
0010
0100
0010
0000
1000
0000
0000
0000
,
0011
0000
0100
0000
1000
0000
0001
0100
0000
0010
0000
0100
0000
0001
1000
0000
,
0100
1000
0100
0000
0010
0000
0001
0000
1000
0000
0010
0000
0100
0000
0001
0000
,
0000
0001
1000
0100
0001
0100
1000
0001
,
1000
0000
0000
1001
0000
0000
0000
0000
0110
0000
0100
0010
0100
0000
0000
0000
,
1001
0010
0100
0000
1001
0100
0010
0000
,
1001
0010
0100
1000
0001
0010
0100
0000
,
1010
0000
1001
0001
0100
0001
1000
0010
,
0001
0010
1000
0100
0001
0100
1000
0000
,
1100
0000
0010
0000
0001
0000
1000
0010
0000
0100
0000
0010
0000
1000
0001
0000
,
0010
0000
0010
0000
0010
0000
0001
1000
0000
0000
0100
0000
0010
0000
0001
0000
,
1000
0010
0100
0001
1000
0100
0001
0100
,
1000
0000
0000
2002
0000
0000
0000
0000
3003
0000
0001
1000
0001
0000
0000
0000
,
1000
0000
0100
0001
0100
0000
1000
0100
,
0010
0000
0001
0100
0010
0000
1000
0100
,
0001
0000
0000
0000
0000
0000
0000
0000
0000
0100
0000
0000
0000
0000
0000
0000
0000
0000
1000
0000
0000
0000
0000
0000
0001
0000
0000
0000
0000
0000
0000
0000
0000
0000
0000
0000
0100
0000
0000
0000
0001
0000
0000
0000
1000
0000
0000
0000
,
0100
0000
0000
0010
0000
0000
0001
0000
0100
0000
0000
0000
0010
0100
0010
0100
,
0010
0000
1000
0100
0001
0100
1000
0100
,
0010
0000
0001
0100
1000
0100
0001
0010
,
0100
0000
0000
0000
0000
0000
0000
0000
0000
1000
0000
0000
0000
0000
0000
0000
0000
0000
0001
0000
0000
0000
0000
0000
0100
0000
0000
0000
0000
0000
0000
0000
0000
0000
0000
0000
0010
0000
0000
0000
1000
0000
0000
0000
0100
0000
0000
0000
,
0020
0000
0000
0000
0000
0000
0000
0000
0000
0000
0031
1000
0001
0000
0000
0000
,
1000
0000
0100
0000
0010
0000
0001
1000
0000
0010
0000
1000
0000
0001
0000
0000
,
1000
0000
0010
0000
0100
0000
0001
1000
0000
0100
0000
1000
0000
0010
0000
0000
,
0100
0001
0010
1000
0010
0001
1000
0100
,
0010
0000
0001
0000
0100
0000
0001
1000
0000
0200
0000
0000
0000
0000
1300
0001
,
1000
0000
0010
0000
0100
0000
0001
1000
0000
0100
0000
0010
0000
0000
0100
0000
,
0010
0000
0001
0000
1000
0000
0100
0000
0001
0000
0100
0000
1000
0000
0010
0100
,
0010
1000
0100
0010
0001
1000
0010
0100
,
0001
0000
1000
0001
0000
0001
0000
0001
0000
0000
1000
0001
1000
0000
0010
0000
,
0200
0000
0301
1000
0200
0000
0320
0000
,
0031
0000
1000
0100
2000
0000
0000
0000
0001
0000
0000
0000
3001
1000
0000
0020
,
0000
0100
0230
0000
0001
0000
0302
0000
,
1003
0100
2000
0000
0000
0000
0000
0000
3010
0000
0100
0000
0002
0000
0000
0000
,
0013
0100
1000
0001
0100
1000
0001
0010
,
1000
0000
0001
0000
1000
0001
0000
0001
0000
0100
0010
0000
0100
0000
0001
0000
,
1000
0000
0010
1000
0010
0000
0100
0010
0100
0000
0001
1000
0001
1000
0001
0000
,
0101
0000
0000
0000
0010
1000
0000
0100
0000
0010
0000
0001
1000
0000
2020
0000
,
0000
0000
0000
0000
,
0000
0000
0000
0000
,
3030
0000
0000
0000
;

//---------------dance-single - ----------------
#NOTES:
     dance-single:
     :
     Beginner:
     2:
     0.097,0.149,0.062,0.000,0.000:
0001
0000
0000
0000
,
0010
0000
0000
0000
,
0100
0000
0000
0000
,
1000
0000
0000
0000
,
0001
0000
0000
0000
,
0010
0000
0000
0000
,
0100
0000
0000
0000
,
1000
0000
0000
0000
,
0001
0000
0000
0000
,
0001
0000
0000
0000
,
1001
0000
0000
0000
,
1000
0000
0000
0000
,
0100
0000
0000
0000
,
1000
0000
0000
0000
,
0100
0000
0100
0000
,
0100
0000
0000
0000
,
1001
0000
0000
0000
,
0000
0000
0000
0000
,
0001
0000
0000
0000
,
0000
0000
0000
0000
,
0100
0000
0100
0000
,
0010
0000
0010
0000
,
0100
0000
0000
0000
,
1001
0000
0000
0000
,
0001
0000
0010
0000
,
0001
0000
0010
0000
,
0100
0000
0000
0000
,
1000
0000
0000
0000
,
0010
0000
1000
0000
,
0010
0000
1000
0000
,
0001
0000
0000
0000
,
0010
0000
0000
0000
,
1001
0000
0000
0000
,
1001
0000
0000
0000
,
0010
0000
0100
0000
,
0010
0000
0000
0000
,
1000
0000
0001
0000
,
1000
0000
0000
0000
,
0100
0000
1000
0000
,
0010
0000
0000
0000
,
0110
0000
0000
0000
,
0000
0000
0000
0000
,
0000
0000
0000
0000
,
0000
0000
0000
0000
,
0010
0000
0100
0000
,
0010
0000
0100
0000
,
0010
0000
0100
0000
,
0010
0000
0000
0000
,
1001
0000
1000
0000
,
0001
0000
1000
0000
,
0001
0000
0010
0000
,
0000
0000
0000
0000
,
0100
0000
1000
0000
,
0100
0000
1000
0000
,
0010
0000
0100
0000
,
0000
0000
0000
0000
,
0001
0000
0000
0000
,
0010
0000
0000
0000
,
0100
0000
0000
0000
,
1000
0000
0000
0000
,
0001
0000
0100
0000
,
0001
0000
0000
0000
,
1000
0000
0010
0000
,
1000
0000
0000
0000
0000
0000
0000
1001
;
