#TITLE:Crafty Savior;
#SUBTITLE:;
#ARTIST:HuΣeR;
#TITLETRANSLIT:;
#SUBTITLETRANSLIT:;
#ARTISTTRANSLIT:HuMeR;
#CREDIT:DigiMindAxel;
#BANNER:Crafty Savior.png;
#BACKGROUND:Crafty Savior-bg.png;
#LYRICSPATH:;
#CDTITLE:REFLEC BEAT.png;
#MUSIC:Crafty Savior.ogg;
#METERTYPE:DDR X;
#OFFSET:-6.635;
#SAMPLESTART:23.506;
#SAMPLELENGTH:12.000;
#SELECTABLE:YES;
#BPMS:0.000=170.000;
#STOPS:;
#BGCHANGES:;

//---------------dance-single - ----------------
#NOTES:
     dance-single:
     :
     Easy:
     5:
     0.242,0.277,0.122,0.287,0.000:
0002
0000
0000
0000
,
0203
0000
0000
0000
,
0302
0000
0000
0000
,
2003
0000
0000
0000
,
3001
1000
0100
0000
,
0010
0001
0010
0000
,
0001
1000
0010
0000
,
1000
0001
1000
0000
,
0100
0010
0001
0000
,
0100
0010
0100
0000
,
0001
1000
0100
0000
,
0010
0100
0010
0000
,
0002
0000
1003
0000
,
0100
1000
0010
0000
,
0200
0000
0301
0000
,
1000
0100
0010
0000
,
0002
0000
0103
0000
,
0010
0100
0001
0000
,
0020
0000
0230
0000
,
2300
0000
3002
0000
,
0203
0000
0000
0000
,
0010
0000
0000
0000
,
0320
0000
0000
0000
,
0100
0000
0000
0000
,
2030
0000
0000
0000
,
3002
0000
0000
0000
,
2003
0000
0000
0000
,
3002
0000
0000
0000
,
1003
0100
1000
0000
,
0001
1000
0001
0000
,
1000
0100
1000
0000
,
0001
1000
0001
0000
,
0100
0010
0100
0010
,
1000
0001
1000
0001
,
0010
0100
0010
0100
,
2000
0000
0001
0000
,
3001
1000
1001
0000
,
0110
0000
1001
0000
,
1000
0001
1001
0000
,
0110
0000
1001
0000
,
0002
0000
1003
0000
,
0110
0000
1001
0000
,
1000
0001
1001
0000
,
0110
0000
1001
0000
,
0000
2002
0000
0000
0000
0000
3003
0000
,
1001
0000
0000
0000
,
0000
0000
0000
0000
,
0010
0000
0000
0000
,
0000
0000
0000
0000
,
0100
0000
0100
0000
,
0010
0000
0010
0000
,
0001
0000
0001
0000
,
1000
0001
1000
0000
,
1001
1000
0001
0000
,
0010
0100
1000
0000
,
0001
1000
0001
0000
,
0100
0010
1000
0000
,
0100
0010
0100
0000
,
1000
0001
0100
0000
,
0002
0000
2003
0000
,
3002
0000
2003
0000
,
3010
0000
0010
0000
,
0010
0100
0010
1000
,
0200
0000
0000
0000
,
2300
0000
0000
0000
,
3002
0000
0000
0000
,
0203
0000
0000
0000
,
0320
0000
0000
0000
,
0230
0000
0000
0000
,
0302
0000
0000
0000
,
2003
0000
0000
0000
0000
0000
0000
3000
;

//---------------dance-single - ----------------
#NOTES:
     dance-single:
     :
     Medium:
     10:
     0.452,0.431,0.087,0.374,0.009: // measure 1
0100
0100
0100
0100
,  // measure 2
0010
0010
0010
0010
,  // measure 3
0100
0100
0100
0100
,  // measure 4
0010
0000
0010
0000
0010
0100
0010
0000
,  // measure 5
1001
0000
1000
0001
0000
1000
0001
0000
,  // measure 6
0010
0000
0100
1000
0000
0100
1000
0000
,  // measure 7
0010
0000
0100
0001
0000
0100
0001
0000
,  // measure 8
1000
0000
0100
1000
0000
0100
1000
0000
,  // measure 9
0001
0000
0100
0010
0000
0100
0010
0000
,  // measure 10
0100
0000
0001
1000
0000
0001
1000
0000
,  // measure 11
0100
0000
1000
0100
0000
1000
0100
0000
,  // measure 12
0010
0000
0001
0100
0000
0001
0100
0000
,  // measure 13
0001
1000
0001
2000
0000
0000
0000
3001
,  // measure 14
0010
0000
0001
2000
0000
0000
3000
0001
,  // measure 15
1000
0001
1000
0002
0000
0000
0000
0103
,  // measure 16
0001
0000
1000
0020
0000
0000
0030
0000
,  // measure 17
1000
0001
1000
0002
0000
0000
0000
0013
,  // measure 18
0100
0000
1000
0020
0000
0000
0030
0100
,  // measure 19
0002
0000
0000
1000
2003
0000
0000
0010
,  // measure 20
3020
0000
0000
0100
0230
0000
0302
0000
,  // measure 21
2003
0000
0000
0000
,  // measure 22
0000
0000
0000
0000
0000
0000
0000
3001
,  // measure 23
0020
0000
0000
0000
,  // measure 24
0000
0000
0000
0000
0000
0031
1000
0001
,  // measure 25
2000
0000
0000
3020
0000
0000
0230
0000
,  // measure 26
0000
0000
0000
0000
0000
0000
0000
0301
,  // measure 27
2000
0000
0000
0100
0000
0000
3100
0020
,  // measure 28
0000
0000
0031
0010
,  // measure 29
0100
1010
0100
1010
,  // measure 30
0100
0001
0100
0000
0010
0100
0010
0000
,  // measure 31
1000
0101
1000
0101
,  // measure 32
0010
1000
0010
0000
1000
0100
0010
0000
,  // measure 33
0001
1100
0001
1100
,  // measure 34
0010
0001
0100
0000
0010
0100
0010
0000
,  // measure 35
1000
0001
1000
0001
1000
0000
0010
0100
,  // measure 36
0001
1000
1100
0000
,  // measure 37
0010
0001
0100
0001
0010
0000
0100
0000
,  // measure 38
1000
0001
0100
0001
1000
0000
0100
0000
,  // measure 39
0010
0100
1000
0010
0100
0000
0010
0000
,  // measure 40
1000
0001
0010
0001
1000
0000
0100
0000
,  // measure 41
0020
0000
0230
0000
0310
0001
1000
0000
,  // measure 42
0001
1000
0100
1000
0001
0000
0010
0000
,  // measure 43
0100
0010
0001
0010
0100
0000
1000
0000
,  // measure 44
0020
2030
3002
2003
,  // measure 45
3000
0000
0010
0000
0000
0110
0000
0000
0000
0000
0010
0000
0000
0110
0000
0000
,  // measure 46
0002
0000
0000
0000
,  // measure 47
1000
0000
0000
0000
,  // measure 48
2003
0000
0000
0000
,  // measure 49
0001
0000
0000
0000
,  // measure 50
3001
0100
0001
1000
,  // measure 51
0100
1000
0001
0100
,  // measure 52
0010
0100
0010
0000
1000
0001
1000
0000
,  // measure 53
0100
1000
0100
1000
0001
0010
0001
0000
,  // measure 54
1000
0010
1000
0020
0000
0000
0000
0130
,  // measure 55
0001
0000
1000
0200
0000
0000
1300
0010
,  // measure 56
0100
0001
0100
0002
0000
0000
0000
0013
,  // measure 57
0100
0000
1000
0010
0100
0010
1000
0000
,  // measure 58
0001
0010
0001
0020
0000
0000
0031
1000
,  // measure 59
0001
1000
0100
2000
0000
0000
3010
0100
,  // measure 60
0002
0000
0000
1000
2003
0000
0000
0001
,  // measure 61
3002
0000
0000
1000
2003
0000
0000
0000
,  // measure 62
3002
0023
0230
0320
,  // measure 63
0031
1000
0001
1000
0100
0010
0001
0000
,  // measure 64
2000
0010
0010
3010
,  // measure 65
0200
0001
0001
0301
,  // measure 66
2000
0100
0100
3100
,  // measure 67
0020
0001
0001
0031
,  // measure 68
1000
0010
1000
0010
0100
0000
0001
0000
,  // measure 69
1000
0100
1000
0100
0010
0000
0001
1000
,  // measure 70
0001
0010
0100
1000
,  // measure 71
0001
0000
0100
0000
0010
0100
0010
0100
;

//---------------dance-single - ----------------
#NOTES:
     dance-single:
     :
     Hard:
     13:
     0.626,0.616,0.174,0.313,0.200:
0001
0100
0001
0200
0000
0000
0300
0010
,
1000
0100
1000
0200
0000
0000
0300
1000
,
0002
0000
0023
0000
1030
0010
0001
2000
,
0000
3100
1000
0100
0010
0001
0100
0000
,
0010
1000
0100
0010
0000
0100
0010
0001
,
1000
0010
0100
0010
0000
0100
0010
0100
,
0001
0010
0100
1000
0000
0100
1000
0001
,
0100
0010
0100
0001
0000
0100
0001
0000
,
1000
0100
0010
0100
0000
0010
0100
1000
,
0001
1000
0010
0100
0000
0010
0100
0010
,
1000
0000
0000
0100
0000
0000
0010
0000
0101
0000
0000
0000
0000
0000
1001
0000
,
0001
1000
0100
0010
0001
1000
0001
0000
,
0010
0001
0010
0000
0001
0000
2000
0000
0000
0000
0000
0000
3000
0000
0010
0000
,
1000
0000
0100
0000
0010
0000
0002
0000
0000
0000
0000
0000
0003
0000
0100
0010
,
0100
0001
0010
0200
0000
0000
0300
1000
,
0010
0100
0010
2000
0000
0000
0000
3000
,
0010
1000
0010
0000
1000
0000
0002
0000
0000
0000
0000
0000
0003
0000
0010
0000
,
0100
0000
1000
0000
0010
0000
0200
0000
0000
0000
0000
0000
0300
0000
0001
1000
,
0001
0000
0000
0100
0000
0000
0010
0100
0010
0000
1000
0000
0100
0000
0010
0001
,
0010
0000
0001
0000
0100
0000
0010
0100
0020
0000
0000
0000
2030
0000
0000
0000
,
3002
0000
0000
0000
0000
0000
0000
0100
,
0100
0000
0000
0000
0000
0000
0000
0000
0000
0000
1000
0000
0000
0000
1003
0100
,
2000
0000
0000
0000
0000
0000
0000
0001
,
0001
0000
0000
0001
3001
1000
0100
0010
,
0002
0000
0000
0203
0000
0000
0302
1000
,
1000
0000
0000
0000
0000
0000
0000
0000
0000
0000
1000
0000
0000
0000
1003
0100
,
2000
0000
0000
3020
0000
0000
0130
0002
,
0010
0000
0000
0010
0013
0100
1000
0001
,
0100
0001
0011
0000
0100
1000
1001
0000
,
0001
0100
1000
0100
0001
0010
0100
1000
,
0010
0100
0101
0000
0010
1000
1001
0000
,
0001
0100
0010
0001
0010
0100
0001
1000
,
0100
0010
0011
0000
0100
1000
1001
0000
,
0001
0100
1000
0100
0001
1000
0001
0100
,
0010
1000
0100
0010
0001
1000
0010
1000
,
0001
0010
0001
0010
0001
0000
0000
0000
1000
0001
1000
0001
1000
0000
0000
0000
,
0010
0000
0000
0010
0100
0000
0010
0000
2000
0000
0001
0000
3001
0000
0000
0000
,
0020
0001
0031
0000
0110
0000
1001
0000
,
1000
0000
0000
1000
0001
0000
0010
0000
0002
0000
0100
0000
0103
0000
0000
0000
,
0020
1000
1030
0000
0011
0000
1100
0000
,
0010
0000
0001
0000
1000
0000
0000
1000
0001
0000
0100
0000
0010
0000
0100
0000
,
0002
0010
0013
0000
0200
1000
1300
0000
,
1001
0000
0000
0001
0100
0000
0001
0000
1000
0000
0100
0000
0010
0000
0000
0000
,
0100
1000
0100
1000
0001
0100
0001
0100
0010
1000
0010
1000
,
0000
0000
1001
0000
0000
1001
0000
0000
0000
0000
0101
0000
0000
0101
0000
0000
,
1001
1000
0000
0000
,
0100
0000
0000
0010
0000
0000
0000
0000
,
0001
0001
0000
0000
,
0100
0000
0000
0010
0000
0000
0000
0000
,
1000
0001
1000
0000
0100
0010
0001
0000
,
1000
0010
1000
0000
0010
0100
0001
0000
,
1000
0010
0100
1000
0100
0010
1000
0001
,
0010
0001
0010
0001
0010
0000
0100
0000
1001
0000
0000
0000
0110
0000
0000
0000
,
0010
1000
0010
0000
0100
0000
0002
0000
1000
0000
0000
0000
1003
0000
0001
0000
,
0010
0000
1000
0000
0010
0000
0002
0000
0000
0000
0000
0000
1003
0000
0001
0010
,
0100
0000
0010
0000
0001
0000
0200
0000
0000
0000
0000
0000
0301
0000
1000
0010
,
0100
0000
0010
0000
1000
0000
0100
0000
0010
0100
0010
0100
0010
0000
0001
0000
,
1000
0010
1000
0000
0001
0000
0020
0000
0000
0000
0000
0000
0031
0000
1000
0000
,
0100
0000
0001
0000
0100
0000
2000
0000
0000
0000
0000
0000
3010
0100
0010
0100
,
0001
1000
0001
1000
0001
0000
0100
0000
0010
0000
1000
0000
0001
0000
0010
0000
,
0100
0010
0100
0010
0100
0000
1000
0000
0002
0000
1000
0000
2003
0000
0000
0000
,
3010
0000
0000
0000
,
0100
0010
0100
0010
0100
0000
0001
0000
0010
0000
0100
0000
1000
0000
0001
0000
,
0100
0010
0100
0001
0010
0100
1000
0000
,
1000
0010
1000
0100
0010
0001
0100
0000
,
0100
0010
1000
0100
0010
0100
1000
0000
,
1000
0001
0100
0001
1000
0100
0010
0000
,
0001
0100
1000
0100
0001
0010
0100
0000
,
1000
0000
0010
0000
0001
0000
0010
0000
1000
0000
0100
0000
0010
0000
0100
1000
,
0200
0000
0320
0000
0031
1000
0100
0010
,
0100
1000
0100
0010
0010
0100
0100
0010
;

//---------------dance-single - ----------------
#NOTES:
     dance-single:
     :
     Challenge:
     16:
     0.836,0.863,0.296,0.304,0.626:
1000
0000
0000
1000
0010
0000
0000
0010
1000
0000
0000
1000
0001
0000
0000
0001
,
0100
0000
0000
0100
0010
0000
0000
0010
1000
0000
0000
1000
0001
0000
0000
0001
,
0010
0000
0000
0010
0001
0000
0000
0001
0100
0000
0000
0100
0010
0000
0000
0010
,
1000
0000
0000
1000
0001
0000
0000
0001
0010
0000
0100
0010
0100
0010
0100
0000
,
1001
1000
0010
1000
0001
0011
0100
1000
,
0001
0000
0101
0000
0010
0000
1000
0000
0010
0000
0010
0000
0010
0000
0100
0001
,
0010
0100
1000
0001
0100
1010
0100
0010
,
0001
1100
0010
0001
0100
0100
0100
0000
,
1001
1000
0010
1000
0100
0011
0100
1000
,
0010
0000
0101
0000
0010
0000
1000
0000
0100
0000
0100
0000
0100
0000
1000
0010
,
0100
0000
0001
1000
0000
1000
0001
0000
0011
0000
0100
0000
1000
0000
0101
0000
,
0010
1000
0100
0010
0001
0001
1000
1000
,
0100
0010
0002
0000
0100
0000
0203
0000
0000
0000
0010
0000
0000
0000
0310
0000
,
1000
0000
0100
0000
0010
0000
0002
0000
1000
0000
1000
0000
1003
0000
0001
0100
,
0010
0100
0001
2000
0000
0100
0000
3100
,
0010
0001
1000
0020
0100
0100
0130
0000
,
0001
0010
0100
0000
0010
0000
0002
0000
0000
0000
1000
0000
0000
0000
1003
0000
,
0001
0000
0010
0000
0100
0000
2000
0000
0010
0000
0010
0000
3010
0000
0100
0001
,
0010
0000
0100
1000
0000
1000
0010
0100
0001
0000
0001
0000
0001
0000
0010
0100
,
1000
0000
0010
0000
0100
0000
0010
1000
0001
0000
0100
0010
0100
0010
0100
0000
,
2001
0000
0000
3200
0000
0000
0320
0001
,
0032
0000
0000
0000
0000
0000
0103
0000
0000
0000
1010
0000
0000
0000
0010
1000
,
0020
0000
0000
0230
0000
0000
0302
0010
,
0023
0000
0000
0000
0000
0000
0130
0000
1000
0000
0010
0100
0000
0010
0100
0000
,
0002
0000
0000
0023
0000
0000
0230
0010
,
0320
0000
0000
0000
0000
0000
0031
0000
0000
0000
1100
0000
0000
0000
1000
0001
,
2000
0000
0000
3200
0000
0000
0320
0100
,
0230
0000
0000
0000
0000
0000
1300
0000
0001
1000
0001
1000
0100
1000
0100
1000
,
0001
0000
0100
0000
0010
0000
0100
0000
0001
0010
0001
0010
0100
1000
0100
1000
,
0001
0000
1000
0000
0010
0000
1000
0000
0100
0010
0100
0010
0001
0100
0001
0100
,
0010
0000
1000
0000
0100
0000
1000
0000
0001
0100
0001
0100
0001
1000
0001
1000
,
0100
0010
0100
1000
0001
1000
0100
0010
,
0002
0000
0100
0000
0103
0000
0010
1000
0200
0000
0010
0000
0310
0000
0001
0100
,
0020
0000
1000
0000
1030
0000
0001
0010
0200
0000
0010
0000
0310
0000
0001
1000
,
0100
0000
1100
0000
0010
0000
0001
0100
0010
0000
0110
0000
1000
0100
0010
0001
,
0100
0010
1000
0010
0100
0000
0010
0000
1000
0100
0010
0100
1000
0100
0010
0001
,
0100
0010
0000
0100
0010
0000
0100
0000
1001
0000
0100
0000
0110
0000
0000
0000
,
0011
0100
1000
0000
1100
0010
0001
0000
,
0100
0010
0000
0100
0010
0000
1000
0000
1001
0000
0100
0000
0110
0000
0000
0000
,
0101
0010
1000
0000
1010
0100
0001
0000
,
0010
0100
1000
0001
0100
0010
0000
0100
0010
0000
0100
0000
1001
0000
0000
0000
,
1100
0010
0001
0000
0011
0100
1000
0000
,
0010
0100
0000
0010
0100
0000
0001
0000
0110
0000
0100
0000
1001
0000
0000
0000
,
1000
0100
0001
0100
1000
0001
0010
1000
0010
0001
0100
0010
,
1000
0000
1100
0000
0000
1001
0000
0000
0010
0000
0011
0000
0000
1001
0000
0000
,
1000
0100
0010
0002
0000
0000
1003
0001
,
0001
0000
0010
0000
0100
0000
2000
0000
0000
0000
0000
0000
3001
0000
1000
0010
,
1000
0010
0100
0002
0000
0000
1003
0001
,
0001
0100
0010
2000
0000
0000
3001
0000
,
1000
0000
0100
0000
0001
0000
0100
0000
1000
0000
0001
0100
0010
0000
0010
0000
,
1000
0000
0010
0000
0001
0000
0010
0000
1000
0000
0100
0000
0010
0000
0100
1000
,
0020
0000
0100
0000
0130
0000
0001
0010
0200
0000
0010
0000
0310
0000
0001
1000
,
0010
0100
0010
1000
0001
0000
1000
0000
1100
0000
0010
0001
2000
0000
0000
0000
,
3001
0100
0010
0000
0100
0000
0001
0000
1000
0100
0010
0000
0100
0000
1000
0000
,
0010
0000
0001
0000
0010
0000
1000
0000
0001
0000
1000
0000
0010
0100
0001
0010
,
0100
0000
1000
0000
0010
0000
0001
0000
0010
0000
1000
0000
0100
1000
0001
0010
,
0100
0000
0010
0000
0001
0000
1000
0000
0001
0100
0010
1000
0100
0000
0100
0000
,
0010
0001
1000
0000
0010
0000
1000
0000
0001
0010
0100
0000
0010
0000
0001
0000
,
0100
0000
1000
0000
0100
0000
0001
0000
1000
0000
0001
0000
0010
0100
1000
0001
,
0100
0010
1000
0010
0100
0000
0010
0000
0101
0000
0010
0000
1000
0000
0010
0000
,
0100
0001
0010
0001
0100
0000
0010
0000
1000
0100
0010
0000
0001
0010
0100
1000
,
0001
0000
0000
0000
,
1000
0001
0100
0001
1000
0000
0100
0000
0010
0100
0010
0100
1000
0010
0100
0000
,
0001
0000
0000
0001
1000
0000
0000
1000
0100
0000
0000
0100
0010
0000
0000
0010
,
0001
0000
0000
0001
0100
0000
0000
0100
1000
0000
0000
1000
0100
0000
0000
0100
,
0001
0000
0000
0001
0010
0000
0000
0010
0100
0000
0000
0100
1000
0000
0000
1000
,
0010
0000
0000
0010
0100
0000
0000
0100
0001
0000
0000
0001
1000
0000
0000
0000
,
0010
0000
0100
0010
0100
0000
0001
0100
0001
0000
0100
0010
0100
0010
0100
0000
,
0001
0000
1000
0100
1000
0000
0001
1000
0001
0000
1000
0100
1000
0100
1000
0000
,
0001
0000
0010
0001
0010
0000
0100
0010
0100
0000
0010
0001
0010
0001
0010
0000
,
0100
0000
1000
0010
1000
0000
0002
0000
0100
0000
0100
0000
0100
0000
0103
0000
;

//---------------dance-single - ----------------
#NOTES:
     dance-single:
     :
     Beginner:
     2:
     0.109,0.153,0.043,0.000,0.000:
1000
0000
0000
0000
,
0100
0000
0000
0000
,
0010
0000
0000
0000
,
0001
0000
0000
0000
,
1001
0000
0000
0000
,
1000
0000
0000
0000
,
0001
0000
0000
0000
,
0010
0000
0000
0000
,
0001
0000
0000
0000
,
0100
0000
0000
0000
,
0010
0000
0010
0000
,
0010
0000
0000
0000
,
1001
0000
0000
0000
,
1000
0000
0000
0000
,
0001
0000
0000
0000
,
1000
0000
0000
0000
,
0010
0000
0100
0000
,
0010
0000
0100
0000
,
0001
0000
1000
0000
,
0001
0000
1000
0000
,
0001
0000
0000
0000
,
0000
0000
0000
0000
,
0010
0000
0000
0000
,
0000
0000
0000
0000
,
0100
0000
0000
0000
,
0000
0000
0000
0000
,
1000
0000
0000
0000
,
0000
0000
0000
0000
,
0001
0000
0100
0000
,
0001
0000
1000
0000
,
0100
0000
1000
0000
,
0100
0000
0010
0000
,
0001
0000
0100
0000
,
0010
0000
0100
0000
,
0001
0000
0001
0000
,
0001
0000
0000
0000
,
1001
0000
0000
0000
,
0000
0000
0000
0000
,
1000
0000
0000
0000
,
0000
0000
0000
0000
,
0000
0000
0001
0000
,
0000
0000
0000
0000
,
1000
0000
0000
0000
,
0010
0000
0000
0000
,
0000
0000
0000
0000
,
0110
0000
0000
0000
,
0000
0000
0000
0000
,
0010
0000
0000
0000
,
0000
0000
0000
0000
,
1001
0000
0000
0000
,
1000
0000
0000
0000
,
0001
0000
1000
0000
,
0001
0000
0000
0000
,
0010
0000
0001
0000
,
0010
0000
0000
0000
,
0100
0000
0010
0000
,
0100
0000
0000
0000
,
1000
0000
0100
0000
,
1000
0000
0000
0000
,
0001
0000
1000
0000
,
0001
0000
1000
0000
,
0100
0000
0000
0000
,
0010
0000
0001
0000
,
0100
0000
0000
0000
,
0100
0000
0000
0000
,
0010
0000
0000
0000
,
0010
0000
0000
0000
,
1000
0000
1000
0000
,
1000
0000
0000
0000
,
0001
0000
0001
0000
,
0001
0000
0010
0000
;
