#TITLE:Couleur=Blanche;
#SUBTITLE:;
#ARTIST:#FFFFFF;
#TITLETRANSLIT:;
#SUBTITLETRANSLIT:;
#ARTISTTRANSLIT:FFFFFF;
#CREDIT:DigiMindAxel;
#BANNER:Couleur Blanche.png;
#BACKGROUND:Couleur Blanche-bg.png;
#LYRICSPATH:jubeat.png;
#CDTITLE:jubeat.png;
#MUSIC:Couleur Blanche.ogg;
#METERTYPE:DDR X;
#OFFSET:-12.366;
#SAMPLESTART:90.945;
#SAMPLELENGTH:12.000;
#SELECTABLE:YES;
#BPMS:0.000=185.000,92.000=184.615,94.000=169.681,96.000=157.137,98.000=150.031,99.000=140.207,100.000=135.894,101.000=124.924,102.000=124.919,103.000=109.673,104.000=106.615,105.000=100.000,106.000=96.566,107.000=84.112,108.000=90.000,112.000=110.260,113.000=115.644,114.000=114.472,115.000=121.581,116.000=129.712,117.000=135.568,118.000=133.161,119.000=139.779,120.000=153.289,123.000=159.822,124.000=169.781,125.000=170.424,126.000=181.726,127.000=179.910,128.000=187.135,129.000=190.703,130.000=199.474,131.000=200.362,132.000=216.038,133.000=210.480,134.000=220.251,137.000=239.362,139.000=238.727,140.000=249.351,141.000=252.145,142.000=257.926,143.000=263.206,144.000=270.321,145.000=286.681,146.000=300.000,147.000=228.426,148.000=152.542,149.000=149.300,150.000=91.324,151.000=46.668,152.000=92.453,153.000=185.000,289.000=92.500,295.000=185.000;
#STOPS:;
#BGCHANGES:;

//---------------dance-single - ----------------
#NOTES:
     dance-single:
     :
     Easy:
     7:
     0.296,0.337,0.186,0.113,0.000: // measure 1
1000
0100
1000
0000
,  // measure 2
0001
1000
0001
0000
,  // measure 3
0010
0001
0100
0010
,  // measure 4
1000
0100
0010
0000
,  // measure 5
1001
0000
1001
0000
,  // measure 6
1001
0000
0010
0000
,  // measure 7
1001
0000
1001
0000
,  // measure 8
1001
0000
0100
0000
,  // measure 9
1001
0000
1001
0000
,  // measure 10
1001
0000
0010
0000
,  // measure 11
1001
0000
1001
0000
,  // measure 12
0002
0000
2003
0000
,  // measure 13
3001
0100
0000
0001
,  // measure 14
1000
0100
0000
0010
,  // measure 15
0001
0100
0000
0010
,  // measure 16
0100
0001
0000
0010
,  // measure 17
0100
1000
0000
0100
,  // measure 18
1000
0010
0000
1000
,  // measure 19
0010
0100
0000
0010
,  // measure 20
0100
0001
0000
0000
,  // measure 21
1001
0100
0010
0001
,  // measure 22
1000
0000
0100
1000
,  // measure 23
0100
0010
0001
0000
,  // measure 24
1001
0000
1001
0000
,  // measure 25
0110
0000
0110
0000
,  // measure 26
1001
0000
1001
0000
,  // measure 27
0110
0000
0220
0000
,  // measure 28
0330
0000
0000
0000
,  // measure 29
1001
1000
0001
0010
,  // measure 30
0100
1000
0200
1300
,  // measure 31
0010
0100
0010
1000
,  // measure 32
0100
0010
0001
1000
,  // measure 33
0010
0100
0010
0100
,  // measure 34
0010
0100
0001
0010
,  // measure 35
0100
1000
0100
1000
,  // measure 36
0001
0001
0100
0100
,  // measure 37
0010
1000
0010
1000
,  // measure 38
2002
0000
0000
0000
,  // measure 39
3003
2000
0000
0000
,  // measure 40
0000
0000
0000
0000
,  // measure 41
0000
3200
0000
0000
,  // measure 42
0000
0000
0000
0000
,  // measure 43
0000
0320
0000
0000
,  // measure 44
0000
0000
0000
0000
,  // measure 45
0000
0032
0000
0000
,  // measure 46
0000
0000
0000
0000
,  // measure 47
0000
1003
0001
1000
,  // measure 48
0001
1000
0100
0010
,  // measure 49
0000
0001
1000
0001
,  // measure 50
1000
0001
0010
0100
,  // measure 51
0000
0010
0001
0010
,  // measure 52
0001
0100
0010
0100
,  // measure 53
0010
1000
0100
0010
,  // measure 54
0001
1000
0100
0010
,  // measure 55
0001
1000
0000
0000
,  // measure 56
0000
0000
0000
2002
0000
0000
0000
0000
,  // measure 57
3003
0001
0100
0010
,  // measure 58
0100
0001
0010
0100
,  // measure 59
1000
0001
1000
0100
,  // measure 60
1000
0010
0100
0001
,  // measure 61
0000
1000
0100
1000
,  // measure 62
0001
1000
0100
0010
,  // measure 63
0001
0100
0010
0100
,  // measure 64
0001
0100
0001
1000
,  // measure 65
0100
0010
0001
0010
,  // measure 66
0001
1000
0010
0100
,  // measure 67
0000
0010
0100
0010
,  // measure 68
0100
0001
0010
0100
,  // measure 69
1000
0010
0010
0100
,  // measure 70
0100
0001
1000
0100
,  // measure 71
0010
0001
0001
0001
,  // measure 72
1000
1000
1000
0100
,  // measure 73
0010
0001
0000
1000
,  // measure 74
0100
0000
0010
0000
0001
0000
0100
0010
,  // measure 75
0100
0010
0100
0010
0100
0010
0200
0000
,  // measure 76
0000
0000
0000
0300
;

//---------------dance-single - ----------------
#NOTES:
     dance-single:
     :
     Medium:
     12:
     0.537,0.574,0.308,0.332,0.016: // measure 1
1000
0000
1000
0000
0100
1000
0100
0000
,  // measure 2
0010
0001
0100
0010
0100
0010
0100
0000
,  // measure 3
0001
1000
0001
1000
0001
0010
0001
0010
,  // measure 4
0200
0000
0000
0310
,  // measure 5
0022
0033
2200
3300
,  // measure 6
0022
0033
1001
0110
,  // measure 7
2020
3030
0202
0303
,  // measure 8
2020
3030
1001
0110
,  // measure 9
0022
0033
2200
3300
,  // measure 10
0022
0033
1001
0110
,  // measure 11
2020
3030
0202
0303
,  // measure 12
0200
0010
0010
0010
0000
0010
0310
0000
,  // measure 13
1000
0100
0010
0001
0000
0001
1000
0000
,  // measure 14
0010
0100
0010
1000
,  // measure 15
0001
0010
0100
1000
0000
1000
0001
0000
,  // measure 16
1000
0010
1000
0001
,  // measure 17
0010
0100
1000
0001
0000
0001
0100
0000
,  // measure 18
0001
1000
0100
1000
,  // measure 19
0001
0100
0010
1000
0000
1000
0001
0000
,  // measure 20
1000
0100
0010
0001
,  // measure 21
0100
0001
0010
0100
0000
1000
0010
0000
,  // measure 22
0100
0000
0010
1000
0001
0010
0100
1000
,  // measure 23
0000
0001
0100
0000
0010
0000
0100
0001
,  // measure 24
1000
0100
0010
0001
0000
1000
0010
0000
,  // measure 25
0101
0100
1100
0010
,  // measure 26
0001
0100
0010
1000
1100
0000
0010
0000
,  // measure 27
0101
0100
1001
0002
,  // measure 28
0200
0000
0000
0303
,  // measure 29
1001
0000
1100
0000
0000
0010
0110
0000
,  // measure 30
1001
0000
0011
0000
0000
0100
0110
0000
,  // measure 31
1000
0100
0010
0100
1000
0001
0100
0000
,  // measure 32
1001
0000
1000
0000
0010
0100
0001
0000
,  // measure 33
1001
0000
1000
0100
0010
0000
0010
0000
,  // measure 34
0001
1000
0100
0000
1100
0000
0010
0001
,  // measure 35
1000
0000
1100
0000
0010
0001
0100
0000
,  // measure 36
0010
0100
0010
0100
0001
0010
0001
0010
,  // measure 37
0200
2300
3020
0130
,  // measure 38
0220
0000
0000
0000
,  // measure 39
0330
1000
1000
0100
,  // measure 40
0010
0001
1000
0100
,  // measure 41
0010
0001
0001
0100
,  // measure 42
0010
0100
0001
0010
,  // measure 43
0100
1000
1000
0001
,  // measure 44
0001
0100
0010
1000
,  // measure 45
0100
0000
0010
0001
0010
0002
0000
0000
,  // measure 46
1003
0100
1000
0200
0000
0000
1300
0010
,  // measure 47
0100
0010
1000
0001
0010
0000
0100
1000
,  // measure 48
0100
0000
0010
0001
1000
0000
0010
0100
,  // measure 49
0010
0000
0100
0001
0010
0000
0100
0010
,  // measure 50
0100
0000
1000
0010
0100
0000
0001
0010
,  // measure 51
0100
1000
0001
0000
0101
0000
1000
0000
,  // measure 52
1100
1001
0011
0100
,  // measure 53
1010
0000
0100
0001
0100
0001
1000
0100
,  // measure 54
0010
0001
0200
0000
0010
0000
0010
0000
,  // measure 55
0010
0310
0000
0000
,  // measure 56
0000
0000
0000
0000
0000
0000
1000
0000
0000
0100
0000
0000
0010
0000
0001
0000
,  // measure 57
1000
0000
0010
0100
0010
1000
0100
0010
,  // measure 58
0001
0000
0000
0000
0000
0000
1000
0000
0000
0010
0000
0000
1000
0000
0001
0000
,  // measure 59
0010
0000
0100
0010
0100
0000
1000
0010
,  // measure 60
0100
0000
0001
1000
0001
1000
0010
0100
,  // measure 61
0001
0000
1000
0100
1000
0001
0100
0010
,  // measure 62
0100
0000
0000
0000
0000
0000
0001
0000
0000
1000
0000
0000
0001
0000
0010
0000
,  // measure 63
0100
0000
1000
0010
1000
0020
0000
0000
,  // measure 64
0130
0001
0100
0002
0000
0000
0103
0010
,  // measure 65
1000
0000
0001
0010
0001
1000
0100
0010
,  // measure 66
0001
0000
0000
0000
0000
0000
1000
0000
0000
0001
0000
0000
1000
0000
0100
0000
,  // measure 67
0010
0000
0100
1000
0100
0000
0010
0001
,  // measure 68
0100
0000
0010
1000
0010
1000
0001
0010
,  // measure 69
0100
0000
1000
0100
1000
0100
1000
0001
,  // measure 70
1000
0001
1000
0010
0100
0001
0010
0000
,  // measure 71
0100
0000
0010
0001
0010
0001
0010
0001
,  // measure 72
0100
0010
0100
0010
0100
0001
0010
0100
,  // measure 73
1000
0001
0100
0000
0000
0000
0002
0003
,  // measure 74
0020
0030
0200
0300
2000
3000
0001
1000
,  // measure 75
0100
0001
0100
1000
0001
0010
0100
1000
,  // measure 76
0001
0010
1000
0010
0001
1000
0020
0000
,  // measure 77
0000
0000
0000
0000
,  // measure 78
0000
0000
0000
0000
,  // measure 79
0000
0000
0000
0030
;

//---------------dance-single - ----------------
#NOTES:
     dance-single:
     :
     Hard:
     16:
     0.784,0.924,0.364,0.219,0.494: // measure 1
0011
0000
0000
0001
0000
0000
0001
0000
0000
0110
0000
0000
0100
0000
0010
0000
,  // measure 2
1000
0000
0000
1000
0000
0000
1000
0000
0000
0110
0000
0000
0100
0000
0010
0000
,  // measure 3
0001
1000
0001
0000
1000
0100
1000
0000
0001
0010
0001
0000
1000
0001
1000
0000
,  // measure 4
0010
0100
0010
0100
0010
0100
0010
0100
0010
0100
0010
0100
0010
0000
0000
0000
,  // measure 5
2000
0100
3100
0000
0020
0001
0031
0000
,  // measure 6
0200
0000
0010
0000
0310
0000
0000
0000
1000
0000
0001
0100
0002
0000
0000
0000
,  // measure 7
0023
0100
0130
0000
2000
0010
3010
0000
,  // measure 8
0200
0000
0001
0000
0301
0000
0000
0000
1000
0000
0100
1000
0200
0000
0000
0000
,  // measure 9
0320
0001
0031
0000
0200
0010
0310
0000
,  // measure 10
2000
0000
0100
0000
3100
0000
0000
0000
0010
0000
0001
0100
0002
0000
0000
0000
,  // measure 11
0203
0010
0310
0000
2000
0001
3001
0000
,  // measure 12
0010
0000
0001
0010
0001
0000
0020
0000
0000
0000
0130
0010
0200
0000
0000
0000
,  // measure 13
1300
0010
0100
0001
0000
1000
1100
0000
,  // measure 14
0010
0001
1000
0001
0010
0001
1000
0000
,  // measure 15
0001
0010
0100
1000
0000
0001
0101
0000
,  // measure 16
0010
1000
0100
1000
0010
1000
0100
0000
,  // measure 17
1000
0001
0010
0100
0000
1000
1010
0000
,  // measure 18
0010
0100
0001
1000
0010
0100
0010
0000
,  // measure 19
0100
0001
1000
0100
0000
0010
0110
0000
,  // measure 20
1000
0000
0001
0000
0010
0000
0100
0000
0010
0000
0001
1000
0001
0000
0000
0000
,  // measure 21
0011
0100
1000
0001
0000
0100
0110
0001
,  // measure 22
0010
0100
1000
0010
1010
0100
0001
0010
,  // measure 23
0000
0100
0110
1000
0100
0010
0100
1000
,  // measure 24
0011
0100
1000
0010
0100
0010
0100
0010
,  // measure 25
1001
0000
0010
0000
0100
0000
1000
0000
0001
0000
0100
0010
0100
0000
0001
0000
,  // measure 26
1100
0000
0010
0000
0001
0000
0100
0000
0010
0000
1000
0001
1000
0000
0000
0000
,  // measure 27
1100
0000
0010
0001
0010
0100
1000
0000
0010
0100
0001
0100
0020
0000
0000
0000
,  // measure 28
2000
0000
0000
3030
,  // measure 29
1001
0000
0001
0100
0010
0100
0001
0000
1000
0000
0100
1000
0010
0000
0000
0000
,  // measure 30
1001
0000
1000
0100
0010
0100
1000
0000
0001
0000
0100
0001
1000
0000
0000
0000
,  // measure 31
0100
0000
0010
0000
0001
0100
0000
0001
1000
0000
0010
0100
0010
0000
0000
0000
,  // measure 32
1100
0010
0001
1000
0010
0010
0110
0000
,  // measure 33
1000
0010
0001
0010
1000
0100
0010
0100
,  // measure 34
1000
0100
0001
0100
1000
0100
0010
0001
,  // measure 35
0201
0000
0320
0000
1030
0001
0010
0000
,  // measure 36
0001
0010
1000
0010
0001
1000
0010
1000
,  // measure 37
0001
0010
0100
1000
0001
0100
1000
0100
,  // measure 38
0002
1000
1000
2000
,  // measure 39
3003
0000
0000
0000
0001
0000
0000
0001
0000
0000
0001
0000
1000
0000
0010
0000
,  // measure 40
0001
0000
0010
0000
1000
0000
0001
0000
0000
0010
0000
0000
0100
0000
1000
0000
,  // measure 41
0010
0000
0100
0000
0001
0000
0000
0001
0000
0000
0001
0000
1000
0000
0000
1000
,  // measure 42
0000
0000
1000
0000
0001
0000
0010
0000
0100
0000
0000
1000
0000
0000
1000
0000
,  // measure 43
0100
0000
0010
0000
0001
0000
0000
0001
0000
0000
0001
0000
1000
0000
0100
0000
,  // measure 44
0001
0000
0100
0000
1000
0000
0010
0000
0000
0010
0000
0000
0100
0000
0001
0000
,  // measure 45
0010
0100
1000
0010
0100
0002
0000
0000
,  // measure 46
1003
0100
0010
0002
0000
0000
1003
0100
,  // measure 47
0001
0000
0100
0000
1000
0000
0010
1000
0000
0010
1000
0000
0001
0000
0100
0010
,  // measure 48
0000
0100
0001
0000
1000
0000
0001
0010
0000
0001
0010
0000
0100
0000
1000
0010
,  // measure 49
0000
1000
0001
0000
0010
0000
0100
1000
0000
0100
1000
0000
0001
0000
0100
0010
,  // measure 50
0000
0100
0001
0000
1000
0000
0100
0010
0000
0100
0010
0000
0001
0000
1000
0010
,  // measure 51
0000
1000
0001
0000
0010
0000
0100
0000
1000
0000
0001
0000
0100
0000
0001
0000
,  // measure 52
1000
0000
0010
0000
0001
0000
0010
0000
1000
0100
0000
1000
0001
0000
1000
0000
,  // measure 53
0100
0010
0001
0001
0100
0100
0010
0010
,  // measure 54
1000
0000
1000
0000
0100
1000
0100
0000
1000
0001
1000
0000
0001
0010
0001
0000
,  // measure 55
1000
0001
1000
0001
1000
0000
0000
0000
0000
0000
0000
0000
0000
0000
0000
0000
,  // measure 56
0000
0000
0000
0000
0000
0000
1100
0000
0000
0011
0000
0000
1001
0000
0010
0100
,  // measure 57
0010
0000
0000
0000
1000
0000
0001
0100
0000
0001
0100
0000
0001
0000
1000
0000
,  // measure 58
0100
0000
0011
0000
0000
0000
1001
0000
0000
1010
0000
0000
0101
0000
0010
0000
,  // measure 59
1000
0001
1000
0000
0100
0000
0010
0001
0000
1000
0010
0000
0100
0000
0001
1000
,  // measure 60
0000
0100
1000
0000
0000
0000
0101
0000
0100
0000
0000
0110
0000
0000
0010
0000
,  // measure 61
0100
0000
0001
0000
0010
0000
0100
1000
0000
0001
1000
0000
0010
0000
0100
0000
,  // measure 62
0001
0000
1100
0000
0000
0000
0011
0000
0000
0110
0000
0000
1100
0000
0010
0000
,  // measure 63
0001
1000
0001
0000
0100
0001
0100
0001
1000
0000
0100
0000
0010
0000
0001
0000
,  // measure 64
0100
0010
0100
0010
1000
0000
0001
0000
0010
0000
0100
0000
0010
0001
0010
0000
,  // measure 65
0100
0010
0100
0000
1100
0000
0010
0000
0001
0000
0100
0010
0000
0100
0001
0000
,  // measure 66
1000
0000
1100
0000
0000
0000
0011
0000
0000
0110
0000
0000
1100
0000
0010
0000
,  // measure 67
0001
1000
0001
0000
0100
0000
0010
1000
0000
0001
1000
0000
0100
0000
0010
0001
,  // measure 68
0000
1000
0010
0000
0000
0000
0101
0000
0100
0000
0000
0110
0000
0000
0010
0000
,  // measure 69
1000
0100
0011
0100
1000
0001
0101
0010
,  // measure 70
1000
0010
1001
0100
0010
0001
1100
0010
,  // measure 71
0001
1000
0001
0000
0100
0010
0100
0010
1000
0000
0100
0000
0010
0000
0001
0000
,  // measure 72
0100
0001
0100
0001
1000
0100
1000
0000
0001
0010
0001
0000
0010
0100
0010
0100
,  // measure 73
1000
0010
0100
0010
1000
0000
1000
0000
1000
0000
1000
0000
1000
0000
0100
0000
,  // measure 74
0100
0000
0010
0000
0010
0000
0001
0000
2002
0000
3003
0000
0100
0001
0100
0001
,  // measure 75
1000
0100
1000
0100
0010
0001
0010
0001
1000
0010
1000
0010
1000
0100
0010
0001
,  // measure 76
1000
0010
0100
1000
0100
0010
1000
0001
0010
0100
1000
0001
2000
0000
0000
0000
,  // measure 77
0000
0000
0000
0000
,  // measure 78
0000
0000
0000
0000
,  // measure 79
0000
0000
0000
3000
;

//---------------dance-single - ----------------
#NOTES:
     dance-single:
     :
     Challenge:
     18:
     1.000,1.000,0.648,0.486,0.891: // measure 1
1010
0000
0010
0100
0000
0001
0100
0000
0000
1001
0000
0000
1100
0000
0010
0000
,  // measure 2
0011
0000
0100
1000
0010
1000
0100
1000
0000
0010
0100
0010
1000
0001
0010
0100
,  // measure 3
1000
0001
1000
0001
0100
0001
0100
0001
0010
0100
0010
0100
1000
0010
1000
0010
,  // measure 4
1000
0100
0010
0001
1000
0010
0100
1000
0100
0010
1000
0002
0200
0000
0303
0000
,  // measure 5
0102
0000
1003
0100
0010
0000
0100
0000
1200
0000
1300
0010
0100
0000
0001
0000
,  // measure 6
0021
0000
0031
0010
0100
0000
1000
0000
1020
0000
0130
0001
0020
0000
0030
0000
,  // measure 7
1200
0000
1300
0001
0010
0000
0100
0000
0021
0000
0031
0100
0010
0000
0100
0000
,  // measure 8
1020
0000
1030
0100
0010
0000
0001
0000
0210
0000
0310
0100
0002
0000
0003
0000
,  // measure 9
0120
0000
0130
1000
0010
0000
0100
0000
1002
0000
1003
0010
0100
0000
0010
0000
,  // measure 10
0102
0000
1003
0100
0010
0000
0100
0000
1020
0000
0130
0001
0020
0000
0030
0000
,  // measure 11
1200
0000
1300
0010
0100
0000
0001
0000
0021
0000
0031
0010
0100
0000
1000
0000
,  // measure 12
1020
0000
0130
0001
0020
0000
0200
0000
0330
0000
1000
0100
0020
0000
0030
0000
,  // measure 13
0101
0010
2000
0100
0000
3100
0011
0100
,  // measure 14
1000
0010
0200
0001
0000
0301
1100
0000
,  // measure 15
0011
0100
2000
0010
0000
3010
0101
0010
,  // measure 16
1000
0100
0020
0100
0000
0130
1100
0000
,  // measure 17
0011
0100
2000
0010
0000
3010
0110
1000
,  // measure 18
0011
0100
2000
0010
0000
3010
0110
0000
,  // measure 19
1010
0100
0002
0010
0000
0013
1100
0010
,  // measure 20
1001
0000
0010
0000
0100
0000
1000
0000
0001
0000
0100
0001
1000
0000
0000
0000
,  // measure 21
1100
0010
0001
1000
0100
0011
0011
0100
,  // measure 22
1000
0010
0110
0110
0101
0010
0100
1000
,  // measure 23
0001
1100
1100
0010
0001
1000
0110
0010
,  // measure 24
1010
0100
0001
0010
1100
0010
0001
1000
,  // measure 25
1100
0000
0010
0000
0001
0100
1000
0100
0001
0000
0010
0100
2000
0000
3010
0000
,  // measure 26
0101
0000
0010
0000
1000
0100
0001
0100
1000
0000
0100
0010
0001
0000
0001
0000
,  // measure 27
0110
0000
1000
0010
0001
0010
1000
0000
0100
0010
0001
1000
0020
0000
0000
0000
,  // measure 28
0200
0000
0000
0330
,  // measure 29
1000
0100
1000
0001
0100
0001
1000
0100
1000
0001
0100
0001
1000
0000
0000
0000
,  // measure 30
0100
0010
0001
1000
0010
0100
0010
1000
0001
0010
0100
0010
0001
0000
0000
0000
,  // measure 31
0010
0001
0100
0000
0010
1000
0000
1000
0100
0010
0001
1000
0010
0000
0000
0000
,  // measure 32
0100
0001
0010
0000
0100
0000
1000
0010
0100
0010
1000
0001
0010
0000
0000
0000
,  // measure 33
1001
0001
0010
0100
1100
1000
0010
0100
,  // measure 34
0101
0001
1000
0100
0010
0001
1001
0000
,  // measure 35
1000
0010
1000
0000
0010
0100
0010
0000
0100
0001
0100
0001
1000
0000
0000
0000
,  // measure 36
0100
1000
0100
0000
1000
0100
1000
0000
0001
1000
0001
0000
0010
0000
0100
0000
,  // measure 37
1000
0001
1000
0000
0001
0000
0100
0000
0010
1000
0010
1000
0001
0010
0001
0010
,  // measure 38
0002
0203
0320
2030
,  // measure 39
3001
0000
0000
0000
1100
0000
0000
0010
0000
0000
0001
0000
0100
0000
1000
0000
,  // measure 40
0100
0000
0001
0000
0010
0000
0200
0000
0000
0320
0000
0000
0031
0000
0100
0000
,  // measure 41
1000
0000
0100
0000
0002
0000
0000
0010
0000
0000
0013
0000
0200
0000
0000
1000
,  // measure 42
0000
0000
1300
0000
0001
0000
0100
0000
0020
0000
0000
0230
0000
0000
0301
0000
,  // measure 43
0010
0000
0100
0000
1000
0000
0000
0010
0000
0000
0100
0000
0001
0000
0010
0000
,  // measure 44
1000
0000
0010
0000
0001
0000
2000
0000
0000
3200
0000
0000
0310
0000
0100
0000
,  // measure 45
1000
0001
0100
1000
0100
0002
0000
0000
,  // measure 46
0013
1000
0010
0002
0000
0000
0013
0100
,  // measure 47
1000
0000
0001
0000
0100
0000
0001
1000
0000
0001
1000
0000
0100
0000
0010
0001
,  // measure 48
0000
0010
0001
0000
0010
0000
0100
1000
0000
0100
1000
0000
0010
0000
0100
0001
,  // measure 49
0000
0100
0001
0000
1000
0000
0010
1000
0000
0010
1000
0000
0100
0000
0010
0001
,  // measure 50
0000
0010
0001
0000
1000
0000
0010
0100
0000
0010
0100
0000
0010
0000
1000
0100
,  // measure 51
0000
1000
0100
0000
1001
0000
0001
0100
0001
0000
1000
0000
0010
0000
1000
0001
,  // measure 52
1000
0000
0100
0000
0010
0100
0010
0000
0001
0100
0000
0100
0010
0000
1000
0000
,  // measure 53
0100
0000
0010
0000
0001
0100
0001
0000
1000
0010
1000
0000
0001
1000
0001
0000
,  // measure 54
1000
0001
1000
0000
0001
0100
0001
0100
0010
1000
0010
1000
0100
0010
0100
0010
,  // measure 55
0001
1000
0100
0010
0002
0000
0000
0000
0000
0000
0000
0000
0000
0000
0000
0000
,  // measure 56
0000
0000
0000
0000
0003
0000
0011
0000
0000
0110
0000
0000
1100
0000
1000
0010
,  // measure 57
0200
0000
0000
0000
0310
0000
1000
0100
0000
0100
0010
0000
0001
0100
0010
0100
,  // measure 58
0001
0000
0110
0000
0000
0000
1100
0000
0000
0110
0000
0000
0011
0000
1001
0000
,  // measure 59
1000
0010
0100
0001
0010
0000
0100
0010
0000
0001
0100
0000
0001
0010
0100
1000
,  // measure 60
0000
0001
0100
0000
0000
0000
1001
0000
1100
0000
0000
0011
0000
0000
1001
0000
,  // measure 61
1000
0100
0010
0001
0100
0000
0001
0100
0000
0001
1000
0000
0100
0010
0001
0010
,  // measure 62
0100
0000
1100
0000
0000
0000
1001
0000
0000
0101
0000
0000
1010
0000
1000
0001
,  // measure 63
0010
0100
1000
0000
0001
0100
0010
0100
0001
1000
0100
1000
0100
0010
0001
0000
,  // measure 64
1000
0010
0100
0010
1000
0100
1000
0100
0010
0001
0010
0000
0001
0010
1000
0010
,  // measure 65
0001
1000
0100
0000
1001
0000
0001
0100
0000
0001
1000
0000
0100
0010
0001
1000
,  // measure 66
0100
0000
1100
0000
0000
0000
1001
0000
0000
0101
0000
0000
1010
0000
0100
0001
,  // measure 67
0010
0100
0010
0000
0101
0000
0010
1000
0000
0100
0010
0000
0001
0010
0100
1000
,  // measure 68
0000
0001
0100
0000
0000
0000
0110
0000
0101
0000
0000
1001
0000
0000
1010
0000
,  // measure 69
0100
0010
0001
0000
0100
0001
1000
0001
0100
0001
1000
0000
0100
1000
0001
1000
,  // measure 70
0100
0010
0100
0000
1000
0010
1000
0001
1000
0010
0100
0000
0001
0010
0100
0010
,  // measure 71
0001
0100
0010
0100
0001
1000
0100
1000
0001
1000
0100
0001
0100
1000
0001
0100
,  // measure 72
0010
0100
0001
1000
0100
1000
0001
0010
1000
0010
0001
1000
0100
0001
0100
1000
,  // measure 73
0001
0010
0100
1000
0002
0000
0203
0000
2300
0000
3200
0000
0302
0000
0023
0000
,  // measure 74
0230
0000
2300
0000
3010
0000
0110
0000
2002
0000
3003
0000
0001
0100
1000
0100
,  // measure 75
0001
0100
0010
0001
0010
0100
0001
1000
0001
0100
1000
0100
0001
1000
0100
0010
,  // measure 76
0100
1000
0001
0100
0001
1000
0100
0010
1000
0010
0100
1000
0020
0000
0000
0000
,  // measure 77
0000
0000
0000
0000
,  // measure 78
0000
0000
0000
0000
,  // measure 79
0000
0000
0000
0030
;

//---------------dance-single - ----------------
#NOTES:
     dance-single:
     :
     Beginner:
     6:
     0.215,0.491,0.194,0.000,0.000: // measure 1
1000
0000
1000
0000
,  // measure 2
0001
0000
0001
0000
,  // measure 3
0010
0100
0010
0100
,  // measure 4
0010
0100
0010
0000
,  // measure 5
1001
0000
1001
0000
,  // measure 6
1001
0000
0000
0000
,  // measure 7
0110
0000
0110
0000
,  // measure 8
0110
0000
0000
0000
,  // measure 9
1001
0000
1001
0000
,  // measure 10
1001
0000
0000
0000
,  // measure 11
0110
0000
0110
0000
,  // measure 12
0110
0000
0000
0000
,  // measure 13
1001
0001
0000
1000
,  // measure 14
0001
1000
0000
0100
,  // measure 15
1000
0100
0000
0010
,  // measure 16
0001
0010
0000
0001
,  // measure 17
1000
0001
0000
0100
,  // measure 18
0001
0100
0000
0001
,  // measure 19
1000
0001
0000
1000
,  // measure 20
0010
1000
0000
0001
,  // measure 21
1000
0000
0000
0100
,  // measure 22
0000
0000
0010
0000
,  // measure 23
0000
0001
0000
0000
,  // measure 24
1000
0000
0100
0000
,  // measure 25
1000
0000
0100
0000
,  // measure 26
0010
0000
0001
0000
,  // measure 27
0010
0000
0001
0000
,  // measure 28
0000
0000
0000
0000
,  // measure 29
1000
0000
1000
0000
,  // measure 30
0100
0000
0100
0000
,  // measure 31
0010
0000
0001
0000
,  // measure 32
0010
0000
0001
0000
,  // measure 33
0100
0000
0100
0000
,  // measure 34
0100
0000
0100
0000
,  // measure 35
0010
0000
0010
0000
,  // measure 36
0010
0000
0010
0000
,  // measure 37
0010
0000
0010
0000
,  // measure 38
0110
0000
0000
0000
,  // measure 39
0000
1000
0000
0000
,  // measure 40
0000
0000
0000
0000
,  // measure 41
0000
0100
0000
0000
,  // measure 42
0000
0000
0000
0000
,  // measure 43
0000
0010
0000
0000
,  // measure 44
0000
0000
0000
0000
,  // measure 45
0000
0001
0000
0000
,  // measure 46
0000
0000
0000
0000
,  // measure 47
0000
1000
0000
1000
,  // measure 48
0000
0001
0000
0001
,  // measure 49
0000
0010
0001
0010
,  // measure 50
0000
0001
1000
0001
,  // measure 51
0000
1000
0100
1000
,  // measure 52
0100
1000
0100
1000
,  // measure 53
0100
1000
0001
1000
,  // measure 54
0001
1000
0001
1000
,  // measure 55
0001
0100
0000
0000
,  // measure 56
0000
1001
0000
0000
,  // measure 57
0000
0001
1000
0001
,  // measure 58
1000
0000
0000
0000
,  // measure 59
0000
0100
1000
0100
,  // measure 60
1000
0000
0000
0000
,  // measure 61
0000
0010
0100
0010
,  // measure 62
0100
0000
0000
0000
,  // measure 63
0000
0001
1000
0001
,  // measure 64
1000
0001
1000
0001
,  // measure 65
0000
0010
0001
0010
,  // measure 66
0001
0000
0000
0000
,  // measure 67
0000
0100
0010
0100
,  // measure 68
0010
0000
0000
0000
,  // measure 69
0000
1000
0001
1000
,  // measure 70
0001
1000
0001
1000
,  // measure 71
0001
0010
0001
0010
,  // measure 72
0001
0010
0001
0100
,  // measure 73
0010
0000
0000
0000
,  // measure 74
0000
0000
0000
1001
,  // measure 75
1001
1001
1001
0110
,  // measure 76
0110
0110
0110
0110
;
