#TITLE:Confiserie;
#SUBTITLE:;
#ARTIST:L.E.D. vs S-C-U;
#TITLETRANSLIT:;
#SUBTITLETRANSLIT:;
#ARTISTTRANSLIT:;
#CREDIT:DigiMindAxel;
#BANNER:Confiserie.png;
#BACKGROUND:Confiserie-bg.png;
#LYRICSPATH:;
#CDTITLE:jubeat.png;
#MUSIC:Confiserie.ogg;
#METERTYPE:DDR X;
#OFFSET:-7.097;
#SAMPLESTART:53.692;
#SAMPLELENGTH:12.000;
#SELECTABLE:YES;
#BPMS:0.000=185.000;
#STOPS:296.000=0.162162
;
#BGCHANGES:;

//---------------dance-single - ----------------
#NOTES:
     dance-single:
     :
     Easy:
     6:
     0.315,0.380,0.162,0.216,0.000: // measure 1
1001
0000
1001
0000
,  // measure 2
1001
0001
1000
0001
,  // measure 3
0010
0100
1000
0001
,  // measure 4
0110
0000
0000
0000
,  // measure 5
1000
0100
1000
0100
,  // measure 6
1000
0000
0001
0000
,  // measure 7
1000
0010
1000
0010
,  // measure 8
1000
0000
0001
0000
,  // measure 9
0010
0001
0010
0001
,  // measure 10
0010
0000
0100
0000
,  // measure 11
1000
0010
1000
0010
,  // measure 12
0100
0000
0001
0000
,  // measure 13
1000
0001
1000
0001
,  // measure 14
0010
0001
0010
0000
,  // measure 15
0001
1000
0001
1000
,  // measure 16
0100
1000
0100
0000
,  // measure 17
1000
0001
1000
0001
,  // measure 18
0100
0001
0100
0000
,  // measure 19
0001
1000
0001
1000
,  // measure 20
0010
1000
0010
0000
,  // measure 21
1000
0100
0010
0000
,  // measure 22
0001
0010
0100
0000
,  // measure 23
0010
0001
0010
0001
,  // measure 24
0100
0010
0100
0010
,  // measure 25
1000
0100
0010
0000
,  // measure 26
0001
0010
0100
0000
,  // measure 27
1000
0010
1000
0010
,  // measure 28
0100
0001
1000
0000
,  // measure 29
0010
0100
0001
0000
,  // measure 30
0100
0010
1000
0000
,  // measure 31
0001
0010
0001
0010
,  // measure 32
0100
1000
0001
0000
,  // measure 33
0100
0010
0100
0010
,  // measure 34
1000
0001
1000
0001
,  // measure 35
2002
0000
0000
0000
,  // measure 36
3003
0000
0000
0000
,  // measure 37
1000
0100
1000
0100
,  // measure 38
0010
0001
0100
0000
,  // measure 39
0010
1000
0010
0100
,  // measure 40
0020
0000
2030
0000
,  // measure 41
3001
0010
0001
0010
,  // measure 42
2002
0000
3003
0000
,  // measure 43
1000
0100
1000
0100
,  // measure 44
0010
0001
0100
0000
,  // measure 45
0010
0100
0010
0100
,  // measure 46
0001
1000
0001
1000
,  // measure 47
0100
0010
0001
0100
,  // measure 48
0020
0000
0230
0000
,  // measure 49
0301
0000
1001
0000
,  // measure 50
2002
0000
3003
0000
,  // measure 51
1000
0000
0100
0000
,  // measure 52
0010
0100
1000
0001
,  // measure 53
0200
0000
0000
0000
,  // measure 54
0302
0000
0000
0003
,  // measure 55
1001
0000
0000
0000
,  // measure 56
0000
0000
0000
0000
,  // measure 57
0000
0000
0000
0000
,  // measure 58
0000
0000
0000
0000
,  // measure 59
1001
0001
1000
0001
,  // measure 60
1000
0100
1000
0100
,  // measure 61
2002
0000
0000
0000
,  // measure 62
3003
0000
0000
0000
,  // measure 63
0220
0000
0000
0000
,  // measure 64
0330
0000
0000
0000
,  // measure 65
0001
0100
0001
0100
,  // measure 66
0010
1000
0100
0000
,  // measure 67
1000
0100
0010
0001
,  // measure 68
0020
0000
0031
0100
,  // measure 69
0020
0000
0230
0000
,  // measure 70
0302
0000
1003
0000
,  // measure 71
1001
0000
0110
0000
,  // measure 72
0001
0010
0100
1000
,  // measure 73
0020
0000
0000
0000
,  // measure 74
0200
0000
0000
0330
,  // measure 75
0000
1001
0000
0000
1001
0000
0000
0110
,  // measure 76
0000
0220
0000
0000
,  // measure 77
0000
0000
0000
0330
;

//---------------dance-single - ----------------
#NOTES:
     dance-single:
     :
     Medium:
     12:
     0.504,0.622,0.162,0.189,0.153: // measure 1
2002
3003
0220
0330
,  // measure 2
1001
0010
0100
1000
1010
0000
0101
0000
,  // measure 3
0001
1000
0100
0000
0010
0001
1000
0000
,  // measure 4
1001
0000
0000
0001
0000
0000
0001
0000
1000
0000
0000
0000
0000
0000
0000
0000
,  // measure 5
0010
0100
0000
0100
0000
0001
0000
0001
,  // measure 6
0000
1000
0000
1000
0000
0010
0000
0010
,  // measure 7
0100
0001
0000
0001
0000
1000
0000
1000
,  // measure 8
0000
0100
0000
0100
0000
0010
0100
1000
,  // measure 9
0000
1000
0000
1000
0000
0001
0000
0001
,  // measure 10
0100
0010
0000
0010
0000
0100
0000
0100
,  // measure 11
0001
1000
0000
1000
0000
0100
0000
0010
,  // measure 12
0001
0100
0001
0100
0000
0100
0000
0100
,  // measure 13
0001
0010
0100
0000
0010
0001
0010
0002
,  // measure 14
0000
0103
0010
0100
0000
0010
0000
0010
,  // measure 15
1000
0100
0010
0000
0100
1000
0100
1000
,  // measure 16
0001
0100
0000
0100
0000
0010
0100
0001
,  // measure 17
0000
1000
0001
1000
0001
1000
0000
0002
,  // measure 18
0000
0013
0100
1000
0100
1000
0001
0000
,  // measure 19
0010
0100
0000
1000
0000
1000
0010
0000
,  // measure 20
0100
0001
2001
0000
,  // measure 21
3001
0000
0000
0001
0000
0000
0001
0000
0000
0000
0100
0000
0010
0000
0000
0000
,  // measure 22
1000
0000
0000
1000
0000
0000
1000
0000
0000
0000
0010
0000
0100
0000
0000
0000
,  // measure 23
0001
0000
0000
0100
0000
0000
0001
0000
0000
0000
1000
0000
0100
0000
0010
0000
,  // measure 24
0000
0000
0001
0100
0001
1000
0100
0010
,  // measure 25
0001
0000
0000
0001
0000
0000
0001
0000
0000
0000
1000
0000
0001
0000
0000
0000
,  // measure 26
0100
0000
0000
0100
0000
0000
0100
0000
0000
0000
0001
0000
1000
0000
0000
0000
,  // measure 27
0001
0000
0000
0100
0000
0000
0001
0000
0000
0000
0010
0000
0100
0000
1000
0000
,  // measure 28
0000
0000
0001
0010
0001
0010
0100
0000
,  // measure 29
1001
0000
0000
0001
0000
0000
0001
0000
0000
0000
0100
0000
0010
0000
0000
0000
,  // measure 30
1000
0000
0000
1000
0000
0000
1000
0000
0000
0000
0100
0000
0010
0000
0000
0000
,  // measure 31
0001
0000
0000
0100
0000
0000
0001
0000
0000
0000
1000
0000
0100
0000
0010
0000
,  // measure 32
0001
0000
0010
0100
1000
0100
1000
0000
,  // measure 33
0001
0100
0001
0100
0001
0100
0010
0000
,  // measure 34
1000
0001
1000
0001
1000
0001
0010
0000
,  // measure 35
0001
0000
1000
0000
0001
0000
1000
0000
0001
0000
1000
0000
,  // measure 36
0000
0000
0000
0000
,  // measure 37
0100
0010
0001
0000
1000
0100
0010
0000
,  // measure 38
0100
1000
0100
1000
0001
0000
0100
0000
,  // measure 39
0010
1000
0100
0000
0010
0001
0100
0010
,  // measure 40
2000
0000
3001
0010
,  // measure 41
0100
1000
0010
0000
0100
0001
0010
0000
,  // measure 42
0001
0000
0000
0001
0000
0000
0001
0000
1000
0000
0000
0000
0000
0000
0000
0000
,  // measure 43
0100
0010
0001
0000
1000
0100
0010
0000
,  // measure 44
0001
0000
0000
0001
0000
0000
0001
0000
1000
0000
0000
0000
0000
0000
0000
0000
,  // measure 45
0010
0100
0001
0000
1000
0010
0100
0000
,  // measure 46
0001
1000
0001
1000
0100
0000
0010
0000
,  // measure 47
0001
1000
0100
0000
0010
0001
1000
0100
,  // measure 48
2000
0000
3002
0000
,  // measure 49
0103
0010
0000
0000
0010
0100
0000
0000
,  // measure 50
1001
0000
0000
0001
0000
0000
0001
0000
1000
0000
0000
0000
0000
0000
0000
0000
,  // measure 51
0100
0000
0000
0100
0000
0000
0100
0000
0010
0000
0000
0010
0000
0000
0010
0000
,  // measure 52
0001
0000
0000
0001
0000
0000
0001
0000
1000
0000
0000
1000
0000
0000
1000
0000
,  // measure 53
0020
0000
0000
0000
,  // measure 54
0200
0000
0000
0330
,  // measure 55
1001
0000
0000
0000
,  // measure 56
0000
0000
0000
0000
,  // measure 57
0000
0100
0000
0100
0000
0100
0000
0100
,  // measure 58
0000
0010
0000
0010
0000
0010
0000
0010
,  // measure 59
1001
0000
1000
0010
0000
1000
0001
0000
,  // measure 60
1001
0000
0001
0010
0000
0100
0010
0000
,  // measure 61
0001
0000
1000
0000
0001
0000
1000
0000
0001
0000
1000
0000
,  // measure 62
0000
0000
0000
0000
,  // measure 63
0100
0000
0010
0000
0100
0000
0010
0000
0100
0000
0010
0000
,  // measure 64
0000
0000
0000
0000
,  // measure 65
0001
1000
0010
0000
0100
0001
1000
0000
,  // measure 66
0100
0010
0100
0010
0001
1000
0010
0000
,  // measure 67
0100
0001
0010
0000
0001
0010
0100
1000
,  // measure 68
0020
0000
0000
0000
0130
0001
1000
0000
,  // measure 69
2200
3300
0220
0330
,  // measure 70
0011
0000
0000
0001
0000
0000
0001
0000
1000
0000
0000
0000
0000
0000
0000
0000
,  // measure 71
0010
0000
0000
0010
0000
0000
0010
0000
0100
0000
0000
0100
0000
0000
0100
0000
,  // measure 72
0001
0000
0000
0001
0000
0000
0001
0000
1000
0000
0000
1000
0000
0000
1000
0000
,  // measure 73
0200
0000
0000
0000
,  // measure 74
0020
0000
0000
0330
,  // measure 75
0000
0011
0000
0000
1100
0000
0000
1000
,  // measure 76
0100
0010
2002
0000
0000
0000
0000
0000
,  // measure 77
0000
0000
0000
3003
;

//---------------dance-single - ----------------
#NOTES:
     dance-single:
     :
     Hard:
     16:
     0.868,0.898,0.990,0.207,0.495: // measure 1
1001
0100
1001
0100
,  // measure 2
1001
0000
0010
0000
0100
0000
1000
0000
0001
0100
0001
0000
1000
0010
1000
0000
,  // measure 3
0001
1000
0100
0001
1000
0010
0001
1000
,  // measure 4
1001
0000
0000
0011
0000
0000
1100
0000
1001
0000
0000
0000
0000
0000
0010
0100
,  // measure 5
0010
1000
0100
0001
0100
1000
0100
0001
,  // measure 6
0000
0100
1000
0001
0000
0001
0000
0100
,  // measure 7
0010
1000
0010
0001
0010
1000
0010
0001
,  // measure 8
0010
1000
0100
0010
0000
0001
0100
0010
,  // measure 9
0000
1000
0100
0001
0100
1000
0000
0100
,  // measure 10
0010
0001
1000
0010
0100
0001
0100
1000
,  // measure 11
0100
0001
0000
0001
0000
0100
0020
1000
,  // measure 12
0000
1000
0000
1000
0000
1000
0000
1030
,  // measure 13
0001
0000
0100
0010
0100
0000
0001
0000
0010
0000
1000
0000
0010
0000
0002
0000
,  // measure 14
0000
1003
0010
0110
0000
0101
0000
1010
,  // measure 15
0100
0000
0010
0001
0010
0000
0100
0000
1000
0000
0010
0000
0001
0000
0010
0000
,  // measure 16
1000
0000
0100
0010
0001
0000
0100
0000
0000
0000
1010
0000
0100
0000
0010
0000
,  // measure 17
0000
0001
0100
1000
0100
0001
0010
0200
,  // measure 18
0000
0000
1300
0000
0010
0000
0100
0000
0010
0000
1000
0100
0010
0000
0001
0000
,  // measure 19
0100
0010
0000
1010
0000
1000
0001
0010
,  // measure 20
0001
0000
1000
0000
0001
0000
0010
0000
0100
1000
0100
0000
0010
0100
0010
0000
,  // measure 21
1001
0000
0000
0101
0000
0000
1010
0000
0000
0000
0100
0010
0001
0000
0100
0000
,  // measure 22
1010
0000
0000
0101
0000
0000
1001
0000
0000
0001
1000
0000
0100
0000
0010
0000
,  // measure 23
0011
0000
0000
1100
0000
0000
1001
0000
0000
0000
0010
0000
1000
0000
0100
0000
,  // measure 24
0001
0000
0100
0000
1000
0010
1000
0000
0001
0100
0001
0000
1000
0100
0010
0000
,  // measure 25
1001
0000
0000
1010
0000
0000
0101
0000
0000
0001
1000
0000
0100
0000
0010
0000
,  // measure 26
1001
0000
0000
1100
0000
0000
0011
0000
0000
0001
1000
0000
0100
0000
0010
0000
,  // measure 27
1100
0000
0000
0011
0000
0000
1001
0000
0000
0000
0010
0000
0100
0000
0010
0000
,  // measure 28
1000
0000
0100
0000
0001
0000
0100
0000
1000
0000
0010
0100
0001
0000
0001
0000
,  // measure 29
0110
0000
0000
1100
0000
0000
1001
0000
0000
0001
0100
0000
0010
0000
0100
0000
,  // measure 30
1010
0000
0000
0110
0000
0000
1001
0000
0000
1000
0001
0000
0010
0000
0001
0000
,  // measure 31
0110
0000
0000
1010
0000
0000
0101
0000
0000
0000
0010
0000
0010
0000
0100
0000
,  // measure 32
0001
0000
0010
0000
1000
0000
0010
0000
0001
0000
0100
0010
1000
0000
1000
0000
,  // measure 33
0001
0000
0001
0000
0001
0000
0001
0000
0010
0100
0010
0000
0001
0100
0010
0000
,  // measure 34
1000
0000
1000
0000
1000
0000
1000
0000
0100
1000
0100
0000
0010
0001
0100
0000
,  // measure 35
1010
0000
1010
0000
0101
0000
0101
0000
0110
0000
0220
0000
,  // measure 36
0000
0000
0000
0000
0000
0000
0000
0000
0000
0000
0000
0000
0330
0000
1000
0001
,  // measure 37
1000
0000
0100
1000
0100
0000
0010
0000
0001
0000
0100
0010
0100
0000
0010
1000
,  // measure 38
0010
0000
1000
0000
0010
0000
0001
0000
0010
0000
1000
0001
1000
0001
1000
0000
,  // measure 39
0010
0100
0001
0000
1000
0100
1000
0000
0100
0010
0001
0000
0100
0010
0100
0010
,  // measure 40
2000
0000
0000
0000
0000
0000
0000
0000
3001
0000
0010
0100
1000
0000
1000
0000
,  // measure 41
0010
0000
0100
0001
0000
0100
0001
0000
0010
0100
0010
0000
0100
1000
0100
0000
,  // measure 42
1001
0000
0000
1010
0000
0000
0101
0000
2002
0000
0000
0000
3003
0000
0000
0000
,  // measure 43
0001
0000
0100
0000
0010
1000
0001
1000
0010
0000
0100
0000
0001
1000
0001
0000
,  // measure 44
1001
0000
0000
1100
0000
0000
0011
0000
2002
0000
0000
0000
3003
0000
0000
0000
,  // measure 45
0100
0000
0100
0000
0100
0000
0010
1000
0001
0000
0010
0001
0100
0000
0001
0000
,  // measure 46
0100
0000
0100
0000
0100
0000
0010
1000
0001
0000
0010
0100
1000
0000
0010
0000
,  // measure 47
1000
0000
0100
0000
0001
0000
0100
0000
1000
0000
0001
0000
0100
0001
0100
0001
,  // measure 48
1000
0000
0100
0000
0010
0000
0001
0000
1000
0000
0010
0000
0100
0000
0010
1000
,  // measure 49
0001
0001
0001
0000
1000
1000
1000
0000
,  // measure 50
1100
0000
0000
0110
0000
0000
0011
0000
2002
0000
0000
0000
3003
0000
0000
0000
,  // measure 51
1010
0000
0000
1010
0000
0000
1010
0000
1001
0000
0000
1001
0000
0000
1001
0000
,  // measure 52
0011
0000
0000
0011
0000
0000
0011
0000
0110
0000
0000
0110
0000
0000
0110
0000
,  // measure 53
1001
0000
0100
0000
0010
0001
1000
0001
0010
0000
0100
1000
0100
0000
0010
0100
,  // measure 54
0020
0000
0000
0000
0000
0000
0000
0130
,  // measure 55
1001
0000
0000
0010
0000
0000
0100
0000
0000
0000
1000
0000
0010
0000
1000
0000
,  // measure 56
0001
0000
0000
0010
0000
0000
0100
0000
0000
0000
0010
0000
0001
0000
0010
0000
,  // measure 57
0100
0000
0000
1000
0000
0000
0010
0000
0000
0000
0100
0000
0001
0000
2000
0000
,  // measure 58
0000
0000
0000
3010
0100
0010
0100
0010
,  // measure 59
1001
0100
0010
0101
0000
0001
0010
0100
,  // measure 60
1010
0000
0100
0000
0010
0000
1001
0000
0000
0000
0100
1000
0001
0000
0001
0000
,  // measure 61
0110
0000
0110
0000
1010
0000
1010
0000
0101
0000
0202
0000
,  // measure 62
0000
0000
0000
0303
,  // measure 63
1001
0000
1001
0000
1100
0000
1100
0000
0011
0000
0022
0000
,  // measure 64
0000
0000
0000
0033
,  // measure 65
0001
0000
1000
0010
1000
0000
0001
0000
0010
0000
0100
1000
0100
0000
0010
0000
,  // measure 66
0001
0000
0100
0010
0100
0010
1000
0001
1000
0000
0000
0000
0010
0100
0010
0000
,  // measure 67
0100
0001
0100
0000
0001
1000
0001
0000
1000
0100
1000
0000
0010
0100
0010
0100
,  // measure 68
0002
0000
0000
0000
0000
0000
0000
0000
0013
0000
0100
1000
0001
0000
0001
0000
,  // measure 69
1001
0100
1001
0100
,  // measure 70
1001
0000
0000
0101
0000
0000
1010
0000
2002
0000
0000
0000
3003
0000
0000
0000
,  // measure 71
0011
0000
0000
0011
0000
0000
0011
0000
1001
0000
0000
1001
0000
0000
1001
0000
,  // measure 72
1010
0000
0000
1010
0000
0000
1010
0000
0110
0000
0000
0110
0000
0000
0110
0000
,  // measure 73
1001
0010
0100
1000
0010
0001
0010
1000
,  // measure 74
0100
0010
0100
0010
0001
0100
0001
0100
0010
0000
1000
0100
0010
0000
0001
0010
,  // measure 75
0000
1001
0000
0000
0110
0000
0000
1010
,  // measure 76
0010
0010
2002
0000
0000
0000
0000
0000
,  // measure 77
0000
0000
0000
3003
;

//---------------dance-single - ----------------
#NOTES:
     dance-single:
     :
     Challenge:
     18:
     1.000,1.000,0.477,0.234,1.000: // measure 1
1100
0010
0001
0000
0011
0100
1000
0000
,  // measure 2
0110
0000
0010
0000
1010
0000
1000
0000
0100
0010
0100
0010
0001
1000
0010
0000
,  // measure 3
0100
0001
0100
0000
0010
0100
0010
0000
1000
0010
1000
0010
0100
0001
1000
0100
,  // measure 4
0010
0000
0000
0101
0000
0000
1010
0000
1001
0000
0000
0000
0000
0000
1000
0001
,  // measure 5
1000
0000
0100
0010
0001
0000
0100
0000
1000
0000
0100
0000
0001
0000
0010
0000
,  // measure 6
0100
0010
0001
0200
0000
0320
0000
0130
,  // measure 7
0001
0000
0010
0100
1000
0000
0010
0000
0001
0000
0010
0000
1000
0000
0100
0000
,  // measure 8
0010
0000
0001
1000
0010
0000
2000
0000
0000
0000
3100
0000
0010
0000
0001
0000
,  // measure 9
0000
1000
0010
0001
0010
2000
0000
3100
,  // measure 10
0010
0000
0001
0000
0100
0000
1000
0000
0100
0000
0001
0010
0100
0000
1000
0000
,  // measure 11
0001
0200
0000
0302
0000
1003
0100
0010
,  // measure 12
0001
0010
0001
0100
0010
0100
0000
0100
,  // measure 13
0001
0000
0010
0100
1000
0000
0001
0010
0001
0000
0100
0000
0010
0000
0200
0000
,  // measure 14
0000
0000
0301
0000
1000
0000
0100
1000
0100
0000
0010
0001
0010
0000
0100
0000
,  // measure 15
1000
0000
0001
0100
0010
0000
1000
0010
1000
0000
0001
0000
0010
0000
0100
0000
,  // measure 16
0010
0000
0001
0100
0010
1000
0100
0000
0000
0000
1001
0000
0100
0000
0010
0000
,  // measure 17
0000
0000
0001
0100
0010
0000
1000
0010
1000
0000
0100
0000
0010
0000
0002
0000
,  // measure 18
0000
0000
1003
0000
0001
0000
0010
0100
1000
0000
0100
1000
0001
0000
0100
0000
,  // measure 19
0010
1000
0001
0100
1000
0100
0001
1000
,  // measure 20
0010
0000
0100
0000
0010
0000
1000
0000
0001
0010
0100
1000
0010
0100
0010
0100
,  // measure 21
0001
0000
1000
0010
0000
1000
0001
0000
0010
0001
0010
0001
1000
0100
0010
0001
,  // measure 22
0100
0000
0010
1000
0000
0001
0010
0000
0000
0100
0010
0000
0001
0000
0001
0000
,  // measure 23
1000
0000
0010
0100
0000
0001
0100
0000
0010
0000
2000
0000
0001
0000
3001
0000
,  // measure 24
0010
0000
0100
0000
1000
0001
1000
0001
0010
0100
0010
0100
1000
0010
0100
0001
,  // measure 25
0010
0000
0100
0010
0000
0001
0100
0000
0000
0010
1000
0100
0010
0001
1000
0010
,  // measure 26
1000
0000
0001
1000
0000
0010
0100
0000
0000
0001
1000
0100
0010
0001
1000
0010
,  // measure 27
1000
0000
0001
1000
0000
0100
0010
0000
0001
0000
2000
0000
0010
0000
3010
0000
,  // measure 28
0100
0000
0001
0000
0010
0001
0010
0001
1000
0010
0100
0001
1000
0010
0100
0001
,  // measure 29
1000
0000
0100
0010
0000
0001
0010
0000
0000
0100
0010
0001
1000
0100
0010
0100
,  // measure 30
1000
0000
0001
0100
0000
0001
1000
0000
0000
0100
0010
0000
0001
0000
0001
0000
,  // measure 31
1001
0000
1000
0100
0000
0010
0100
0000
1000
0000
0100
0000
0001
0000
0100
0000
,  // measure 32
1001
0000
0010
0000
0100
1000
0100
1000
0010
0100
0001
1000
0100
0010
0001
1000
,  // measure 33
0010
0000
0100
0001
0000
0100
0010
0000
1000
0100
0010
0001
1000
0010
1000
0001
,  // measure 34
0100
0000
0010
1000
0000
0010
0100
0000
0001
0010
0001
1000
0100
0010
0001
1000
,  // measure 35
0100
0000
1001
0000
0110
0000
0011
0000
1100
0000
2002
0000
,  // measure 36
0000
0000
0000
0000
0000
0000
0000
0000
0000
0000
0000
0000
3003
0000
1000
0010
,  // measure 37
0100
0000
0001
0100
0001
1000
0100
0000
0010
0001
0010
0100
1000
0001
0100
0001
,  // measure 38
1000
0000
0100
0010
0001
0010
0100
0010
0001
0000
0100
0010
1000
0010
0100
0010
,  // measure 39
1000
0100
0001
0100
1000
0100
0001
0100
1000
0010
0001
0010
1000
0010
0001
0010
,  // measure 40
2000
0000
0000
0000
0000
0000
0000
0000
3001
0100
0010
0100
0001
1000
0100
0010
,  // measure 41
0001
0000
1000
0010
0000
1000
0001
0000
0010
0100
1000
0001
0100
0010
0100
0001
,  // measure 42
1000
0000
0000
1100
0000
0000
0011
0000
1002
0000
0000
0000
0103
0000
0010
1000
,  // measure 43
0001
0010
0001
0010
0001
0100
0010
1000
0010
0100
0001
1000
0100
0010
0100
0010
,  // measure 44
0100
0000
1000
0100
0000
0010
0001
0000
0100
0010
0100
0010
0100
0001
0010
0100
,  // measure 45
1000
0010
1000
0010
0100
0001
1000
0100
0010
0001
0100
0001
1000
0000
0010
0100
,  // measure 46
0001
0010
0001
0010
0100
1000
0001
0100
0010
0100
0001
1000
0100
0010
0001
0000
,  // measure 47
1000
0010
0001
0010
1000
0010
0001
0010
1000
0100
0001
0100
1000
0100
0001
0100
,  // measure 48
2000
0000
0001
0000
3001
0100
0010
0000
1000
0010
0100
0010
1000
0001
0010
0100
,  // measure 49
1000
0000
0001
0000
0101
0000
0000
0000
1010
0000
0010
0000
1001
0000
1000
0100
,  // measure 50
0010
0000
0001
0100
0000
0001
1000
0000
1020
0000
0000
0000
1030
0001
1000
0001
,  // measure 51
0100
0000
0010
1000
0000
1000
0100
0000
1001
0000
0001
0010
0000
0010
0100
0000
,  // measure 52
1000
0010
1000
0010
0100
0001
0100
0001
0010
0100
1000
0001
0010
0100
1000
0001
,  // measure 53
0100
0010
1000
0010
0100
0010
1000
0010
0100
0000
0001
0010
0100
0000
0010
0001
,  // measure 54
2000
0000
0000
0000
0000
3001
0010
0100
,  // measure 55
1001
0000
0000
1000
0000
0000
1100
0000
0000
0000
1000
0000
0010
0000
0100
0000
,  // measure 56
0001
0000
0000
0001
0000
0000
0101
0000
0000
0000
0010
0000
1000
0000
0100
0000
,  // measure 57
0010
0000
0000
0011
0000
0000
1100
0000
0000
0000
1001
0000
0100
0000
0020
0000
,  // measure 58
0000
0000
0000
0031
0001
0100
0100
0010
,  // measure 59
1001
0100
0010
0001
1000
0010
0010
0010
,  // measure 60
1001
0000
0100
0000
0010
0000
0001
0000
1000
0000
0001
0100
0010
0000
0100
0010
,  // measure 61
1000
0000
1001
0000
0101
0000
1010
0000
0110
0000
2002
0000
,  // measure 62
0000
0000
0000
3003
,  // measure 63
0101
0000
0110
0000
1010
0000
0110
0000
1001
0000
0210
0000
,  // measure 64
0000
0000
0000
0000
0000
0000
0000
0000
0301
0000
0001
0000
0010
0100
1000
0001
,  // measure 65
0100
0000
0001
1000
0100
1000
0001
0010
0100
0000
1000
0001
0100
0001
1000
0100
,  // measure 66
0010
0000
0001
0100
1000
0100
0001
0010
0100
0000
1000
0000
0010
0100
0010
0100
,  // measure 67
0001
0010
1000
0010
0001
1000
0010
0001
0010
1000
0100
0010
0001
0010
0100
1000
,  // measure 68
0020
0000
0000
0000
0000
0000
0000
0000
1030
0001
0010
0100
1000
0001
0010
0000
,  // measure 69
1001
0010
1100
0000
0011
0100
1001
0000
,  // measure 70
1001
0000
0100
0001
0000
0001
1000
0000
1020
0000
0000
0000
0130
0001
0100
0001
,  // measure 71
1000
0000
0100
0010
0000
0010
0001
0000
1001
0000
0010
0100
0000
0100
0001
0000
,  // measure 72
1000
0100
1000
0010
0100
0001
0010
0100
1000
0010
0001
0010
1000
0001
0010
0100
,  // measure 73
2000
0010
0010
0010
0010
0010
0010
3010
,  // measure 74
0100
0001
1000
0010
0001
0010
1000
0100
0010
0000
0001
1000
0010
0000
1000
0001
,  // measure 75
0000
0000
0101
0000
0000
0000
0010
1000
0001
0000
0000
0000
0010
0001
1000
0000
,  // measure 76
1100
0110
0022
0000
0000
0000
0000
0000
,  // measure 77
0000
0000
0000
0000
0000
0000
0000
0033
;

//---------------dance-single - ----------------
#NOTES:
     dance-single:
     :
     Beginner:
     4:
     0.170,0.271,0.243,0.000,0.000: // measure 1
1001
0000
0000
0000
,  // measure 2
1001
0000
0000
0000
,  // measure 3
0001
0000
0010
0000
,  // measure 4
0100
0000
0000
0000
,  // measure 5
1000
0000
1000
0000
,  // measure 6
1000
0000
0000
0000
,  // measure 7
0001
0000
0001
0000
,  // measure 8
0001
0000
0000
0000
,  // measure 9
0100
0000
0100
0000
,  // measure 10
0100
0000
0000
0000
,  // measure 11
0010
0000
0010
0000
,  // measure 12
0010
0000
0000
0000
,  // measure 13
1000
0000
0001
0000
,  // measure 14
1000
0000
0000
0000
,  // measure 15
0001
0000
1000
0000
,  // measure 16
0001
0000
0000
0000
,  // measure 17
0010
0000
0001
0000
,  // measure 18
0010
0000
0000
0000
,  // measure 19
0100
0000
1000
0000
,  // measure 20
0100
0000
0000
0000
,  // measure 21
1001
0000
0000
0000
,  // measure 22
0110
0000
0000
0000
,  // measure 23
0001
0000
1000
0000
,  // measure 24
0001
0000
0010
0000
,  // measure 25
0100
0000
0000
0000
,  // measure 26
1001
0000
0000
0000
,  // measure 27
1000
0000
0010
0000
,  // measure 28
1000
0000
0001
0000
,  // measure 29
1001
0000
0000
0000
,  // measure 30
0110
0000
0000
0000
,  // measure 31
0010
0000
0100
0000
,  // measure 32
0010
0000
1000
0000
,  // measure 33
0001
0000
0000
0000
,  // measure 34
1001
0000
0000
0000
,  // measure 35
0110
0000
0000
0000
,  // measure 36
0000
0000
0000
0000
,  // measure 37
1001
0000
0001
0000
,  // measure 38
0001
0000
0000
0000
,  // measure 39
1000
0000
0100
0000
,  // measure 40
0010
0000
0000
0000
,  // measure 41
1001
0000
0000
0000
,  // measure 42
0110
0000
0000
0000
,  // measure 43
1001
0000
0001
0000
,  // measure 44
0010
0000
0000
0000
,  // measure 45
0100
0000
0100
0000
,  // measure 46
0010
0000
0010
0000
,  // measure 47
0001
0000
1000
0000
,  // measure 48
0010
0000
0000
0000
,  // measure 49
1001
0000
0000
0000
,  // measure 50
1001
0000
0000
0000
,  // measure 51
1000
0000
0100
0000
,  // measure 52
0010
0000
0001
0000
,  // measure 53
1000
0000
1000
0000
,  // measure 54
1000
0000
0000
0000
,  // measure 55
0010
0000
0000
0000
,  // measure 56
0000
0000
0000
0000
,  // measure 57
0100
0000
0000
0000
,  // measure 58
0000
0000
0000
0000
,  // measure 59
1001
0000
0001
0000
,  // measure 60
1001
0000
1000
0000
,  // measure 61
0110
0000
0000
0000
,  // measure 62
0000
0000
0000
0000
,  // measure 63
0110
0000
0000
0000
,  // measure 64
0000
0000
0000
0000
,  // measure 65
1001
0000
0001
0000
,  // measure 66
0001
0000
0000
0000
,  // measure 67
0110
0000
0010
0000
,  // measure 68
0100
0000
0000
0000
,  // measure 69
1001
0000
1000
0000
,  // measure 70
1001
0000
0000
0000
,  // measure 71
0110
0000
0010
0000
,  // measure 72
0100
0000
0001
0000
,  // measure 73
1000
0000
1000
0000
,  // measure 74
1001
0000
0000
0000
,  // measure 75
0000
0010
0000
0000
0010
0000
0000
1001
,  // measure 76
0000
1001
0000
0000
;
