#VERSION:0.83;
#TITLE:CRYMSON;
#SUBTITLE:;
#ARTIST:RAM;
#TITLETRANSLIT:;
#SUBTITLETRANSLIT:;
#ARTISTTRANSLIT:;
#GENRE:;
#ORIGIN:;
#CREDIT:DigiMindAxel;
#BANNER:CRYMSON.png;
#BACKGROUND:CRYMSON-bg.png;
#PREVIEWVID:;
#JACKET:CRYMSON-jacket.png;
#CDIMAGE:;
#DISCIMAGE:;
#LYRICSPATH:;
#CDTITLE:beatmania.png;
#MUSIC:CRYMSON.ogg;
#OFFSET:0.575000;
#SAMPLESTART:58.380001;
#SAMPLELENGTH:12.000000;
#SELECTABLE:YES;
#BPMS:0.000=240.000,
76.000=120.000,
92.000=240.000,
172.000=120.000,
180.000=240.000;
#STOPS:;
#DELAYS:;
#WARPS:;
#TIMESIGNATURES:0.000=4=4;
#TICKCOUNTS:0.000=4;
#COMBOS:0.000=1;
#SPEEDS:0.000=1.000=0.000=0;
#SCROLLS:0.000=1.000;
#FAKES:;
#LABELS:0.000=Song Start;
#BGCHANGES:;
#KEYSOUNDS:;
#ATTACKS:
;

//---------------dance-single - ----------------
#NOTEDATA:;
#CHARTNAME:;
#STEPSTYPE:dance-single;
#DESCRIPTION:;
#CHARTSTYLE:;
#DIFFICULTY:Easy;
#METER:5;
#RADARVALUES:0.278199,0.408617,0.153742,0.128118,0.000000,152.000000,140.000000,12.000000,10.000000,0.000000,0.000000,0.000000,0.000000,0.000000,0.278199,0.408617,0.153742,0.128118,0.000000,152.000000,140.000000,12.000000,10.000000,0.000000,0.000000,0.000000,0.000000,0.000000;
#CREDIT:;
#NOTES:
// measure 0
0000
0000
0000
0000
,  // measure 1
0000
0000
0000
0000
,  // measure 2
0000
0000
0000
0000
,  // measure 3
1000
0000
1000
0000
,  // measure 4
1000
0000
1000
0000
,  // measure 5
0001
0000
0001
0000
,  // measure 6
0001
0000
0001
0000
,  // measure 7
1000
0000
1000
0000
,  // measure 8
1000
0000
1000
0000
,  // measure 9
0010
0000
0100
0000
,  // measure 10
0010
0000
0000
0000
,  // measure 11
1001
0000
0001
0000
,  // measure 12
1000
0000
0001
0000
,  // measure 13
1000
0000
0100
0000
,  // measure 14
1000
0000
0100
0000
,  // measure 15
0010
0000
0001
0000
,  // measure 16
1000
0000
0001
0000
,  // measure 17
0010
0000
0100
0000
,  // measure 18
0010
0000
0100
0000
,  // measure 19
1001
1000
1000
0000
,  // measure 20
0100
0100
0100
0000
,  // measure 21
0010
0010
0010
0000
,  // measure 22
0001
0001
1001
0000
,  // measure 23
0110
0000
0010
0100
,  // measure 24
0010
0000
0000
0000
,  // measure 25
1000
0000
0100
0000
,  // measure 26
0001
0000
0100
0000
,  // measure 27
1000
0000
1000
0000
,  // measure 28
0010
0100
0010
0000
,  // measure 29
1000
0000
0010
0000
,  // measure 30
2002
0000
0000
3003
,  // measure 31
1001
0000
0001
1000
,  // measure 32
0001
1000
0100
0000
,  // measure 33
1000
0000
0100
0000
,  // measure 34
0001
0000
0100
0000
,  // measure 35
1000
0001
1000
0001
,  // measure 36
0010
0100
0010
0000
,  // measure 37
0001
0000
0100
0000
,  // measure 38
2002
0000
0000
3003
,  // measure 39
1001
0000
0000
0000
,  // measure 40
0000
0000
0000
0000
,  // measure 41
1000
0000
0000
0000
,  // measure 42
0000
0000
0000
0000
,  // measure 43
1000
0000
0100
0000
,  // measure 44
0010
0000
0001
0000
,  // measure 45
1000
0000
1000
0000
,  // measure 46
0001
0000
0001
0000
,  // measure 47
1000
0000
0100
0010
,  // measure 48
1001
0000
0000
0000
,  // measure 49
0001
0000
0001
0000
,  // measure 50
1000
0000
1000
0000
,  // measure 51
0001
0000
0000
0000
,  // measure 52
2002
0000
0000
3003
,  // measure 53
0010
0000
0010
0000
,  // measure 54
0100
0001
0100
0001
,  // measure 55
1000
0000
1000
0000
,  // measure 56
0001
0010
0001
0010
,  // measure 57
0100
0000
0100
0000
,  // measure 58
0010
0000
0010
0000
,  // measure 59
0001
0000
0100
0000
,  // measure 60
0010
1000
0010
1000
,  // measure 61
0001
0000
0001
0000
,  // measure 62
1000
0100
1000
0100
,  // measure 63
0010
0000
0010
0000
,  // measure 64
0001
0000
0001
0000
,  // measure 65
0100
0000
0000
0000
,  // measure 66
0010
0000
0000
0000
,  // measure 67
0100
0000
0000
0000
,  // measure 68
0010
0100
0010
0100
,  // measure 69
2002
0000
0000
3003
,  // measure 70
0220
0000
0000
0000
0000
0000
0000
0330
;

//---------------dance-single - ----------------
#NOTEDATA:;
#CHARTNAME:;
#STEPSTYPE:dance-single;
#DESCRIPTION:;
#CHARTSTYLE:;
#DIFFICULTY:Hard;
#METER:13;
#RADARVALUES:0.699159,1.089644,0.858391,0.140930,0.096089,382.000000,315.000000,67.000000,11.000000,0.000000,0.000000,0.000000,0.000000,0.000000,0.699159,1.089644,0.858391,0.140930,0.096089,382.000000,315.000000,67.000000,11.000000,0.000000,0.000000,0.000000,0.000000,0.000000;
#CREDIT:;
#NOTES:
// measure 0
0000
0000
0000
0000
,  // measure 1
0000
0000
0000
0000
,  // measure 2
0000
0000
0000
0000
,  // measure 3
0011
0100
0000
0100
,  // measure 4
0100
0000
2002
3003
,  // measure 5
0000
0010
0000
0010
,  // measure 6
0010
0000
0100
0000
,  // measure 7
0000
1000
0000
1000
,  // measure 8
1000
0000
2002
3003
,  // measure 9
1000
0001
1000
0000
0001
1000
0001
0000
,  // measure 10
0100
0010
0100
0000
0100
0000
0100
0010
,  // measure 11
1000
0000
0000
1100
0000
0000
1001
0000
,  // measure 12
0000
0010
0100
1000
0100
0010
0001
0000
,  // measure 13
1001
0000
0000
0011
0000
0000
1001
0000
,  // measure 14
0000
0010
0001
0010
0100
1000
0001
0000
,  // measure 15
1000
0000
0010
0100
0000
0010
0100
0000
,  // measure 16
0001
1000
0001
0000
1000
0100
1000
0000
,  // measure 17
1001
0000
0010
0100
0000
0010
0100
0000
,  // measure 18
0000
0001
1000
0100
0010
0001
0010
0100
,  // measure 19
1001
0000
0000
0101
0000
0000
1001
0000
0000
0101
0000
0000
0110
0000
0110
0000
,  // measure 20
0000
1000
0001
0000
0000
0001
1000
0000
0000
0000
0110
0000
0000
0110
0000
0000
,  // measure 21
1001
0000
0000
1100
0000
0000
1001
0000
0000
1100
0000
0000
0110
0000
0110
0000
,  // measure 22
0000
0001
1000
0000
1001
0000
0000
0000
0110
0000
0000
0110
0000
0000
0110
0000
,  // measure 23
1001
0000
0000
0000
1000
0010
0100
0001
,  // measure 24
1000
0000
1001
0000
,  // measure 25
0000
0010
0100
0000
1001
0000
0100
0010
,  // measure 26
0000
0100
0010
0000
1001
0000
0000
0000
,  // measure 27
0001
0100
0000
0100
0001
0000
0100
0010
,  // measure 28
0100
0010
0000
1000
0001
0000
0001
0000
,  // measure 29
0000
1000
0010
0000
0010
0000
0010
0100
,  // measure 30
0020
0030
0000
0220
0330
0000
0220
0330
,  // measure 31
1001
0000
0000
0010
0100
0000
0010
1000
,  // measure 32
0010
0010
1001
0000
,  // measure 33
0100
0010
0100
0000
0100
0000
0001
1000
,  // measure 34
0000
0001
0000
0000
1001
0000
0000
0000
,  // measure 35
1000
0010
0000
0010
0100
0000
0001
0100
,  // measure 36
0010
1000
0001
0000
1001
0000
0000
0000
,  // measure 37
0010
0100
0010
0000
0010
0000
1000
0001
,  // measure 38
1000
0000
0000
1001
0000
0000
1001
0000
,  // measure 39
0110
0000
0000
0000
0000
0000
0010
0001
,  // measure 40
0000
0010
0001
0000
0000
0000
0000
0000
,  // measure 41
1001
0000
0000
0000
0000
0000
0100
1000
,  // measure 42
0000
0100
0000
0100
1000
0000
0000
0000
,  // measure 43
1001
0000
0000
0000
0011
0000
1000
0001
1000
0100
0000
0010
0001
0000
1000
0000
,  // measure 44
1001
0000
0000
0000
1100
0000
0001
1000
0001
0100
0000
0010
1000
0000
0010
0000
,  // measure 45
1001
0001
1000
1000
,  // measure 46
0010
0100
0000
0010
0100
0010
0000
1000
,  // measure 47
0001
0010
0001
0000
0000
0001
0100
0010
,  // measure 48
0100
1001
1000
1000
,  // measure 49
0001
0100
0000
0010
0000
0010
0100
0010
,  // measure 50
1000
0010
0000
0100
0001
0000
0001
0000
,  // measure 51
0011
0000
0000
1100
0000
0000
1001
0000
,  // measure 52
0200
0000
0020
0330
,  // measure 53
1001
0000
0100
0010
0000
0100
0010
0000
,  // measure 54
1000
0000
1000
0010
0100
0001
1000
0000
,  // measure 55
1001
0000
0010
0100
0000
0010
0100
0000
,  // measure 56
0001
0000
0001
0100
0010
1000
0001
0000
,  // measure 57
1001
0000
0001
0100
0001
0100
0010
0000
,  // measure 58
1000
0010
1000
0000
1100
0000
1000
0000
,  // measure 59
1001
0000
0000
1100
0000
0000
1001
0000
,  // measure 60
0001
0100
0010
1000
0001
1000
0001
0000
,  // measure 61
1001
0000
0100
0010
0000
0100
0010
0000
,  // measure 62
1000
0000
1000
0010
0100
0001
1000
0000
,  // measure 63
1001
0000
0010
0100
0000
0010
0100
0000
,  // measure 64
0001
0000
0001
0100
0010
1000
0001
0000
,  // measure 65
1001
0001
0011
0001
,  // measure 66
1001
1000
1000
1000
,  // measure 67
1001
0000
0000
0011
0000
0000
1001
0000
,  // measure 68
0001
0010
0100
1000
0001
0100
0001
0000
,  // measure 69
1001
0000
0000
0011
0000
0000
0000
0000
,  // measure 70
0001
0100
0000
0100
0000
0100
0001
1000
;

//---------------dance-single - ----------------
#NOTEDATA:;
#CHARTNAME:;
#STEPSTYPE:dance-single;
#DESCRIPTION:;
#CHARTSTYLE:;
#DIFFICULTY:Beginner;
#METER:2;
#RADARVALUES:0.164723,0.269048,0.269048,0.000000,0.000000,90.000000,69.000000,21.000000,0.000000,0.000000,0.000000,0.000000,0.000000,0.000000,0.164723,0.269048,0.269048,0.000000,0.000000,90.000000,69.000000,21.000000,0.000000,0.000000,0.000000,0.000000,0.000000,0.000000;
#CREDIT:;
#NOTES:
// measure 0
0000
0000
0000
0000
,  // measure 1
0000
0000
0000
0000
,  // measure 2
0000
0000
0000
0000
,  // measure 3
1001
0000
0000
0000
,  // measure 4
0000
0000
0110
0000
,  // measure 5
0010
0000
0000
0000
,  // measure 6
0000
0000
0000
0000
,  // measure 7
0100
0000
0000
0000
,  // measure 8
0000
0000
1001
0000
,  // measure 9
0001
0000
0001
0000
,  // measure 10
1000
0000
0000
0000
,  // measure 11
1001
0000
0000
0000
,  // measure 12
0100
0000
0000
0000
,  // measure 13
1000
0000
0000
0000
,  // measure 14
0100
0000
0000
0000
,  // measure 15
1001
0000
0000
0000
,  // measure 16
0001
0000
0000
0000
,  // measure 17
0100
0000
0000
0000
,  // measure 18
0001
0000
0000
0000
,  // measure 19
1001
0000
0000
0000
,  // measure 20
0100
0000
0000
0000
,  // measure 21
0010
0000
0000
0000
,  // measure 22
0001
0000
0001
0000
,  // measure 23
0110
0000
0000
0000
,  // measure 24
0100
0000
0000
0000
,  // measure 25
0001
0000
0000
0000
,  // measure 26
0001
0000
0000
0000
,  // measure 27
1000
0000
0000
0000
,  // measure 28
1001
0000
0000
0000
,  // measure 29
0100
0000
0000
0000
,  // measure 30
0110
0000
0000
0000
,  // measure 31
1001
0000
0000
0000
,  // measure 32
0001
0000
0000
0000
,  // measure 33
0010
0000
0000
0000
,  // measure 34
0001
0000
0000
0000
,  // measure 35
1000
0000
0000
0000
,  // measure 36
0010
0000
0000
0000
,  // measure 37
1000
0000
0000
0000
,  // measure 38
1001
0000
0000
0000
,  // measure 39
0110
0000
0000
0000
,  // measure 40
0000
0000
0000
0000
,  // measure 41
0110
0000
0000
0000
,  // measure 42
0000
0000
0000
0000
,  // measure 43
1001
0000
0001
0000
,  // measure 44
1000
0000
0001
0000
,  // measure 45
1000
0000
0000
0000
,  // measure 46
0100
0000
0000
0000
,  // measure 47
1000
0000
0000
0000
,  // measure 48
1001
0000
0000
0000
,  // measure 49
0010
0000
0000
0000
,  // measure 50
0100
0000
0000
0000
,  // measure 51
1001
0000
0000
0000
,  // measure 52
0010
0000
0000
0000
,  // measure 53
0110
0000
0000
0000
,  // measure 54
0100
0000
0000
0000
,  // measure 55
0100
0000
0000
0000
,  // measure 56
0100
0000
0000
0000
,  // measure 57
1001
0000
0000
0000
,  // measure 58
0001
0000
0000
0000
,  // measure 59
0001
0000
0000
0000
,  // measure 60
0001
0000
0000
0000
,  // measure 61
0110
0000
0000
0000
,  // measure 62
0100
0000
0000
0000
,  // measure 63
0100
0000
0000
0000
,  // measure 64
0100
0000
0000
0000
,  // measure 65
1001
0000
0000
0000
,  // measure 66
1000
0000
0000
0000
,  // measure 67
1000
0000
0000
0000
,  // measure 68
1000
0000
0000
0000
,  // measure 69
1001
0000
0000
0000
,  // measure 70
0010
0000
0000
0000
;

//---------------dance-single - ----------------
#NOTEDATA:;
#CHARTNAME:;
#STEPSTYPE:dance-single;
#DESCRIPTION:;
#CHARTSTYLE:;
#DIFFICULTY:Medium;
#METER:10;
#RADARVALUES:0.496000,0.817233,0.371542,0.089683,0.057653,271.000000,242.000000,29.000000,7.000000,0.000000,0.000000,0.000000,0.000000,0.000000,0.496000,0.817233,0.371542,0.089683,0.057653,271.000000,242.000000,29.000000,7.000000,0.000000,0.000000,0.000000,0.000000,0.000000;
#CREDIT:;
#NOTES:
// measure 0
0000
0000
0000
0000
,  // measure 1
0000
0000
0000
0000
,  // measure 2
0000
0000
0000
0000
,  // measure 3
1001
1000
0000
0001
,  // measure 4
1000
0000
1001
0000
,  // measure 5
0000
0010
0000
0100
,  // measure 6
0001
0000
0001
0000
,  // measure 7
0000
0100
0000
0001
,  // measure 8
1000
0000
1001
0000
,  // measure 9
0001
1000
0001
0000
1000
0001
1000
0000
,  // measure 10
0010
0100
0010
0000
0010
0000
0010
0000
,  // measure 11
0110
0000
0000
0110
0000
0000
1001
0000
,  // measure 12
0000
0000
0010
0001
0010
0000
0001
0000
,  // measure 13
0100
0000
0000
0100
0000
0000
0110
0000
,  // measure 14
0000
0000
0100
1000
0100
0000
1000
0000
,  // measure 15
0010
0000
0000
0010
0000
0000
0010
0000
,  // measure 16
1000
0001
0010
0000
,  // measure 17
1001
0000
0000
0001
0000
0000
0001
0000
,  // measure 18
0000
1000
0001
0000
0010
0000
0100
0000
,  // measure 19
1001
0000
0000
1000
0000
0000
1000
0000
0000
1000
0000
0000
1000
0000
0000
0000
,  // measure 20
0000
0010
0000
0000
0000
0010
0000
0000
0000
0000
0100
0000
0000
0100
0000
0000
,  // measure 21
0001
0000
0000
0001
0000
0000
0001
0000
0000
0001
0000
0000
0001
0000
0000
0000
,  // measure 22
0000
0010
0000
0000
0010
0000
0000
0000
0100
0000
0000
0100
0000
0000
0100
0000
,  // measure 23
1001
0000
0000
0000
0001
0100
0001
0000
,  // measure 24
1000
0000
1000
0000
,  // measure 25
0000
1000
0000
0000
0100
0000
1000
0000
,  // measure 26
0000
0010
0000
0000
1001
0000
0000
0000
,  // measure 27
0010
0000
0000
0010
0000
0000
1000
0010
,  // measure 28
1000
0000
0000
0001
0000
0000
0001
0000
,  // measure 29
0000
0100
0000
0000
0010
0000
1000
0000
,  // measure 30
2002
0000
0000
3003
,  // measure 31
0100
0000
0000
0100
0000
0000
1000
0100
,  // measure 32
1000
0001
1001
0000
,  // measure 33
0000
0010
0000
0000
0100
0000
0000
0001
,  // measure 34
0000
1000
0000
0000
1001
0000
0000
0000
,  // measure 35
0010
0000
0000
0010
0000
0000
0001
0010
,  // measure 36
0001
1000
1001
0000
,  // measure 37
0000
0010
0000
0000
1000
0000
0000
0001
,  // measure 38
2000
0000
0000
3000
,  // measure 39
0110
0000
0000
0100
,  // measure 40
0000
0001
0000
0000
0000
0000
0000
0000
,  // measure 41
1000
0000
0000
0010
,  // measure 42
0000
0010
0000
0010
0100
0000
0000
0000
,  // measure 43
1001
0000
0001
1000
0100
1000
0001
0001
,  // measure 44
1001
0000
1000
0001
0010
0001
1000
1000
,  // measure 45
1001
1000
1000
1000
,  // measure 46
0001
0100
1000
0100
,  // measure 47
0001
1000
0001
0000
1000
0000
0100
0010
,  // measure 48
0100
1000
0001
1000
,  // measure 49
0001
0010
0000
0100
0000
0100
0000
0000
,  // measure 50
0000
1000
0000
0000
0001
0000
0000
0000
,  // measure 51
0011
0000
0000
1100
0000
0000
1001
0000
,  // measure 52
0020
0000
0230
0000
,  // measure 53
0301
0010
1000
0010
,  // measure 54
0001
1000
0001
1000
0100
0000
1000
0000
,  // measure 55
0001
0100
1000
0100
,  // measure 56
0001
1000
0001
1000
0010
0000
0000
0000
,  // measure 57
1000
0100
0001
0100
,  // measure 58
1000
0001
0000
1000
0001
0000
0100
0000
,  // measure 59
1010
0000
0000
0101
0000
0000
1001
0000
,  // measure 60
0010
0100
1000
0010
,  // measure 61
1000
0100
0001
0100
,  // measure 62
1000
0001
1000
0001
0010
0000
0100
0000
,  // measure 63
1000
0010
0001
0010
,  // measure 64
1000
0001
1000
0001
0100
0000
0010
0000
,  // measure 65
1000
1000
1000
1000
,  // measure 66
0001
0001
0001
0001
,  // measure 67
1010
0000
0000
0101
0000
0000
1001
0000
,  // measure 68
1000
0010
0100
0001
,  // measure 69
2002
0000
0000
3003
,  // measure 70
1000
0000
0000
0010
0000
0010
0100
0010
;

//---------------dance-double - ----------------
#NOTEDATA:;
#CHARTNAME:;
#STEPSTYPE:dance-double;
#DESCRIPTION:;
#CHARTSTYLE:;
#DIFFICULTY:Easy;
#METER:4;
#RADARVALUES:0.252576,0.362574,0.243424,0.051247,0.000000,138.000000,119.000000,19.000000,4.000000,0.000000,0.000000,0.000000,0.000000,0.000000,0.252576,0.362574,0.243424,0.051247,0.000000,138.000000,119.000000,19.000000,4.000000,0.000000,0.000000,0.000000,0.000000,0.000000;
#CREDIT:;
#NOTES:
00000000
00000000
00000000
00000000
,
00000000
00000000
00000000
00000000
,
00000000
00000000
00000000
00000000
,
00000000
00000000
00000000
00000000
,
00000000
00000000
00000000
00000000
,
00000000
00000000
00000000
00000000
,
00000000
00000000
00000000
00000000
,
00000000
00000000
00000000
00000000
,
00000000
00000000
00000000
00000000
,
00000000
00000000
00000000
00000000
,
00000000
00000000
00000000
00000000
,
00010000
10000000
00010000
00000000
,
10000000
00010000
10000000
00000000
,
00100000
01000000
00100000
00000000
,
10000000
01000000
00100000
00000000
,
00010000
00001000
00010000
00000000
,
00001000
00000100
00000010
00000000
,
00001001
00000000
00000000
00000000
,
00000100
00000010
00000100
00000010
,
00000100
00000000
00000001
00000000
,
00000001
00000000
00000010
00000000
,
00000010
00000000
00000100
00000000
,
00000100
00000000
00001000
00000000
,
00011000
00000000
00010000
00000000
,
00010000
00000000
00000000
00000000
,
00010000
00000000
00100000
00000000
,
01000000
00000000
01010000
00000000
,
00011000
00000000
00001000
00000000
,
00001000
00000000
00000000
00000000
,
00001000
00000000
00000100
00000000
,
00001010
00000000
00000000
00000000
,
00011000
00000000
00010000
00000000
,
00010000
00000000
00010000
00000000
,
00010000
00000000
00100000
00000000
,
01000000
00000000
01010000
00000000
,
00011000
00000000
00001000
00000000
,
00001000
00000000
00001000
00000000
,
00001000
00000000
00000100
00000000
,
00000110
00000000
00000000
00000000
,
00001001
00000000
00000000
00000000
,
00000000
00000000
00000000
00000000
,
00000001
00000000
00000000
00000000
,
00000000
00000000
00000000
00000000
,
00001001
00000000
00000001
00000010
,
00000001
00000000
00001000
00000100
,
00001000
00000000
00000001
00000000
,
00001000
00000000
00000010
00000000
,
00001000
00000000
00000001
00000000
,
00000011
00000000
00000000
00000000
,
00000001
00000000
00000010
00000000
,
00000100
00000000
00001000
00000000
,
00010000
00000000
00100000
00000000
,
11000000
00000000
00000000
00000000
,
10000000
00000000
01000000
00000000
,
10000000
00000000
00100000
00000000
,
01000000
00000000
00010000
00000000
,
00100000
00000000
01000000
00000000
,
01000000
00000000
00100000
00000000
,
00010000
00000000
00001000
00000000
,
00001100
00000000
00000100
00000000
,
00001000
00000000
00000001
00000000
,
00000010
00000000
00000010
00000000
,
00000001
00000010
00000001
00000000
,
00001000
00000000
00001000
00000000
,
00000100
00001000
00000100
00000000
,
00010000
00000000
00011000
00000000
,
00001000
00000000
00011000
00000000
,
02200000
00000000
00000000
03300000
,
20020000
00000000
00000000
30030000
,
00011000
00000000
00001000
00000000
,
00010000
00100000
01000000
00010000
;

//---------------dance-single - ----------------
#NOTEDATA:;
#CHARTNAME:;
#STEPSTYPE:dance-single;
#DESCRIPTION:;
#CHARTSTYLE:;
#DIFFICULTY:Challenge;
#METER:14;
#RADARVALUES:0.843749,1.044242,0.627779,0.550908,0.160148,461.000000,412.000000,49.000000,43.000000,0.000000,0.000000,0.000000,0.000000,0.000000,0.843749,1.044242,0.627779,0.550908,0.160148,461.000000,412.000000,49.000000,43.000000,0.000000,0.000000,0.000000,0.000000,0.000000;
#CREDIT:;
#NOTES:
0000
0000
0000
0000
,
0000
0000
0000
0000
,
0000
0000
0000
0000
,
1001
1100
1001
1100
,
1100
0010
1002
0013
,
0010
0101
0001
0101
,
0101
1000
0101
0001
,
0001
1100
1000
1100
,
1100
0010
1002
0013
,
0010
0100
1000
0000
0001
0010
0100
0000
,
1000
0001
0100
0000
0101
0000
0100
0001
,
1000
0100
0010
0100
1000
0001
0100
0000
,
0001
0100
1000
0100
0001
1000
0100
0010
,
0100
1000
0010
0100
0010
0000
1010
0000
,
0001
1000
0001
0010
1000
0010
0001
0000
,
1001
0000
1000
0001
0200
0000
0301
0100
,
1000
0100
0010
1000
0001
0010
0100
0000
,
1002
0000
0100
0100
0000
1000
1003
0000
,
0001
0010
0100
1000
0001
0010
0100
1000
,
0001
0100
0000
0001
0100
0000
0001
1000
0000
0001
1000
0000
1100
0000
0000
0000
,
0000
0010
0100
0000
0000
0100
0010
0000
0000
0000
0001
1000
0000
0001
1000
0000
,
0100
0010
0000
0100
0010
0000
0001
0100
0000
0001
0100
0010
1000
0000
0000
0000
,
0010
0100
0000
0000
0100
0010
0000
0000
2000
0100
3000
0002
0010
0003
1000
0100
,
0022
0000
0033
0000
0001
0001
0100
0100
,
0020
1000
1030
0000
1010
0000
0010
0100
,
0000
0002
1000
0000
1003
0000
0200
1000
,
0000
1300
0010
0000
1001
0000
0000
0000
,
0001
0001
0000
1000
1000
0000
0010
0010
,
0200
0001
0301
0000
1001
0000
1000
0100
,
0000
0020
0001
0000
0031
0000
0100
0010
,
2002
3003
0000
2002
3003
0000
2002
3003
,
0001
0001
0000
1000
1000
0001
0010
0010
,
0100
0100
1000
1000
0110
0000
0110
0000
,
0020
0100
0030
2000
0001
3000
0200
1000
,
0300
0020
0001
0030
1001
0000
1000
0000
,
0010
0010
0000
0100
0100
0000
0001
0001
,
1000
1000
0100
0010
1001
0000
1001
0000
,
0200
0001
0300
0020
1000
0030
1000
0100
,
0022
0033
0000
0022
0033
0000
0022
0033
,
1001
0000
0000
0000
0000
0000
1000
0001
,
0000
1000
0001
0000
0000
0000
0000
0000
,
0010
0100
0000
1000
0100
0000
0010
0001
,
0000
0010
0100
1000
0100
1000
0000
0000
,
1001
0000
0000
0000
0001
0000
0100
0010
1000
0100
0000
1000
0100
0000
0010
0001
,
1000
0000
0000
0000
1000
0000
0010
0100
0001
0010
0000
0100
1000
0000
0110
0000
,
1001
0000
1100
0000
0010
0001
1000
0000
,
0001
0100
1000
0100
0001
1000
0100
1000
,
0001
0001
0001
0000
0100
0100
0100
0010
,
1002
0000
0103
0000
0010
1000
0001
0000
,
1000
0001
0010
0001
1000
0001
0010
0001
,
0000
0100
0010
0100
0001
0100
0010
0100
,
1002
0000
1000
2003
0000
0000
3100
0010
,
0002
0000
2003
0000
,
3001
0100
1000
0100
0010
1000
0100
1000
,
0001
0010
1000
0010
0001
0100
0010
0000
,
0101
0000
0001
0100
1000
0100
0001
1000
,
0100
0010
0100
1000
0001
0100
0010
0000
,
1001
0000
1000
0010
0001
0010
1000
0001
,
0100
1000
0100
0001
1100
0000
1001
0000
,
0102
0000
0010
0010
0000
0100
0103
0000
,
0010
0010
0010
1000
0010
0010
0010
1000
,
0001
0010
1000
0010
0001
1000
0100
0010
,
0100
1000
0001
0010
1000
0010
0001
1000
,
0020
0000
0100
0100
0000
1000
1030
0000
,
0001
0010
1000
0010
0001
1000
0100
0000
,
0020
0001
0030
0200
1000
0300
0010
0001
,
0010
0001
0100
0010
0100
0010
1000
0000
,
1002
0000
0010
0010
0000
1000
1003
0000
,
0000
0001
0010
1000
0010
0001
1000
0100
,
0022
0000
0033
1001
0000
0000
1000
0001
,
1000
0100
0001
1000
0010
0001
1000
0100
;
