#TITLE:COSMIC CYBER;
#SUBTITLE:;
#ARTIST:BEMANI Sound Team "Captain Sonic";
#TITLETRANSLIT:;
#SUBTITLETRANSLIT:;
#ARTISTTRANSLIT:Captain Sonic;
#CREDIT:DigiMindAxel;
#BANNER:COSMIC CYBER.png;
#BACKGROUND:COSMIC CYBER-bg.png;
#LYRICSPATH:;
#CDTITLE:beatmania IIDX.png;
#MUSIC:COSMIC CYBER.ogg;
#METERTYPE:DDR X;
#OFFSET:0.271;
#SAMPLESTART:71.734;
#SAMPLELENGTH:12.000;
#SELECTABLE:YES;
#BPMS:0.000=170.000;
#STOPS:;
#BGCHANGES:-1.000=COSMIC CYBER.avi=1.000=1=1=0,
99999=-nosongbg-=1.000=0=0=0 // don't automatically add -songbackground-
;

//---------------dance-single - ----------------
#NOTES:
     dance-single:
     :
     Easy:
     6:
     0.278,0.300,0.000,0.098,0.000:
0000
0000
0000
0000
,
0000
0000
0000
0000
,
0000
0000
0000
0000
,
0000
0000
0000
0000
,
0000
0000
0000
0000
,
0000
0000
0000
0000
,
0001
0010
0001
0000
,
0100
0010
0100
0000
,
0001
0100
0001
0000
,
1000
0001
1000
0000
,
0100
1000
0100
1000
,
0010
0100
0010
0100
,
0001
0010
0001
0010
,
0001
1000
0001
1000
,
0100
0010
0100
0010
,
0001
0100
0001
0100
,
0010
1000
0010
1000
,
0100
0010
0100
0010
,
0002
0000
0000
0000
,
1003
0000
0010
0010
,
0100
0000
0001
1000
,
0002
0000
0000
0023
,
0000
0000
0230
0000
,
1300
0000
0001
0001
,
0100
0000
0010
0100
,
0020
0000
0000
2030
,
0000
0000
3200
0000
,
1300
0000
0000
0000
,
0001
0001
0001
0001
,
1000
0000
0000
0000
,
0001
0001
0001
0001
,
1000
0100
1000
0000
,
0001
0010
0001
0000
,
1000
0100
1000
0001
,
0010
0000
0000
0000
,
0001
0010
0100
1000
,
0002
0000
0000
0000
,
0013
0001
0100
0010
,
2000
0000
0000
0000
,
3010
1000
0100
0010
,
0200
0000
0000
0000
,
0310
0001
0010
0100
,
2000
0000
0000
0000
,
3010
0100
0001
0100
,
0010
0010
0010
0010
,
1000
0100
0010
0001
,
1000
0100
0010
0001
,
0100
0010
0100
0001
,
1000
0100
1000
0001
,
0010
0010
0010
0010
,
0010
0010
0000
0000
,
0001
0010
0001
0010
,
0100
1000
0100
1000
,
0010
0100
0010
0100
,
0001
1000
0001
1000
,
0100
0010
0100
0010
,
0001
0100
0001
0100
,
0010
1000
0010
1000
,
0100
0010
0001
1000
,
0010
0010
0100
0100
,
0010
0010
0100
0100
,
0001
0001
1000
1000
,
0100
0010
0001
1000
,
0010
0010
1000
1000
,
0010
0010
0100
0100
,
0001
0001
0100
0100
,
0001
0010
0100
1000
,
0010
0000
0000
0000
,
0010
0000
0000
0000
,
0010
0000
0000
0000
,
0010
0000
0000
0000
,
0010
0000
0000
0000
,
0010
0000
0000
0000
,
0010
0000
0000
0000
,
0010
0000
0000
0010
;

//---------------dance-single - ----------------
#NOTES:
     dance-single:
     :
     Medium:
     10:
     0.491,0.567,0.196,0.054,0.000: // measure 1
0000
0000
0000
0000
,  // measure 2
0000
0000
0000
0000
,  // measure 3
0000
0000
0000
0000
,  // measure 4
0000
0000
0000
0000
,  // measure 5
0000
0000
0000
0000
,  // measure 6
0000
0000
0000
0000
,  // measure 7
0001
1000
0100
0000
1000
0100
1000
0000
,  // measure 8
0001
1000
0100
0000
1000
0100
1000
0000
,  // measure 9
0010
0100
0001
0000
0100
0001
0100
0000
,  // measure 10
0010
0100
0001
0000
0100
0001
0100
0001
,  // measure 11
1000
0000
0100
0000
0001
0100
1000
0000
,  // measure 12
0001
0000
0100
0000
1000
0100
0001
0000
,  // measure 13
1000
0000
0010
0000
0001
0010
1000
0000
,  // measure 14
0001
0000
0010
0000
1000
0010
0001
0000
,  // measure 15
0010
0100
1000
0000
0100
1000
0100
0000
,  // measure 16
0010
0001
0010
0000
0001
0010
0100
0000
,  // measure 17
0010
0001
0100
0000
0001
0100
0001
0000
,  // measure 18
0100
0010
1000
0000
0010
1000
0010
1000
,  // measure 19
0001
0000
0100
0110
,  // measure 20
0100
0010
0100
0000
1001
0000
1001
0000
,  // measure 21
0010
0100
0010
0000
1000
0000
1100
0000
,  // measure 22
0020
0000
0000
0001
0000
0000
0001
0000
,  // measure 23
0000
0100
0000
0000
0130
0000
0110
0000
,  // measure 24
1000
0010
0100
0000
1001
0000
1001
0000
,  // measure 25
0010
0001
0010
0000
0100
0000
1100
0000
,  // measure 26
0020
0000
0000
0001
0000
0000
0001
0000
,  // measure 27
0000
0100
0000
0000
0130
0000
0110
0000
,  // measure 28
1001
0000
0000
0000
,  // measure 29
0001
0100
1000
0010
,  // measure 30
0001
0000
0000
0000
,  // measure 31
1000
0100
0001
0010
,  // measure 32
1000
0001
1000
0000
0110
0000
0110
0000
,  // measure 33
0001
1000
0001
0000
0110
0000
0110
0000
,  // measure 34
1000
0001
1000
0001
0100
0010
1000
0001
,  // measure 35
1000
0000
0000
0000
,  // measure 36
0011
0000
0100
1000
0000
0001
0100
0001
,  // measure 37
2000
0000
0000
0100
0000
0000
3100
0000
,  // measure 38
0011
0000
0100
1000
0000
0001
0100
0000
,  // measure 39
0020
0000
0000
1000
0000
0000
1030
0000
,  // measure 40
0101
0000
0010
1000
0000
0100
0010
0000
,  // measure 41
0002
0000
0000
0100
0000
0000
0103
0000
,  // measure 42
0010
1000
0010
1000
0001
0010
0001
0010
,  // measure 43
0200
0000
0000
1000
0000
0000
1300
0000
,  // measure 44
1100
0000
0010
0100
0000
0100
0000
0000
,  // measure 45
0001
1000
0001
0000
1000
0001
1000
0001
,  // measure 46
0100
0001
0100
1000
,  // measure 47
0100
0001
0010
0100
,  // measure 48
1000
0001
0100
0000
1001
0000
1001
0000
,  // measure 49
0001
1000
0100
0000
1001
0000
1001
0000
,  // measure 50
0010
0100
0010
0100
0010
0100
0000
0100
,  // measure 51
0010
0100
0001
1000
0001
1000
0001
0000
,  // measure 52
0010
0100
1000
0000
0100
1000
0100
0000
,  // measure 53
0010
0001
0100
0000
0001
0100
0001
0000
,  // measure 54
1000
0100
0010
0000
0100
1000
0100
0000
,  // measure 55
0010
0001
1000
0000
0001
1000
0000
1000
,  // measure 56
0100
0010
0001
0000
0010
0001
0010
0000
,  // measure 57
0100
1000
0010
0000
1000
0010
1000
0000
,  // measure 58
0100
0010
0001
0000
0010
0001
0010
0000
,  // measure 59
0100
1000
0010
0000
1000
0010
0000
0010
,  // measure 60
0100
0001
0100
0001
0100
0001
0100
0001
,  // measure 61
1000
0100
1000
0100
1000
0100
1000
0100
,  // measure 62
0010
0001
0010
0001
0010
0001
0010
0001
,  // measure 63
1000
0010
1000
0010
1000
0010
1000
0010
,  // measure 64
0100
0001
0100
0001
0100
0001
0100
0001
,  // measure 65
0010
0100
0010
0100
0010
0100
0010
0100
,  // measure 66
1000
0010
1000
0010
0100
0001
0100
0001
,  // measure 67
0010
0100
0010
0100
1000
0001
1000
0001
,  // measure 68
1000
0010
0001
0010
,  // measure 69
1000
0100
0001
0100
,  // measure 70
1000
0010
0001
0010
,  // measure 71
1000
0100
0001
0100
,  // measure 72
1000
0010
0100
0010
,  // measure 73
1000
0100
0010
0100
,  // measure 74
1000
0001
0010
0001
,  // measure 75
1000
0010
0100
0001
;

//---------------dance-single - ----------------
#NOTES:
     dance-single:
     :
     Hard:
     14:
     0.705,0.735,0.723,0.232,0.152: // measure 1
0000
0000
0000
0000
,  // measure 2
0000
0000
0000
0000
,  // measure 3
0000
0000
0000
0000
,  // measure 4
0000
0000
0000
0000
,  // measure 5
0000
0000
0000
0000
,  // measure 6
0000
0000
0000
0000
,  // measure 7
1000
0100
1000
0001
0010
0100
0010
0000
,  // measure 8
0100
1000
0001
0100
0010
1000
0100
0000
,  // measure 9
0010
0100
1000
0001
0100
0010
0100
0000
,  // measure 10
1001
1000
0100
0011
0000
0100
0100
0010
,  // measure 11
0010
0000
0001
0000
0100
0000
0000
0010
0000
0000
1000
0000
1100
0000
0000
0000
,  // measure 12
0010
0000
0001
0000
1000
0000
0000
0010
0000
0000
0100
0000
0110
0000
0000
0000
,  // measure 13
0001
0000
0010
0000
0001
0000
0000
0100
0000
0000
0010
0000
1010
0000
0000
0000
,  // measure 14
0100
0001
1000
1100
0000
0010
0010
0100
,  // measure 15
0100
0000
1000
0000
0010
0000
0000
0100
0000
0000
0001
0000
1001
0000
0000
0000
,  // measure 16
0010
0000
0001
0000
1000
0000
0000
0100
0000
0000
0010
0000
0110
0000
0000
0000
,  // measure 17
1000
0000
0010
0000
0100
0000
0000
0001
0000
0000
1000
0000
1100
0000
0000
0000
,  // measure 18
0010
0001
1000
1010
0000
0010
0010
0100
,  // measure 19
0100
1000
0010
0011
,  // measure 20
1100
0010
0001
0000
0201
0000
0310
0000
,  // measure 21
1100
0010
0001
0000
0100
0010
1001
0000
,  // measure 22
0001
0100
1000
0001
0010
1000
0001
0100
,  // measure 23
1000
0001
0010
1000
0001
0000
1001
0000
,  // measure 24
1010
0100
0001
0000
0021
0000
0130
0000
,  // measure 25
1010
0100
0001
0000
0010
0100
1001
0000
,  // measure 26
1000
0100
0001
1000
0010
0001
1000
0100
,  // measure 27
0001
1000
0010
0001
1000
0000
1001
0000
,  // measure 28
0010
0010
0010
0010
,  // measure 29
0010
0100
0001
0010
0100
1000
0001
0000
,  // measure 30
0100
0100
0100
0100
,  // measure 31
0100
0001
1000
0100
0010
0001
1000
0000
,  // measure 32
0101
0000
0110
0000
0100
0001
0010
0100
,  // measure 33
0110
0000
0101
0000
0010
1000
0100
0010
,  // measure 34
0011
0000
1001
1000
0010
0100
0001
0010
,  // measure 35
0100
0000
0000
0000
,  // measure 36
1001
0010
0100
1100
0000
0011
0100
1000
,  // measure 37
2020
0000
3030
0220
0000
0330
0101
0000
,  // measure 38
1001
0010
0100
1100
0000
0011
0100
1000
,  // measure 39
2020
0000
3030
2002
0000
3003
0101
0000
,  // measure 40
1001
0100
0010
0011
0000
1100
0010
0001
,  // measure 41
0202
0000
0303
0220
0000
0330
1010
0000
,  // measure 42
1000
0000
0001
0100
0001
0000
1000
0000
0100
1000
0100
0000
0010
0000
0010
0000
,  // measure 43
2002
0000
3003
2200
0000
3300
0011
0000
,  // measure 44
1001
0000
1000
0110
0000
0110
0000
0110
,  // measure 45
0001
0001
0001
1000
0010
0010
0100
0100
,  // measure 46
0001
0000
0000
0000
0010
0001
0000
0000
0010
0001
0000
0000
0100
0010
0000
0000
,  // measure 47
0100
0010
0000
0000
1000
0100
0000
0000
1000
0100
0000
0000
0010
0000
0000
0000
,  // measure 48
0001
0010
0001
1000
0100
0100
0010
0010
,  // measure 49
0001
0100
0010
1000
0010
0010
0100
0100
,  // measure 50
0001
0010
1000
0010
0001
1000
0000
1000
,  // measure 51
0001
0010
1000
0010
0001
1000
0010
0100
,  // measure 52
1001
0000
0010
0000
0100
0000
0000
1100
0000
0000
0010
0000
0110
0000
0000
0000
,  // measure 53
1001
0000
0100
0000
0010
0000
0000
0101
0000
0000
0100
0000
0110
0000
0000
0000
,  // measure 54
1001
0000
0010
0000
0100
0000
0000
1010
0000
0000
0010
0000
0110
0000
0000
0000
,  // measure 55
1001
0100
0010
1001
0000
0100
0010
0100
,  // measure 56
1001
0000
0010
0000
1100
0000
0000
1001
0000
0000
0001
0000
0011
0000
0000
0000
,  // measure 57
1001
0000
0100
0000
0011
0000
0000
0110
0000
0000
1000
0000
1100
0000
0000
0000
,  // measure 58
1001
0000
0010
0000
1100
0000
0000
0011
0000
0000
0100
0000
0110
0000
0000
0000
,  // measure 59
1001
0100
0010
1001
0000
0010
0100
0010
,  // measure 60
1000
0000
0001
0000
0010
0001
0010
0000
0100
0000
1000
0000
0001
1000
0001
0000
,  // measure 61
0010
0000
0100
0000
1000
0010
1000
0000
0001
0000
0010
0000
0100
0010
0100
0000
,  // measure 62
1000
0000
0010
0000
0100
0001
0100
0000
0001
0000
1000
0000
0100
0010
0100
0000
,  // measure 63
1000
0000
0010
0000
0100
0001
0100
0000
0010
0000
1001
0000
0000
0000
1001
0000
,  // measure 64
0010
0000
0100
0000
1000
0010
1000
0000
0100
0000
0010
0000
0001
1000
0001
0000
,  // measure 65
1000
0000
0100
0000
0010
0100
0010
0000
0100
0000
1000
0000
0010
0100
0010
0000
,  // measure 66
1000
0000
0001
0000
0100
0001
0100
0000
0001
0000
1000
0000
0010
1000
0010
0000
,  // measure 67
1000
0000
0100
0000
0010
0100
0010
0000
0001
0000
1001
0000
0000
0000
1001
0000
,  // measure 68
2000
0000
3200
0000
0301
0100
1000
0000
,  // measure 69
0002
0000
0203
0000
1300
0100
0001
0000
,  // measure 70
2000
0000
3020
0000
0031
0010
1000
0000
,  // measure 71
0002
0000
0023
0000
1030
0010
0001
0000
,  // measure 72
1000
0100
0010
0000
0100
0010
0001
0000
,  // measure 73
0010
0100
1000
0000
0001
0010
0100
0000
,  // measure 74
0010
0001
0100
0000
0010
1000
0100
0000
,  // measure 75
0010
0001
0100
0000
0010
1000
0100
0010
;

//---------------dance-single - ----------------
#NOTES:
     dance-single:
     :
     Challenge:
     17:
     0.941,1.000,0.580,0.062,0.844: // measure 1
0000
0000
0000
0000
,  // measure 2
0000
0000
0000
0000
,  // measure 3
0000
0000
0000
0000
,  // measure 4
0000
0000
0000
0000
,  // measure 5
0000
0000
0000
0000
,  // measure 6
0000
0000
0000
0000
,  // measure 7
1000
0000
0100
0000
0010
0000
0000
0001
1000
0000
0010
0000
1010
0000
0000
0000
,  // measure 8
0100
0000
0001
0000
0010
0000
0000
0001
1000
0000
0100
0000
1100
0000
0000
0000
,  // measure 9
0010
0000
0001
0000
0100
0000
0000
0010
1000
0000
0001
0000
0011
0000
0000
0000
,  // measure 10
0100
0000
1000
0000
0001
0000
0000
0100
0001
0000
1000
0100
0000
0100
1000
0000
,  // measure 11
0100
0000
0010
0000
0001
0100
0001
0000
1000
0100
1000
0000
1001
0000
0000
0000
,  // measure 12
0001
0000
0010
0000
0100
0010
0100
0000
1000
0010
1000
0000
1001
0000
0000
0000
,  // measure 13
0001
0000
0100
0000
0010
0100
0010
0000
1000
0010
1000
0000
1001
0000
0000
0000
,  // measure 14
0001
0000
1000
0000
0100
1000
0100
0000
0010
0000
0001
1000
0000
1000
0001
0000
,  // measure 15
0010
0001
0010
0000
0100
0010
0100
0000
1000
0100
1000
0000
0001
0000
0100
0000
,  // measure 16
0010
0100
0010
0000
0100
0001
0100
0000
0001
1000
0001
0000
0010
0000
0100
0000
,  // measure 17
1000
0010
1000
0000
0010
0100
0010
0000
0100
0001
0100
0000
0010
0000
1000
0000
,  // measure 18
0100
0010
0100
0000
0010
0001
0010
0000
0100
0000
1000
0010
0000
0010
1000
0000
,  // measure 19
0001
0000
0000
0000
0000
0000
0000
0000
0010
0100
1000
0000
0100
0010
0001
0000
,  // measure 20
1000
0010
1000
0010
1000
0000
0100
0000
0020
0000
0001
0000
0031
0000
0000
0000
,  // measure 21
0100
0010
0100
0010
0100
0000
0001
0000
1000
0100
1000
0000
1100
0000
0000
0000
,  // measure 22
0010
0001
0010
0001
0100
0000
0010
1000
0010
1000
0001
0000
0010
0001
0010
0001
,  // measure 23
0100
0000
0010
1000
0010
1000
0001
0000
1001
0000
0000
0000
1001
0000
0000
0000
,  // measure 24
0001
0100
0001
0100
0001
0000
0010
0000
0100
1000
0100
0000
1100
0000
0000
0000
,  // measure 25
0010
0100
0010
0100
0010
0000
1000
0000
0001
0010
0001
0000
0011
0000
0000
0000
,  // measure 26
0100
1000
0100
1000
0010
0000
0100
0001
0100
0001
1000
0000
0100
1000
0100
1000
,  // measure 27
0001
0000
0100
0001
0100
0001
1000
0000
1001
0000
0000
0000
1001
0000
0000
0000
,  // measure 28
0200
1000
1000
1300
,  // measure 29
0010
0100
0000
0001
0000
0000
0100
0000
0110
0000
1000
0000
1100
0000
0000
0000
,  // measure 30
0020
0001
0001
0031
,  // measure 31
0100
0010
0000
1000
0000
0000
0010
0000
0110
0000
0001
0000
0011
0000
0000
0000
,  // measure 32
0100
1000
0000
0100
0000
0000
0010
0000
0001
0100
0001
0000
1000
0000
0100
1000
,  // measure 33
0010
0100
0000
0010
0000
0000
0100
0000
0001
0100
0001
0000
0010
0000
0100
1000
,  // measure 34
0100
0010
0000
0100
0010
0001
0010
0001
0100
0010
0100
0010
1000
0100
1000
0100
,  // measure 35
0010
0000
0000
0000
,  // measure 36
0011
0000
0100
0000
1000
0000
0001
0100
0010
0000
1001
0000
1000
0000
1010
0000
,  // measure 37
0110
0000
0100
0001
1000
0000
0001
0000
0010
0100
1000
0000
1001
0000
0000
0000
,  // measure 38
1010
0000
1000
0010
0100
0000
0001
0000
0010
0100
1000
0000
0110
0000
0110
0000
,  // measure 39
0101
0000
0001
0100
0010
0000
1000
0000
0100
0010
0001
0000
0010
0001
1000
0000
,  // measure 40
0010
1000
0100
1000
0010
0000
0100
0001
0010
0001
0100
0000
1001
0000
1001
0000
,  // measure 41
1000
0100
0010
0100
1000
0000
0001
0010
0100
0010
0001
0000
1000
0001
1000
0001
,  // measure 42
1000
0100
0010
0001
0010
0000
0001
0010
0100
1000
0100
0000
1001
0000
1001
0000
,  // measure 43
0011
0000
0010
0001
1000
0000
2002
0000
0000
0000
3003
0000
1010
0000
0000
0000
,  // measure 44
1001
0010
0100
1100
0000
1100
0010
0001
,  // measure 45
0110
0110
0110
1000
1100
0010
0011
0011
,  // measure 46
1001
0000
0000
0000
1000
0100
0010
0000
0010
0001
0010
0000
0100
1000
0010
0000
,  // measure 47
0010
0100
0010
0000
0100
0001
1000
0000
1000
0100
1000
0000
0001
0000
0000
0000
,  // measure 48
0010
0001
0000
1000
0010
0000
0200
0000
0001
0000
0301
0000
1000
0000
0100
0000
,  // measure 49
0011
0011
1001
0200
1000
1300
0010
0110
,  // measure 50
0001
0010
0100
0000
0010
0001
1000
0000
0100
1000
0010
0100
0001
0000
0100
0001
,  // measure 51
0010
0100
1000
0001
0100
0001
0010
0100
1000
0001
0100
0001
0010
0100
1000
0000
,  // measure 52
1100
0000
0010
0000
0001
0000
0000
0100
0010
0000
1000
0000
1001
0000
0000
0000
,  // measure 53
0011
0000
0100
0000
1000
0000
0000
0010
0100
0000
0001
0000
1001
0000
0000
0000
,  // measure 54
1010
0000
0100
0000
0010
0000
0000
0001
0100
0000
0010
0000
1010
0000
0000
0000
,  // measure 55
0101
0000
0010
0000
0100
0000
0000
1000
0010
0000
1000
0001
0000
0001
0010
0000
,  // measure 56
1100
0000
1000
0000
1001
0000
0001
0100
0000
0001
1000
0000
1100
0000
0000
0000
,  // measure 57
0011
0000
0001
0000
1001
0000
1000
0100
0000
1000
0001
0000
0101
0000
0000
0000
,  // measure 58
1001
0000
1000
0000
1100
0000
0010
0001
0000
0100
0010
0000
1010
0000
0000
0000
,  // measure 59
1001
0000
0001
0000
0011
0000
0100
1000
0000
0001
0100
0000
0001
1000
0100
0000
,  // measure 60
0010
0001
1000
0000
1000
0100
1000
0000
0100
1000
0001
0000
0001
0100
0001
0000
,  // measure 61
0010
0100
1000
0000
1000
0001
1000
0000
0010
0100
0001
0000
0001
1000
0001
0000
,  // measure 62
1000
0010
0100
0000
0100
0001
0100
0000
0001
1000
0010
0000
0010
1000
0010
0000
,  // measure 63
0100
0001
0010
0000
0010
0001
0010
0000
0100
1000
0100
0010
0000
0100
0010
0000
,  // measure 64
0001
0100
0010
0000
0010
1000
0010
0000
1000
0001
0010
0000
0010
0001
0010
0000
,  // measure 65
0001
0010
0100
0000
0100
1000
0100
0000
0010
0001
1000
0000
1000
0010
1000
0000
,  // measure 66
0010
0100
0001
0000
0001
1000
0001
0000
0010
0100
1000
0000
1000
0010
1000
0000
,  // measure 67
0010
0100
0001
0000
0001
1000
0001
0000
0100
0001
0100
0010
0000
0100
0010
0000
,  // measure 68
1000
0000
1000
0000
0100
0010
0001
0000
0010
0000
0010
0000
0100
1000
0001
0000
,  // measure 69
1000
0000
1000
0000
0010
0100
0001
0000
0100
0000
0100
0000
0010
1000
0001
0000
,  // measure 70
0100
0000
0100
0000
0001
0010
0100
0000
0010
0000
0010
0000
0001
1000
0100
0000
,  // measure 71
0010
0000
0010
0000
0100
1000
0010
0000
0100
0000
0100
0000
0001
0010
0100
0000
,  // measure 72
1000
0000
0010
0000
0100
0001
0100
0001
1000
0000
0100
0000
0010
0100
1000
0000
,  // measure 73
0001
0000
0010
0000
0100
1000
0100
1000
0001
0000
0100
0000
0010
1000
0001
0000
,  // measure 74
0010
0000
0100
0000
1000
0001
0100
0001
1000
0000
0100
0000
0001
0100
1000
0000
,  // measure 75
0100
0000
0010
0000
0001
1000
0010
1000
0001
0000
0010
0000
1000
0010
0001
0000
;

//---------------dance-single - ----------------
#NOTES:
     dance-single:
     :
     Beginner:
     3:
     0.134,0.165,0.000,0.000,0.000:
0000
0000
0000
0000
,
0000
0000
0000
0000
,
0000
0000
0000
0000
,
0000
0000
0000
0000
,
0000
0000
0000
0000
,
0000
0000
0000
0000
,
1000
0000
0000
0000
,
0001
0000
0000
0000
,
0010
0000
0000
0000
,
0001
0000
0000
0000
,
0100
0000
0100
0000
,
0100
0000
0100
0000
,
0010
0000
0010
0000
,
0010
0000
0010
0000
,
1000
0000
1000
0000
,
1000
0000
1000
0000
,
0001
0000
0001
0000
,
0001
0000
0001
0000
,
0000
0000
0000
0000
,
0010
0000
0001
0000
,
0010
0000
0001
0000
,
0100
0000
0010
0000
,
1000
0000
0100
0000
,
0010
0000
0010
0000
,
0001
0000
0001
0000
,
0100
0000
0010
0000
,
0100
0000
0000
0000
,
0001
0000
0000
0000
,
0000
0000
0000
0000
,
0001
0000
0000
0000
,
0000
0000
0000
0000
,
0001
0000
1000
0000
,
0001
0000
1000
0000
,
0100
0000
0010
0000
,
0001
0000
0000
0000
,
1000
0000
1000
0000
,
0010
0000
0010
0000
,
0100
0000
0100
0000
,
0001
0000
0001
0000
,
1000
0000
1000
0000
,
0001
0000
0001
0000
,
0010
0000
0010
0000
,
0100
0000
0100
0000
,
1000
0000
0010
0000
,
0100
0000
0000
0000
,
0010
0000
0100
0000
,
0001
0000
0000
0000
,
0010
0000
0100
0000
,
1000
0000
0000
0000
,
0001
0000
0001
0000
,
0001
0000
0001
0000
,
0100
0000
0000
0000
,
0010
0000
0000
0000
,
1000
0000
0000
0000
,
0001
0000
0000
0000
,
0010
0000
0000
0000
,
0001
0000
0000
0000
,
0100
0000
0000
0000
,
0010
0000
0000
0000
,
1000
0000
1000
0000
,
0100
0000
0100
0000
,
0010
0000
0010
0000
,
0001
0000
0001
0000
,
0100
0000
0100
0000
,
0010
0000
0010
0000
,
0100
0000
0100
0000
,
0001
0000
0001
0000
,
1000
0000
0000
0000
,
0100
0000
0000
0000
,
0010
0000
0000
0000
,
0001
0000
0000
0000
,
1000
0000
0000
0000
,
0100
0000
0000
0000
,
0010
0000
0000
0000
,
0001
0000
0000
0000
;
