#TITLE:COREDESAT;
#SUBTITLE:;
#ARTIST:Des-ROW;
#TITLETRANSLIT:;
#SUBTITLETRANSLIT:;
#ARTISTTRANSLIT:;
#GENRE:;
#CREDIT:DigiMindAxel;
#BANNER:COREDESAT.png;
#BACKGROUND:COREDESAT-bg.png;
#LYRICSPATH:;
#CDTITLE:beatmania.png;
#MUSIC:COREDESAT.ogg;
#OFFSET:-0.565000;
#SAMPLESTART:31.198002;
#SAMPLELENGTH:12.000000;
#SELECTABLE:YES;
#BPMS:0.000000=165.000000
,76.000000=158.000000
,148.000000=160.000000
;
#STOPS:
;
#BGCHANGES:;
#KEYSOUNDS:;
#ATTACKS:;

//---------------dance-single - ----------------
#NOTES:
     dance-single:
     :
     Easy:
     5:
     0.299829,0.355247,0.196379,0.184106,0.000000,171.000000,155.000000,16.000000,15.000000,0.000000,0.000000,0.299829,0.355247,0.196379,0.184106,0.000000,171.000000,155.000000,16.000000,15.000000,0.000000,0.000000:
// measure 0
0000
0000
0000
0000
,  // measure 1
0000
0000
0000
0000
,  // measure 2
0000
0000
0000
0000
,  // measure 3
0000
0000
0000
0000
,  // measure 4
1000
1000
1000
1000
,  // measure 5
0001
0001
0001
0001
,  // measure 6
1000
0100
0010
0001
,  // measure 7
1000
0010
0100
0001
,  // measure 8
0220
0000
0000
0330
,  // measure 9
1001
0001
0000
1000
,  // measure 10
0000
0010
0000
1000
,  // measure 11
0001
0010
0100
1000
,  // measure 12
1001
0000
0000
1001
0000
0000
0001
0000
,  // measure 13
1001
1000
0000
0100
,  // measure 14
0000
1000
0000
0010
,  // measure 15
1000
0100
0010
0001
,  // measure 16
0100
0100
0100
0100
,  // measure 17
1001
0000
0000
0000
,  // measure 18
1000
0010
0110
0000
,  // measure 19
2002
0000
0000
3003
,  // measure 20
0001
0010
0100
1000
,  // measure 21
0110
0000
0000
0010
0000
0000
0010
0000
,  // measure 22
2002
0000
0000
3003
,  // measure 23
0110
0000
0000
0100
0000
0000
0100
0000
,  // measure 24
2002
0000
0000
3003
,  // measure 25
0001
0010
0001
0010
,  // measure 26
0100
1000
0100
1000
,  // measure 27
0001
0100
0001
0100
,  // measure 28
0010
1000
0010
1000
,  // measure 29
0100
0010
0100
0010
,  // measure 30
0001
1000
0001
1000
,  // measure 31
0001
0010
0001
0010
,  // measure 32
0100
1000
0100
1000
,  // measure 33
0010
0000
0000
0010
0000
0000
0010
0000
,  // measure 34
2002
0000
0000
3003
,  // measure 35
0100
0000
0000
0100
0000
0000
0100
0000
,  // measure 36
2002
0000
0000
3003
,  // measure 37
1000
0010
1000
0001
,  // measure 38
0010
0100
0010
0001
,  // measure 39
0100
0001
0100
0010
,  // measure 40
1000
0100
1000
0001
,  // measure 41
0100
0000
0000
0100
0000
0000
0100
0000
,  // measure 42
0010
0000
0000
0010
0000
0000
0010
0000
,  // measure 43
1000
0000
0000
1000
0000
0000
1000
0000
,  // measure 44
0001
0000
0000
0001
0000
0000
0001
0000
,  // measure 45
1000
0010
0100
0001
,  // measure 46
1000
1000
0001
0001
,  // measure 47
0100
0010
1000
0100
,  // measure 48
0010
0010
0100
0100
,  // measure 49
2000
0000
0000
0001
0000
0000
3001
0000
,  // measure 50
0200
0000
0000
0010
0000
0000
0310
0000
,  // measure 51
2000
0000
0000
0001
0000
0000
3001
0000
,  // measure 52
0110
0000
0000
0100
0000
0110
0000
0000
;

//---------------dance-single - ----------------
#NOTES:
     dance-single:
     :
     Hard:
     13:
     0.683821,0.710494,0.711875,0.270021,0.429580,390.000000,332.000000,58.000000,22.000000,0.000000,0.000000,0.683821,0.710494,0.711875,0.270021,0.429580,390.000000,332.000000,58.000000,22.000000,0.000000,0.000000:
// measure 0
0000
0000
0000
0000
,  // measure 1
0000
0000
0000
0000
,  // measure 2
0000
0000
0000
0000
,  // measure 3
0000
0000
0000
0000
,  // measure 4
0002
0203
0302
2003
,  // measure 5
3200
0000
0320
0000
0031
1000
0010
0000
,  // measure 6
2000
3002
0023
0032
,  // measure 7
2003
0000
3020
0000
0130
0001
0010
0000
,  // measure 8
0001
0000
0000
0010
0000
0000
0100
0000
0000
1000
0000
0000
0010
0000
0100
0000
,  // measure 9
1001
0000
0000
0000
0011
0000
0000
1000
0000
0000
0100
0000
0011
0000
0000
0000
,  // measure 10
0001
0000
0000
0000
1010
0000
0000
0001
0000
0000
0100
0000
1010
0000
0000
0000
,  // measure 11
0200
2300
3200
0310
,  // measure 12
0101
0000
0000
0110
0000
0000
1010
0000
0000
1001
0000
0000
0011
0000
0100
0000
,  // measure 13
1001
0000
0000
0000
1100
0000
0000
0001
0000
0000
0010
0000
1100
0000
0000
0000
,  // measure 14
0010
0000
0000
0000
0101
0000
0000
1000
0000
0000
0010
0000
0101
0000
0000
0000
,  // measure 15
0020
0032
0023
0130
,  // measure 16
1000
0010
0001
0010
1000
0100
0001
0100
,  // measure 17
1100
0000
0000
0000
0000
0000
0001
1000
0001
0000
0000
0000
0100
0000
0000
0000
,  // measure 18
1001
0000
0100
0001
1000
1100
1100
0000
,  // measure 19
0001
1000
0100
1000
0001
1000
0100
1000
,  // measure 20
1001
0000
0011
0000
1100
0010
0001
0000
,  // measure 21
0100
0010
0100
0010
0100
0000
0001
0100
0001
0100
0001
0000
1000
0001
1000
0000
,  // measure 22
0200
0000
1000
1000
0000
0010
0310
0000
,  // measure 23
0001
0100
0001
0100
0001
0000
1000
0001
1000
0001
1000
0000
0100
1000
0100
0000
,  // measure 24
0020
0000
0001
0001
0000
0100
0130
0000
,  // measure 25
1000
0100
1100
0000
0010
0100
0110
0000
,  // measure 26
0001
0010
0011
0000
0100
0010
0110
0000
,  // measure 27
1000
0010
1010
0000
0100
0001
0101
0000
,  // measure 28
1000
0100
1100
0000
0010
0100
0110
0000
,  // measure 29
0001
0010
1000
0010
0001
0010
0100
1000
,  // measure 30
0001
0100
1000
0100
0001
0100
0010
1000
,  // measure 31
0001
0010
1000
0001
0010
0100
0001
1000
,  // measure 32
0100
0100
0010
0010
0001
0001
1000
1000
,  // measure 33
0100
0010
0100
0010
0100
0000
1000
0010
1000
0010
1000
0000
0001
1000
0001
0000
,  // measure 34
0020
0000
0001
0001
0000
0100
0130
0000
,  // measure 35
1000
0010
1000
0010
1000
0000
0001
1000
0001
1000
0001
0000
0010
0001
0010
0000
,  // measure 36
0200
0000
1000
1000
0000
0010
0310
0000
,  // measure 37
0001
0000
1000
0000
0000
0100
0000
0000
0010
0000
0000
0001
1000
0000
0010
0000
,  // measure 38
1000
0000
1000
0000
0000
0010
0000
0000
0100
0000
0000
0001
1000
0000
0000
0000
,  // measure 39
0001
0000
0001
0000
0000
0010
0000
0000
0100
0000
0000
1000
0001
0000
0100
0000
,  // measure 40
0001
0000
0001
0000
0000
0100
0000
0000
0010
0000
0000
1000
0001
0000
0000
0000
,  // measure 41
1100
0000
0000
0011
0000
0000
1100
0000
0000
0011
0000
0000
1100
0000
0000
0000
,  // measure 42
0101
0000
0000
1010
0000
0000
0101
0000
0000
1010
0000
0000
0101
0000
0000
0000
,  // measure 43
1001
0000
0000
0110
0000
0000
1001
0000
0000
0110
0000
0000
1001
0000
0000
0000
,  // measure 44
0011
0000
0000
1100
0000
0000
0011
0000
0000
1100
0000
0000
0011
0000
0000
0000
,  // measure 45
0001
0100
0000
0001
1000
0000
0001
0100
0000
0001
1000
0000
1100
0000
0000
0000
,  // measure 46
0010
0001
0000
1000
0001
0000
0010
0001
0000
1000
0001
0000
0100
0000
0010
0000
,  // measure 47
1000
0100
0000
1000
0001
0000
1000
0100
0000
1000
0001
0000
0101
0000
0000
0000
,  // measure 48
0010
1000
0000
0001
1000
0000
0010
1000
0000
0001
1000
0000
0010
0100
0010
0000
,  // measure 49
1000
0000
0100
0000
0010
0000
0100
0000
1000
0000
0001
0000
0100
0001
1000
0000
,  // measure 50
0010
0000
0100
0001
0000
0100
0001
0000
0010
0100
0000
0010
0100
0000
0000
0000
,  // measure 51
1000
0000
0010
1000
0000
0001
0010
0000
0000
0000
0011
0000
1100
0000
0000
0000
,  // measure 52
0101
0000
0000
0101
0000
0000
0110
0000
0000
0000
1001
0000
0000
0000
0000
0000
;

//---------------dance-single - ----------------
#NOTES:
     dance-single:
     :
     Challenge:
     14:
     0.822338,0.839675,0.515496,0.073642,0.760970,469.000000,427.000000,42.000000,6.000000,0.000000,0.000000,0.822338,0.839675,0.515496,0.073642,0.760970,469.000000,427.000000,42.000000,6.000000,0.000000,0.000000:
// measure 0
0000
0000
0000
0000
,  // measure 1
0000
0000
0000
0000
,  // measure 2
0000
0000
0000
0000
,  // measure 3
0000
0000
0000
0000
,  // measure 4
0001
0100
1000
0000
0100
0000
0001
0000
,  // measure 5
1000
0001
0100
0000
0010
0100
0010
0000
,  // measure 6
1000
0010
0001
0000
0010
0000
1000
0000
,  // measure 7
0001
0010
0100
0000
0010
0001
0010
0100
,  // measure 8
1010
0000
0000
0110
0000
0000
0101
0000
0000
0110
0000
0000
1001
0000
0100
0000
,  // measure 9
0011
0000
0000
0000
1100
0000
0010
0100
0000
0010
0100
0000
0101
0000
0000
0000
,  // measure 10
1000
0000
0000
0000
1100
0000
0010
0100
0000
0010
0100
0000
0101
0000
0000
0000
,  // measure 11
0001
0010
0100
0010
0001
1000
0010
0000
,  // measure 12
1000
0100
0000
0100
0010
0000
0010
0001
0000
0001
1000
0000
0001
0000
0100
0000
,  // measure 13
1001
0000
0000
0000
0011
0000
0100
0010
0000
0100
0010
0000
1010
0000
0000
0000
,  // measure 14
0001
0000
0000
0000
0011
0000
0100
0010
0000
0100
0010
0000
1010
0000
0000
0000
,  // measure 15
0100
0001
0010
0100
0010
0001
0100
0000
,  // measure 16
0010
1000
0010
1000
0010
1000
0010
1000
0100
0010
0100
0010
0100
0010
0100
0000
,  // measure 17
1000
0001
0200
0000
0000
0000
0301
1000
0002
0000
0000
0000
0000
0000
0000
0000
,  // measure 18
1003
0000
0100
0010
0001
0110
0110
0000
,  // measure 19
0001
0010
0000
0000
0100
1000
0000
0000
0010
0100
0000
0000
0001
1000
0000
0000
,  // measure 20
0100
1000
0100
1000
0100
1000
0100
1000
0100
0000
0010
0000
0001
0000
0000
0000
,  // measure 21
1000
0001
1000
0001
0010
0000
0001
1000
0001
1000
0010
0000
0100
0010
0100
0000
,  // measure 22
1002
0000
0010
0010
0000
0100
0103
0000
,  // measure 23
0001
1000
0001
1000
0100
0000
1000
0001
1000
0001
0100
0000
0010
0100
0010
0000
,  // measure 24
2001
0000
0100
0100
0000
0010
3010
0000
,  // measure 25
0100
0001
0101
1000
0100
1000
1001
0000
,  // measure 26
0010
1000
1010
0001
0010
0001
1001
0000
,  // measure 27
0010
0001
0101
1000
0100
1000
1001
0000
,  // measure 28
0100
1000
1010
0001
0010
0001
1001
0000
,  // measure 29
0100
1000
1100
0010
0100
0001
1001
0000
,  // measure 30
0010
0001
0011
1000
0010
0100
1001
0000
,  // measure 31
0100
1000
1001
0010
0100
1000
0011
0000
,  // measure 32
0010
0001
1001
0100
0010
0001
0101
0000
,  // measure 33
0010
0100
0010
0100
0001
0000
0010
0100
0010
0100
1000
0000
0001
0100
0001
0000
,  // measure 34
2001
0000
0000
0000
0100
0000
0100
0000
0000
0000
0010
0000
3010
0100
0010
0000
,  // measure 35
1000
0100
1000
0100
0010
0000
0001
0100
0001
0100
0010
0000
0100
0010
0100
0000
,  // measure 36
1002
0000
0000
0000
0010
0000
0010
0000
0000
0000
0100
0000
0103
0010
0100
0000
,  // measure 37
1001
0000
0001
0000
0100
0010
0000
0100
0001
0000
0100
0010
0000
0100
0001
0000
,  // measure 38
1000
0000
1000
0000
0100
0010
0000
0001
0010
0000
0100
0010
0100
0010
0100
0000
,  // measure 39
1000
0000
1000
0000
0010
0100
0000
0001
0100
0000
0010
0100
0000
0001
0100
0000
,  // measure 40
0001
0000
0001
0000
0010
0100
0000
1000
0100
0000
0010
0100
0010
0100
0000
1000
,  // measure 41
0001
0010
0000
0010
0100
0000
0100
1000
0000
1000
0001
0000
0100
0010
0100
0000
,  // measure 42
0010
1000
0000
0001
1000
0000
0010
1000
0000
0001
1000
0000
0001
0010
0001
0000
,  // measure 43
1000
0010
0000
0010
0100
0000
0100
0001
0000
0001
1000
0000
0100
0010
0100
0000
,  // measure 44
1000
0001
0000
0010
0001
0000
1000
0001
0000
0010
0001
0000
0100
0010
0100
0010
,  // measure 45
1000
0100
0000
0100
0010
0000
0010
0001
0000
0001
1000
0000
0010
0100
0010
0000
,  // measure 46
1000
0001
0000
0100
0001
0000
1000
0001
0000
0010
0100
0000
1000
0001
0100
0001
,  // measure 47
1000
0100
0000
0100
0010
0000
0010
0001
0000
0001
1000
0000
0010
1000
0100
0000
,  // measure 48
0010
0001
0000
0001
0100
0000
0100
0010
0000
0010
1000
0000
0001
0100
0010
0000
,  // measure 49
1001
0000
0001
0100
0001
0000
1000
0000
0001
0100
0001
0000
1000
0100
0010
0000
,  // measure 50
0001
0000
1000
0100
0000
0100
0001
0000
0001
0100
0000
0100
1000
0000
0000
0000
,  // measure 51
0010
0000
0100
0001
0100
0001
1000
0100
0000
0000
1001
0000
1001
0000
0000
0000
,  // measure 52
0001
0000
0100
0001
0010
0001
0100
0000
0000
0000
1001
0000
0000
0000
0000
0000
;

//---------------dance-single - ----------------
#NOTES:
     dance-single:
     :
     Medium:
     10:
     0.478674,0.516723,0.331390,0.049095,0.055232,273.000000,246.000000,27.000000,4.000000,0.000000,0.000000,0.478674,0.516723,0.331390,0.049095,0.055232,273.000000,246.000000,27.000000,4.000000,0.000000,0.000000:
// measure 0
0000
0000
0000
0000
,  // measure 1
0000
0000
0000
0000
,  // measure 2
0000
0000
0000
0000
,  // measure 3
0000
0000
0000
0000
,  // measure 4
1000
0100
0010
0001
,  // measure 5
1000
1000
0001
0001
,  // measure 6
1000
0010
0100
0001
,  // measure 7
1000
1000
0001
0001
,  // measure 8
0101
0000
0000
1010
0000
0000
0110
0000
,  // measure 9
1001
0000
1000
0010
0100
0010
1000
0000
,  // measure 10
0001
0000
0010
0100
1000
0100
0010
0000
,  // measure 11
0001
0100
1000
0100
,  // measure 12
0001
0000
0000
0010
0000
0000
0100
0000
0000
1000
0000
0000
0001
0000
0000
0000
,  // measure 13
1001
0000
1000
0100
0010
0100
1000
0000
,  // measure 14
0001
0000
0100
0001
0010
0001
0100
0000
,  // measure 15
0001
0010
1000
0010
,  // measure 16
0001
1000
0001
0000
1000
0001
0100
0000
,  // measure 17
1010
0000
0000
0100
0100
0000
0100
0000
,  // measure 18
1001
0000
0001
0000
0001
1000
1000
0000
,  // measure 19
1100
0100
0100
0100
,  // measure 20
1001
0000
1001
0000
0010
0100
0010
0000
,  // measure 21
1000
1000
0001
0001
1000
1000
0100
0000
,  // measure 22
0020
0000
0000
0001
0000
0000
0031
0000
,  // measure 23
1000
1000
0001
0001
1000
1000
0010
0000
,  // measure 24
0200
0000
0000
0001
0000
0000
0301
0000
,  // measure 25
1000
0100
1000
0000
0001
1000
0001
0000
,  // measure 26
1000
0100
1000
0000
0010
0100
0010
0000
,  // measure 27
1000
0001
1000
0000
0001
0010
0001
0000
,  // measure 28
1000
0100
1000
0000
0010
0100
0010
0000
,  // measure 29
0100
0001
0100
0000
0001
1000
0001
0000
,  // measure 30
1000
0100
1000
0000
0010
0100
0010
0000
,  // measure 31
0100
0001
0100
0000
0001
1000
0001
0000
,  // measure 32
1000
0100
1000
0000
0100
0010
0100
0000
,  // measure 33
1000
1000
0001
0001
1000
1000
0010
0000
,  // measure 34
0200
0000
0000
0010
0000
0000
0310
0000
,  // measure 35
1000
1000
0001
0001
0010
0010
0100
0000
,  // measure 36
2000
0000
0000
0010
0000
0000
3010
0000
,  // measure 37
1000
0100
0010
0000
0101
0000
1010
0000
,  // measure 38
1000
0001
0010
0000
0011
0000
1100
0000
,  // measure 39
0010
0001
0100
0000
0101
0000
1010
0000
,  // measure 40
0100
0001
1000
0000
1001
0000
0110
0000
,  // measure 41
1001
0000
0000
1001
0000
0000
1001
0000
,  // measure 42
1000
0000
0000
0100
0000
0000
0010
0000
0000
0001
0000
0000
1000
0000
0000
0000
,  // measure 43
1100
0000
0000
1100
0000
0000
1100
0000
,  // measure 44
1000
0000
0000
0010
0000
0000
0100
0000
0000
0001
0000
0000
1000
0000
0000
0000
,  // measure 45
0001
0100
0010
0000
0100
0010
0100
0000
,  // measure 46
0001
0010
0100
0000
0010
0001
0010
0000
,  // measure 47
0100
1000
0001
0100
0001
0000
0101
0000
,  // measure 48
0010
0000
0000
0100
0000
0000
1000
0000
0000
0010
0000
0000
0100
0000
0000
0000
,  // measure 49
1001
0000
0001
0100
0000
0001
1000
0000
,  // measure 50
0100
0000
1000
0100
0000
0010
0100
0000
,  // measure 51
0010
0000
0001
0100
0000
0001
1000
0000
,  // measure 52
0010
0000
0000
0010
0000
0000
0010
0000
0000
0000
1001
0000
0000
0000
0000
0000
;

//---------------dance-single - ----------------
#NOTES:
     dance-single:
     :
     Beginner:
     2:
     0.120984,0.193771,0.073642,0.000000,0.000000,69.000000,63.000000,6.000000,0.000000,0.000000,0.000000,0.120984,0.193771,0.073642,0.000000,0.000000,69.000000,63.000000,6.000000,0.000000,0.000000,0.000000:
// measure 0
0000
0000
0000
0000
,  // measure 1
0000
0000
0000
0000
,  // measure 2
0000
0000
0000
0000
,  // measure 3
0000
0000
0000
0000
,  // measure 4
1000
0000
0000
0000
,  // measure 5
0100
0000
0000
0000
,  // measure 6
0010
0000
0000
0000
,  // measure 7
0001
0000
0000
0000
,  // measure 8
0110
0000
0000
0000
,  // measure 9
1001
0000
0000
0000
,  // measure 10
0100
0000
0000
0000
,  // measure 11
1000
0000
0000
0000
,  // measure 12
0001
0000
0010
0000
,  // measure 13
0100
0000
0000
0000
,  // measure 14
1000
0000
0000
0000
,  // measure 15
0010
0000
0000
0000
,  // measure 16
1000
0000
0100
0000
,  // measure 17
0010
0000
0000
0000
,  // measure 18
0010
0000
0000
0000
,  // measure 19
0001
0000
0000
0000
,  // measure 20
0001
0000
0000
0000
,  // measure 21
1000
0000
0000
0000
,  // measure 22
0100
0000
0000
0000
,  // measure 23
1000
0000
0000
0000
,  // measure 24
0100
0000
0000
0000
,  // measure 25
0010
0000
0010
0000
,  // measure 26
0001
0000
0001
0000
,  // measure 27
0010
0000
0010
0000
,  // measure 28
0001
0000
0001
0000
,  // measure 29
1000
0000
1000
0000
,  // measure 30
0010
0000
0010
0000
,  // measure 31
1000
0000
1000
0000
,  // measure 32
0010
0000
0010
0000
,  // measure 33
1000
0000
0000
0000
,  // measure 34
0001
0000
0000
0000
,  // measure 35
1000
0000
0000
0000
,  // measure 36
0001
0000
0000
0000
,  // measure 37
1001
0000
0000
0000
,  // measure 38
1000
0000
0000
0000
,  // measure 39
0100
0000
0000
0000
,  // measure 40
1000
0000
0000
0000
,  // measure 41
1001
0000
0000
0000
,  // measure 42
0001
0000
0000
0000
,  // measure 43
0110
0000
0000
0000
,  // measure 44
0100
0000
0000
0000
,  // measure 45
1001
0000
0001
0000
,  // measure 46
1000
0000
0001
0000
,  // measure 47
1000
0000
0001
0000
,  // measure 48
1000
0000
0000
0000
,  // measure 49
0100
0000
0000
0000
,  // measure 50
0010
0000
0000
0000
,  // measure 51
0001
0000
0000
0000
,  // measure 52
0100
0000
0000
0000
0000
0100
0000
0000
;
