#TITLE:CLOUDY MUSIC;
#SUBTITLE:;
#ARTIST:SLAKE;
#TITLETRANSLIT:;
#SUBTITLETRANSLIT:;
#ARTISTTRANSLIT:;
#CREDIT:DigiMindAxel;
#BANNER:CLOUDY MUSIC.png;
#BACKGROUND:CLOUDY MUSIC-bg.png;
#LYRICSPATH:;
#CDTITLE:beatmania IIDX.png;
#MUSIC:CLOUDY MUSIC.ogg;
#METERTYPE:DDR X;
#OFFSET:-5.475;
#SAMPLESTART:68.598;
#SAMPLELENGTH:12.000;
#SELECTABLE:YES;
#BPMS:0.000=95.000,12.000=190.000,140.000=95.000,156.000=190.000,220.000=95.000;
#STOPS:155.750=5.0526315
;
#BGCHANGES:;

//---------------dance-single - ----------------
#NOTES:
     dance-single:
     :
     Easy:
     5:
     0.247,0.254,0.038,0.135,0.000:
1000
0100
0000
0010
,
0100
0000
0010
0000
2002
0000
0000
3003
,
0000
0000
0000
0000
,
0001
0010
0000
0001
,
0000
1000
0001
1000
,
0000
0100
0000
1000
,
0000
0001
1000
0001
,
0000
0100
0000
0001
,
0000
1000
0010
1000
,
0000
0010
0000
1000
,
0000
0001
0100
0001
,
0000
0010
0000
0100
,
0000
1000
0001
1000
,
0000
0100
0000
0010
,
0000
0001
1000
0010
,
0000
0100
0000
0010
,
0000
0100
0010
1000
,
2002
0000
0000
3003
,
0220
0000
0000
0330
,
1000
0100
0000
1000
,
0000
0010
0100
0001
,
0000
0001
0000
0100
,
0010
1000
0001
1000
,
0000
1000
0000
0010
,
0000
1000
0001
0100
,
0000
0010
0000
0100
,
0000
0001
1000
0100
,
0000
0010
0000
0100
,
0000
1000
0001
0010
,
0000
0100
0000
1000
,
0000
0100
1000
0001
,
0000
0010
0000
0001
,
0000
0010
0001
1000
,
0020
0000
0230
0000
,
0320
0000
0100
0130
,
0001
0001
0100
0100
,
0010
0010
1000
1000
,
0100
0100
0010
0010
,
0002
0000
0000
0000
2000
0000
0000
3003
,
1000
0010
0000
0100
,
0000
0001
1000
0010
,
0000
0100
0000
0010
,
0000
0100
0001
1000
,
0000
0010
0000
0100
,
0010
0100
0001
1000
,
0000
0001
0000
1000
,
0001
1000
0100
0010
,
0000
0001
0000
1000
,
0010
0100
0001
1000
,
0000
1000
0000
0001
,
0010
0100
1000
0001
,
0000
0001
0000
1000
,
0100
0010
0001
1000
,
0020
0000
0230
0000
,
0320
0000
0100
0130
,
0001
0001
0010
0010
,
0100
0100
1000
1000
,
0010
0100
0010
1000
,
0100
0010
0100
1001
;

//---------------dance-single - ----------------
#NOTES:
     dance-single:
     :
     Medium:
     11:
     0.483,0.424,0.250,0.077,0.000:
0001
0000
0010
0000
1000
0000
0010
0100
,
1000
0000
0001
0000
0100
1000
0001
0100
,
0000
0000
0000
0000
0010
0010
0010
0000
,
1001
0000
1000
0100
1000
0000
0001
0010
,
0100
0000
1000
0100
1000
0000
1001
0000
,
0001
0000
0001
0010
0001
0000
0010
0100
,
1000
0000
0001
0010
0001
0000
1001
0000
,
1000
0000
1000
0000
1000
0001
0100
0000
,
0001
0000
0001
0000
0001
1000
0010
0000
,
1000
0010
0100
0000
0100
0010
0100
0000
,
0100
0001
1000
0000
0001
0000
1001
0000
,
0001
0000
0001
0100
0001
0000
0010
0100
,
1000
0000
0001
0100
0001
0000
1001
0000
,
1000
0000
1000
0010
1000
0000
0100
0010
,
0001
0000
1000
0010
1000
0000
1001
0000
,
0001
0000
0001
0000
0001
1000
0010
0000
,
1000
0000
1000
0000
1000
0001
0100
0000
,
1001
0000
0001
0000
1000
0100
0000
0010
,
0001
0100
0100
0110
,
1010
0000
0010
0000
0010
0000
0010
1000
,
0001
0000
0010
0100
1000
0001
1000
0000
,
0110
0000
0100
0000
0100
0000
0100
0001
,
1000
0000
0100
0010
0001
1000
0001
0000
,
0110
0000
0010
0000
0010
0000
0010
1000
,
0001
0000
0010
0100
1000
0001
1000
0000
,
0110
0000
0100
0000
0100
0000
0100
0001
,
1000
0000
0100
0010
0001
1000
0001
0000
,
0010
0100
0010
0000
0001
1000
0001
0000
,
0010
0100
1000
0010
0100
0000
1001
0000
,
0100
0010
0100
0000
1000
0001
1000
0000
,
0100
0010
0001
0100
0010
0000
1001
0000
,
0010
0100
0010
0000
0001
1000
0001
0000
,
0200
0000
0010
0000
0310
1000
0001
0000
,
2000
0000
3002
0000
,
0013
0100
1000
1001
,
0001
0010
0001
0000
0100
0100
0110
0000
,
1000
0100
1000
0000
0010
0010
0110
0000
,
0001
0100
0001
0000
0100
0100
0110
0000
,
1000
0010
0100
0000
0010
0100
0001
0000
,
1000
0000
0010
0000
0100
0010
0100
0000
,
0001
0000
1000
0100
1000
0010
0100
0000
,
0001
1000
0001
0000
1000
0100
1000
0000
,
0001
0010
0001
1000
0100
0010
0001
0000
,
0100
0010
0100
0000
0010
1000
0010
0000
,
1000
0001
1000
0001
0100
0010
1000
0000
,
0010
0100
0010
0000
1000
0100
1000
0000
,
0001
0010
0001
1000
0100
0010
0001
0000
,
0100
0010
2000
0000
0001
0000
0001
0000
,
3001
0000
1000
0100
0010
0000
1001
0000
,
0010
0100
0002
0000
1000
0000
1000
0000
,
1003
0000
0001
0010
0100
0000
1001
0000
,
0100
0010
2000
0000
0001
0000
0001
0000
,
3001
0000
1000
0010
0100
0000
1001
0000
,
0002
0000
2003
0000
,
3100
0010
0001
1001
,
1000
0100
1000
0000
0010
0010
0110
0000
,
0001
0010
0001
0000
0100
0100
0110
0000
,
1000
0100
1000
0000
0010
0010
0110
0000
,
0001
0010
0001
0000
0100
0100
0110
1000
;

//---------------dance-single - ----------------
#NOTES:
     dance-single:
     :
     Hard:
     13:
     0.644,0.764,0.481,0.163,0.159: // measure 1
1000
0010
0110
0000
0100
0001
1001
0000
,  // measure 2
1000
0000
0100
0000
0110
0000
0000
0000
0001
0000
0100
0010
0100
0010
2000
0000
,  // measure 3
0000
0001
0001
0000
0001
0001
3001
0000
,  // measure 4
1001
0000
0010
0001
0100
0000
0010
1000
,  // measure 5
0100
0000
1000
0100
0010
0001
0010
0000
,  // measure 6
0001
1000
0010
0000
1000
0001
0100
0000
,  // measure 7
0001
0010
0100
1000
0100
0000
1100
0000
,  // measure 8
0010
0001
2000
0000
0100
0000
3100
0000
,  // measure 9
0010
0001
2000
0000
0100
0000
3100
0000
,  // measure 10
0010
0001
0200
0000
0010
0000
0310
0000
,  // measure 11
1000
0100
0001
0100
1000
0000
1001
0000
,  // measure 12
1000
0010
0100
0000
0001
0100
0010
0000
,  // measure 13
1000
0100
0010
0001
0010
0000
0011
0000
,  // measure 14
0001
0100
0010
0000
1000
0010
0100
0000
,  // measure 15
0001
0100
0010
1000
0100
0000
1100
0000
,  // measure 16
1000
0010
0200
0000
0001
0000
0301
0000
,  // measure 17
1000
0010
0200
0000
0001
0000
0301
0000
,  // measure 18
1001
0000
1000
0000
1000
1010
0000
0101
,  // measure 19
0001
0000
0000
1001
0000
0000
1000
0010
1000
0001
0000
0000
,  // measure 20
1002
0000
0010
0000
0013
0000
0100
1000
,  // measure 21
0001
0000
0100
0000
0001
0000
0000
0100
0001
0000
1000
0000
0100
0000
0000
0000
,  // measure 22
1002
0000
0010
0000
0013
0000
0100
1000
,  // measure 23
0001
0000
0100
0000
0001
0000
0000
0100
0001
0000
1000
0000
0100
0000
0000
0000
,  // measure 24
1002
0000
0100
0000
0103
0000
0010
1000
,  // measure 25
0001
0000
0010
0000
0001
0000
0000
0010
0001
0000
1000
0000
0010
0000
0000
0000
,  // measure 26
1002
0000
0100
0000
0103
0000
0010
1000
,  // measure 27
0001
0000
0010
0000
0001
0000
0000
0010
0001
0000
1000
0000
0010
0000
0000
0000
,  // measure 28
1000
0100
1000
0001
0010
0000
1000
0010
,  // measure 29
0001
0000
0000
0000
1000
0000
0100
1000
0100
0000
1000
0000
0001
0000
0000
0000
,  // measure 30
1000
0100
1000
0001
0100
0000
1000
0100
,  // measure 31
0001
0000
0000
0000
0010
0000
0100
0010
0100
0000
1000
0000
0001
0000
0000
0000
,  // measure 32
1000
0100
1000
0001
0100
0000
1000
0100
,  // measure 33
0001
0000
0000
0000
1000
0000
0100
0010
0100
0000
1000
0000
0001
0000
0000
0000
,  // measure 34
0200
0001
0000
0301
2000
0000
0000
0000
,  // measure 35
3020
1000
0000
1030
0001
0000
1001
0000
,  // measure 36
1000
1000
0010
0010
1001
1001
0110
0100
,  // measure 37
0001
0010
0100
1000
1001
1001
0110
0010
,  // measure 38
1000
0100
0010
0001
1001
1001
0110
0010
,  // measure 39
1000
0000
0000
0000
0000
0000
1000
0000
0000
0000
0000
0000
0010
0000
0000
0110
0000
0000
0000
0000
0000
0000
0000
0000
1001
0000
0000
1000
0000
0000
0001
0000
0000
0000
0000
0000
1000
0000
0010
0000
1000
0000
0010
0000
0000
0000
0000
0000
,  // measure 40
1002
0000
0000
0000
0013
0000
0100
0000
1000
0000
0000
0000
0001
0000
0100
0010
,  // measure 41
0100
0000
0001
0000
1000
0000
0100
1000
0100
0000
1000
0000
0001
0000
0000
0000
,  // measure 42
1000
0000
0100
0000
0001
0000
0100
0000
1000
0000
0000
0000
0001
0000
1000
0010
,  // measure 43
1000
0000
0001
0000
0010
0000
0100
0010
0100
0000
1000
0000
0010
0000
0000
0000
,  // measure 44
0210
0000
0000
0000
0301
0000
0010
0000
0100
0000
0000
0000
1000
0000
0010
0100
,  // measure 45
0010
0000
1000
0000
0100
0000
0010
0100
0010
0000
0001
0000
0100
0000
0000
0000
,  // measure 46
0001
0000
0100
0000
1000
0000
0100
0000
0001
0000
0000
0000
0100
0000
0010
1000
,  // measure 47
0010
0000
0100
0000
0001
0000
1000
0100
1000
0000
0010
0000
0100
0000
0000
0000
,  // measure 48
0001
0000
0010
0000
1000
0000
0010
0000
0001
0000
0000
0000
1000
0000
0100
1000
,  // measure 49
0100
0000
0010
0000
0001
0000
1000
0010
0100
0000
0001
0000
1001
0000
0000
0000
,  // measure 50
1000
0000
0010
0000
0001
0000
0010
0000
1000
0000
0000
0000
0100
0000
0010
0001
,  // measure 51
0010
0000
0100
0000
1000
0000
0001
0100
0010
0000
1000
0000
1001
0000
0000
0000
,  // measure 52
0001
0000
0100
0000
1000
0000
0100
0000
0001
0000
0000
0000
1000
0000
0010
0100
,  // measure 53
0010
0000
1000
0000
0100
0000
0010
0001
0100
0000
0001
0000
1001
0000
0000
0000
,  // measure 54
2000
0010
0000
3010
0200
0001
0000
0301
,  // measure 55
1000
0100
0000
0010
0001
1000
1001
0000
,  // measure 56
0001
1000
0001
0000
0100
0000
0100
0000
1001
0000
1001
0000
0011
0000
1100
0000
,  // measure 57
0010
0001
0010
0000
0100
0000
0100
0000
1001
0000
1001
0000
1010
0000
0101
0000
,  // measure 58
0001
1000
0001
0000
1000
0000
1000
0000
0110
0000
0110
0000
0101
0000
1010
0000
,  // measure 59
0010
0100
0010
0000
1000
0000
1000
0000
0110
0000
0110
0000
0011
0000
1100
0000
;

//---------------dance-single - ----------------
#NOTES:
     dance-single:
     :
     Beginner:
     2:
     0.091,0.113,0.038,0.000,0.000:
0000
0000
0000
0000
,
0000
0000
0000
0000
,
0000
0000
0000
0000
,
0001
0000
0001
0000
,
0001
0000
0000
0000
,
1000
0000
1000
0000
,
1000
0000
0000
0000
,
0001
0000
0001
0000
,
0001
0000
0000
0000
,
1000
0000
1000
0000
,
1000
0000
0000
0000
,
0010
0000
0010
0000
,
0010
0000
0000
0000
,
1000
0000
1000
0000
,
1000
0000
0000
0000
,
0001
0000
0001
0000
,
0001
0000
0000
0000
,
0110
0000
0000
0000
,
0000
0000
0000
0000
,
1001
0000
0000
0000
,
0000
0000
0000
0000
,
0001
0000
0000
0000
,
0000
0000
0000
0000
,
1000
0000
0000
0000
,
0000
0000
0000
0000
,
0001
0000
0000
0000
,
0000
0000
0000
0000
,
1000
0000
0000
0000
,
0000
0000
0000
0000
,
0010
0000
0000
0000
,
0000
0000
0000
0000
,
0100
0000
0000
0000
,
0000
0000
0000
0000
,
0001
0000
0000
0000
,
1000
0000
0000
0000
,
1001
0000
0000
0000
,
0001
0000
0000
0000
,
1000
0000
0000
0000
,
0001
0000
0000
0000
,
1000
0000
1000
0000
,
1000
0000
0000
0000
,
0001
0000
0001
0000
,
0001
0000
0000
0000
,
1000
0000
1000
0000
,
1000
0000
0000
0000
,
0001
0000
0001
0000
,
0001
0000
0000
0000
,
0010
0000
0010
0000
,
0010
0000
0000
0000
,
0100
0000
0100
0000
,
0100
0000
0000
0000
,
1000
0000
1000
0000
,
1000
0000
0000
0000
,
1001
0000
0000
0000
,
0000
0000
0000
0000
,
0001
0000
0000
0000
,
1000
0000
0000
0000
,
0001
0000
0000
0000
,
1000
0000
0000
0001
;
