#TITLE:シャルル;
#SUBTITLE:;
#ARTIST:バルーン;
#TITLETRANSLIT:CHARLES;
#SUBTITLETRANSLIT:;
#ARTISTTRANSLIT:BALLOON;
#CREDIT:DigiMindAxel;
#BANNER:CHARLES.png;
#BACKGROUND:CHARLES-bg.png;
#LYRICSPATH:CHARLES.lrc;
#CDTITLE:DigiMindAxel original simfile.png;
#MUSIC:CHARLES.ogg;
#METERTYPE:DDR X;
#OFFSET:-1.244;
#SAMPLESTART:54.152;
#SAMPLELENGTH:12.000;
#SELECTABLE:YES;
#BPMS:0.000=145.000;
#STOPS:124.000=1.241379
;
#BGCHANGES:-4.000=CHARLES.avi=1.000=1=1=0,
99999=-nosongbg-=1.000=0=0=0 // don't automatically add -songbackground-
;

//---------------dance-single - ----------------
#NOTES:
     dance-single:
     :
     Easy:
     5:
     0.218,0.229,0.207,0.039,0.000:
0000
0000
0000
0000
,
0000
0000
0000
0000
,
0000
0000
0000
0000
,
0000
0000
0000
0000
,
0000
0000
0000
0000
,
0000
0000
0000
0000
,
0000
0000
0000
0000
,
1000
1000
1000
0000
,
0001
0100
0010
0000
,
0100
0010
1000
0000
,
0001
0010
0100
0000
,
0010
0100
1000
0000
,
0001
1000
0100
0000
,
0010
0001
1000
0000
,
0001
1000
0010
0000
,
0100
0001
1000
0000
,
1001
0000
0001
0000
,
0010
0000
0001
0000
,
0100
0000
0010
0000
,
1000
0000
0100
0000
,
1000
1000
1000
0000
,
0001
0001
0001
0000
,
1000
1000
1000
0000
,
0001
0001
0001
0000
,
0020
0000
0100
0000
,
0100
0000
0130
0000
,
2000
0000
0001
0000
,
3001
0001
0001
0000
,
0200
0000
0010
0000
,
0010
0000
0310
0000
,
2000
0000
0001
0000
,
3001
1001
0000
1001
,
0000
1000
0100
0010
,
0000
0001
0000
0100
,
0000
0010
0100
0010
,
0100
1001
0000
1001
,
0000
1001
0000
1001
,
0000
1000
0000
0100
,
0000
0010
0100
1000
,
0001
1001
0000
1001
,
0000
1001
0000
1001
,
0000
1000
0000
0010
,
0000
0100
0001
0010
,
0100
1000
0000
1001
,
0000
0001
1000
0001
,
0000
0010
0000
0001
,
0000
0100
0100
0100
,
0000
1001
0000
1001
,
0000
1001
0000
1001
,
0000
0001
0000
0010
,
0000
0100
0000
1000
,
0000
1001
0000
1001
,
0000
1001
0000
1001
,
0000
1000
0000
0010
,
0000
0100
0000
0001
,
1000
0001
0000
0010
,
0000
0100
0000
1000
,
0000
0010
0100
0010
,
0100
1001
0000
0000
;

//---------------dance-single - ----------------
#NOTES:
     dance-single:
     :
     Medium:
     8:
     0.424,0.516,0.708,0.020,0.000:
0000
0000
0000
0000
,
0000
0000
0000
0000
,
0000
0000
0000
0000
,
0000
0000
0000
0000
,
0000
0000
0000
0000
,
0000
0000
0000
0000
,
0000
0000
0000
0000
,
0100
0100
0100
0000
,
1001
1000
1100
0010
,
1001
0001
0101
0100
,
1001
1000
1100
0010
,
1001
0010
0011
0100
,
1001
1000
1100
0010
,
1001
0001
0101
0100
,
1001
1000
1100
0100
,
0110
0010
0011
0000
,
0001
1000
0001
0000
1000
0100
1000
0000
,
0001
0000
0100
0000
0010
0100
0010
0100
,
0000
0001
0010
0100
,
1100
0011
0000
0000
,
0001
0100
0001
0000
0100
0010
0100
0000
,
0001
1000
0001
0000
1000
0100
1000
0000
,
0010
0100
0001
0010
,
0100
0100
0100
0000
,
1100
1000
1000
1000
,
0010
0100
0010
0000
1000
0001
1000
0000
,
1001
0001
0001
0001
,
0101
0110
1010
0000
,
1001
0000
0001
0000
0001
0000
0100
0001
,
0100
0000
0001
0000
0001
1000
0100
0000
,
1000
0100
1000
0010
0100
0010
0100
0010
,
1000
1001
1001
1100
,
1100
0011
0011
1001
,
1001
0110
0110
1010
,
1010
0101
0001
0010
,
0100
0000
1100
0000
0000
0010
0001
0000
,
0000
0010
0001
0000
0100
0010
0100
0000
,
0001
1000
0100
0010
,
0001
1001
1001
0110
,
0110
1010
0101
1010
,
0101
0000
0010
1000
0002
0000
0020
0000
,
0033
1001
1000
1100
,
0010
0011
0101
0101
,
0110
0000
1010
0000
0000
0100
0001
0000
,
0000
0100
0001
0000
1000
0100
1000
0000
,
0010
0000
0100
0001
0100
0000
0001
1000
,
0001
1100
1100
1001
,
1001
0110
0101
0110
,
0101
1001
1001
1100
,
0010
0000
0001
0000
0100
0010
0100
0000
,
0010
0100
0001
0000
1000
0100
1000
0000
,
0100
1000
0001
0100
0001
0000
0100
0010
,
1000
0000
0001
0010
0001
0000
0010
0100
,
1000
1001
0001
0011
,
1000
1100
0010
0011
,
0011
0000
1001
0000
0000
1000
0001
0000
,
0000
1000
0100
0000
0010
0001
0010
0000
,
0100
1100
0010
0100
,
0010
1001
0000
0000
;

//---------------dance-single - ----------------
#NOTES:
     dance-single:
     :
     Hard:
     10:
     0.475,0.491,0.374,0.039,0.089: // measure 1
0000
0000
0000
0000
,  // measure 2
0000
0000
0000
0000
,  // measure 3
0000
0000
0000
0000
,  // measure 4
0000
0000
0000
0000
,  // measure 5
0000
0000
0000
0000
,  // measure 6
0000
0000
0000
0000
,  // measure 7
0000
0000
0000
0000
,  // measure 8
0100
0100
0110
1001
,  // measure 9
0011
0000
0000
0100
0000
0000
1000
0000
0000
0000
0010
0000
0100
0000
0000
0000
,  // measure 10
0010
0000
0000
1000
0000
0000
0100
0000
0000
0000
0010
0000
0001
0000
0000
0000
,  // measure 11
0100
0000
0000
0001
0000
0000
1000
0000
0000
0000
0100
0000
0010
0000
0000
0000
,  // measure 12
0100
0000
0000
1000
0000
0000
0010
0000
0000
0000
0100
0000
0001
0000
0000
0000
,  // measure 13
1100
0000
0000
0010
0000
0000
0001
0000
0000
0000
1000
0000
1010
0000
0000
0000
,  // measure 14
0100
0000
0000
0001
0000
0000
0010
0000
0000
0000
0100
0000
1100
0000
0000
0000
,  // measure 15
0010
0000
0000
0001
0000
0000
1000
0000
0000
0000
0010
0000
0110
0000
0000
0000
,  // measure 16
0001
0000
0000
0010
0000
0000
0100
0000
0000
0000
1000
0000
1010
0000
0000
0000
,  // measure 17
1001
0000
0001
0000
0100
0010
0001
0010
,  // measure 18
0100
0000
0001
0000
1000
0100
0010
0001
,  // measure 19
0000
1000
0100
1000
0010
0100
0001
0000
,  // measure 20
1000
1100
0010
0001
,  // measure 21
1000
0010
0100
0010
0100
0010
1000
0000
,  // measure 22
0001
0100
0010
0100
0000
0001
0100
0001
,  // measure 23
1000
0100
0001
0100
,  // measure 24
1000
0000
0100
1000
0010
0100
0001
0000
,  // measure 25
0010
0100
0000
0100
0000
0100
0000
0100
,  // measure 26
0000
0100
0000
0100
0000
0100
1000
0100
,  // measure 27
0000
0010
0000
0010
0000
0010
0000
0010
,  // measure 28
0011
0011
1001
0000
,  // measure 29
0100
0010
0000
0010
0000
0010
0100
0001
,  // measure 30
0000
0001
0000
0001
1000
0100
1000
0000
,  // measure 31
0010
0100
0001
0010
0100
1000
0100
0010
,  // measure 32
0001
0000
0000
0000
1100
0000
0000
1000
0001
0000
0000
0000
0101
0000
0000
0001
,  // measure 33
1000
0000
1010
1000
0001
0010
0200
0000
,  // measure 34
1000
0000
1300
0010
0001
0010
1000
0000
,  // measure 35
0100
0010
0001
0000
1100
0000
0110
0000
,  // measure 36
0011
0000
1001
0000
1000
0100
0001
0000
,  // measure 37
1000
0010
0001
1000
0100
0010
0001
0000
,  // measure 38
1000
0000
0001
0100
0010
0100
0001
1000
,  // measure 39
0100
0001
0100
0000
1100
0000
0011
0000
,  // measure 40
1001
0000
0000
0000
1100
0000
0000
1000
0001
0000
0000
0000
0101
0000
0000
0001
,  // measure 41
1000
0000
1100
0100
0010
0001
0200
0000
,  // measure 42
0001
0000
0310
1000
0100
0001
0100
0000
,  // measure 43
1000
0010
0100
0000
0101
0000
0110
0000
,  // measure 44
1010
0000
1001
0000
0001
0100
1000
0000
,  // measure 45
0001
0010
1000
0001
0010
0100
0010
0001
,  // measure 46
1000
0000
0001
0100
0010
0001
0010
0100
,  // measure 47
0001
1000
1100
0000
0100
0000
0100
1000
,  // measure 48
0001
0000
0000
0000
1001
0000
0000
1000
0010
0000
0000
0000
1001
0000
0000
0001
,  // measure 49
0010
0000
0001
1000
0100
0010
0002
0000
,  // measure 50
0100
0000
0103
0010
1000
0100
0010
0100
,  // measure 51
1000
0000
0001
0010
0100
0001
0100
0010
,  // measure 52
0001
0000
0000
0000
1001
0000
0000
1000
0010
0000
0000
0000
1001
0000
0000
0001
,  // measure 53
0010
0000
0001
0010
1000
0010
0002
0000
,  // measure 54
1000
0000
1003
0001
0010
0001
1000
0001
,  // measure 55
0010
0000
0001
0010
0100
0010
0001
0100
,  // measure 56
0010
0000
0000
0000
1010
0000
0000
1000
0000
0000
0100
0000
0010
0000
0000
0010
,  // measure 57
0000
0001
1000
0100
0001
0100
1000
0000
,  // measure 58
0100
0000
1001
0001
0010
0100
1000
0000
,  // measure 59
1000
0101
0001
0001
;

//---------------dance-single - ----------------
#NOTES:
     dance-single:
     :
     Challenge:
     13:
     0.615,0.630,0.226,0.108,0.497:
0000
0000
0000
0000
,
0000
0000
0000
0000
,
0000
0000
0000
0000
,
0000
0000
0000
0000
,
0000
0000
0000
0000
,
0000
0000
0000
0000
,
0000
0000
0000
0000
,
0010
0000
0000
0010
0000
0000
0010
0100
0001
2000
0000
0000
,
3001
0100
0000
0001
1000
0000
0001
0100
0000
0001
1000
0000
0100
0000
0000
0000
,
0010
0001
0000
1000
0001
0000
0010
0001
0000
1000
0001
0000
0010
0000
0000
0000
,
0100
1000
0000
0001
1000
0000
0100
1000
0000
0001
1000
0000
0010
0000
0000
0000
,
0100
0001
0000
1000
0001
0000
0100
0001
0000
1000
0001
0000
0010
0000
0000
0000
,
0100
1000
0000
1000
0010
0000
0100
0001
0000
0001
0010
0000
0100
0000
0000
0000
,
0010
0001
0000
0001
0100
0000
0010
1000
0000
1000
0100
0000
0010
0000
0000
0000
,
0001
0100
0000
0100
0010
0000
0100
0010
0000
0010
1000
0000
0100
0000
0000
0000
,
0010
0001
0000
0001
1000
0000
0100
1000
0000
1000
0001
0000
0100
0000
0000
0000
,
1001
0000
0000
0001
0010
0000
0001
0000
1000
0000
0000
1000
0010
0000
1000
0000
,
0001
0000
0000
0001
0010
0000
0001
0000
1000
0100
0000
1000
0100
0000
0000
0000
,
0010
0000
0000
0010
0001
0000
0100
0000
0010
0000
0000
0010
1000
0000
0100
0000
,
0010
0000
0000
0010
0001
0000
1000
0000
0010
0100
0000
0010
0100
0000
0000
0000
,
0001
0000
1000
0010
1000
0000
0100
0000
0010
0000
0001
1000
0001
0000
0000
0000
,
0010
0000
0100
1000
0100
0000
0010
0000
0001
0000
0100
0010
0100
0000
0000
0000
,
0001
0000
1000
0100
1000
0000
0010
0000
0100
0000
0001
1000
0001
0000
0000
0000
,
1000
0000
0001
0010
0001
0000
0100
0000
0010
0000
1000
0001
1000
0001
1000
0001
,
1000
0001
0010
0001
1000
0001
0010
0001
,
1000
0001
0010
0001
1000
0001
0001
1000
,
0100
0010
0001
0010
1000
0010
0001
1000
,
1100
1001
0011
0000
,
0001
1000
0100
1000
0001
1000
2000
0000
,
3100
0010
0001
0010
0100
1000
2000
0000
,
3001
0100
1000
0100
0001
0010
1000
0010
,
0011
0000
0000
0000
1001
0000
0000
1000
0100
0000
0000
0100
0001
0000
0000
0001
,
0100
0000
0000
0100
1000
0000
0010
0000
0001
0000
0010
0000
1000
0000
0100
0000
,
0010
0000
0001
0000
1000
0000
0000
1000
0010
0000
0100
0000
0010
0000
0000
0010
,
1000
0001
0010
0000
0011
0000
1001
0000
,
1100
0000
0000
0000
1002
0000
0000
1000
0000
0000
1003
0000
0020
0000
0000
0100
,
0000
0000
0130
0000
0002
0000
0000
0010
0000
0000
0013
0000
0200
0000
0000
1000
,
0000
1300
0001
0100
1000
0100
0001
0010
,
1000
0010
0011
0000
1001
0000
0110
0000
,
1001
0000
0000
0000
1000
0000
0000
1000
0010
0000
0000
0010
0001
0000
0000
0001
,
0010
0000
0000
0010
1000
0000
0100
0000
0001
0000
0100
0000
1000
0000
0010
0000
,
0100
0000
0010
0000
1000
0000
0000
1000
0001
0000
0010
0000
0100
0000
0000
0100
,
1000
0001
0100
0000
1001
0000
1010
0000
,
0101
0000
0000
0000
1002
0000
0000
1000
0000
0000
1003
0000
0200
0000
0000
1000
,
0000
0000
1300
0000
0020
0000
0000
0100
0000
0000
0130
0000
0002
0000
0000
0010
,
0000
0013
0001
0100
1000
0001
0010
1000
,
0001
0100
0110
0000
0010
0100
0001
0100
,
0010
0000
1000
0000
1001
0000
0000
0001
0010
0000
0000
0010
1000
0000
0000
1000
,
0010
0000
0000
0010
0001
0000
0100
0000
1000
0000
0100
0000
0001
0000
0010
0000
,
1000
0000
0010
0000
0001
0000
0000
0001
1000
0000
0100
0000
1000
0000
0000
1000
,
0010
0000
0100
0000
0010
0000
0000
0010
0100
0000
0001
0000
0010
0100
0010
0100
,
0010
0100
0010
0000
1001
0000
0000
0001
0100
0000
0000
0100
1000
0000
0000
1000
,
0100
0000
0000
0100
0001
0000
0010
0000
1000
0000
0010
0000
0001
0000
0100
0000
,
1000
0000
0100
0000
0001
0000
0000
0001
0100
0000
0010
0000
0100
0000
0000
0100
,
0010
0000
1000
0000
0100
0000
0000
0100
0010
0000
0001
0000
0100
0000
0000
0100
,
0010
0000
1000
0001
1000
0000
0000
0001
0010
0000
0001
0000
1001
0000
0000
1000
,
0100
0000
1000
0000
1001
0000
0001
0000
0100
0000
0010
0100
0010
0100
0010
0100
,
0010
0000
0000
0000
1000
0000
0100
0000
0001
0000
0100
0000
1000
0000
0001
0010
,
0001
0010
0001
0010
0001
0000
0000
0000
0000
0000
0000
0000
0000
0000
0000
0000
;

//---------------dance-single - ----------------
#NOTES:
     dance-single:
     :
     Beginner:
     1:
     0.087,0.143,0.059,0.000,0.000:
0000
0000
0000
0000
,
0000
0000
0000
0000
,
0000
0000
0000
0000
,
0000
0000
0000
0000
,
0000
0000
0000
0000
,
0000
0000
0000
0000
,
0000
0000
0000
0000
,
0000
0000
0000
0000
,
1000
0000
0000
0000
,
0100
0000
0000
0000
,
0010
0000
0000
0000
,
0001
0000
0000
0000
,
1000
0000
0000
0000
,
0100
0000
0000
0000
,
0010
0000
0000
0000
,
0001
0000
0000
0000
,
0100
0000
0000
0000
,
0000
0000
0000
0000
,
0100
0000
0000
0000
,
0000
0000
0000
0000
,
0010
0000
0000
0000
,
0000
0000
0000
0000
,
0010
0000
0000
0000
,
0000
0000
0000
0000
,
1001
0000
0000
0000
,
0000
0000
0000
0000
,
1000
0000
0000
0000
,
0001
0000
0001
0000
,
0010
0000
0000
0000
,
0100
0000
0000
0000
,
1000
0000
0000
0000
,
0001
1001
0000
1000
,
0000
1000
0000
0000
,
0000
0001
0000
0001
,
0000
0001
0000
0000
,
0000
1001
0000
0000
,
0000
0000
0000
0000
,
0000
1000
0000
0010
,
0000
1000
0000
0000
,
0000
1001
0000
0001
,
0000
0001
0000
0000
,
0000
1000
0000
1000
,
0000
1000
0000
0000
,
0000
0100
0000
0000
,
0000
0010
0000
0000
,
0000
0001
0000
0000
,
0000
0100
0000
0000
,
0000
1001
0000
0001
,
0000
0001
0000
0000
,
0000
1000
0000
1000
,
0000
1000
0000
0000
,
0000
1001
0000
0001
,
0000
0001
0000
0000
,
0000
1000
0000
1000
,
0000
1000
0000
0000
,
0000
0100
0000
0000
,
0000
0010
0000
0000
,
0000
0001
0000
0000
,
0000
0100
0000
0000
;
