#VERSION:0.83;
#TITLE:Brain Power;
#SUBTITLE:;
#ARTIST:ノマ;
#TITLETRANSLIT:;
#SUBTITLETRANSLIT:;
#ARTISTTRANSLIT:NOMA;
#GENRE:;
#ORIGIN:;
#CREDIT:DigiMindAxel;
#BANNER:Brain Power.png;
#BACKGROUND:Brain Power-bg.png;
#PREVIEWVID:;
#JACKET:Brain Power-jacket.png;
#CDIMAGE:;
#DISCIMAGE:;
#LYRICSPATH:Brain Power.lrc;
#CDTITLE:SOUND VOLTEX.png;
#MUSIC:Brain Power.ogg;
#OFFSET:-1.468998;
#SAMPLESTART:73.382881;
#SAMPLELENGTH:12.000000;
#SELECTABLE:YES;
#DISPLAYBPM:85.000000:173.000000;
#BPMS:0.000=170.000,
132.000=85.000,
148.000=170.073,
152.000=170.210,
156.000=170.347,
160.000=170.490,
164.000=170.630,
168.000=170.850,
172.000=171.151,
176.000=171.581,
180.000=172.151,
184.000=172.741,
188.000=173.000;
#STOPS:;
#DELAYS:;
#WARPS:;
#TIMESIGNATURES:0.000=4=4;
#TICKCOUNTS:0.000=4;
#COMBOS:0.000=1;
#SPEEDS:0.000=1.000=0.000=0;
#SCROLLS:0.000=1.000;
#FAKES:;
#LABELS:0.000=Song Start;
#BGCHANGES:-2.000=Brain Power.avi=1.000=0=0=0=StretchNoLoop====,
99999=-nosongbg-=1.000=0=0=0 // don't automatically add -songbackground-
;
#KEYSOUNDS:;
#ATTACKS:
;

//---------------dance-single - ----------------
#NOTEDATA:;
#CHARTNAME:;
#STEPSTYPE:dance-single;
#DESCRIPTION:;
#CHARTSTYLE:;
#DIFFICULTY:Easy;
#METER:6;
#RADARVALUES:0.285859,0.446514,0.104857,0.122333,0.000000,229.000000,217.000000,12.000000,14.000000,0.000000,0.000000,0.000000,0.000000,0.000000,0.285859,0.446514,0.104857,0.122333,0.000000,229.000000,217.000000,12.000000,14.000000,0.000000,0.000000,0.000000,0.000000,0.000000;
#CREDIT:;
#DISPLAYBPM:85.000000:173.000000;
#NOTES:
0000
0000
0000
0000
,
0000
0000
0000
0000
,
0000
0000
0000
0000
,
0000
0000
0000
0000
,
0000
0000
0000
0000
,
0000
0000
0000
0000
,
0000
0000
0000
0000
,
0000
0000
0000
0000
,
0000
0000
0000
0000
,
0001
1000
0001
1000
,
0001
0100
0001
0100
,
0010
1000
0010
1000
,
0001
1000
0001
1000
,
0001
0001
0001
0001
,
1000
1000
1000
1000
,
0001
0001
1000
1000
,
0002
0000
0000
0000
,
1003
0100
0010
0100
,
1000
0010
0100
0000
,
0010
0100
0001
0010
,
0100
0010
0001
0000
,
1000
0001
1000
0100
,
0010
0100
1000
0000
,
0010
0100
0001
0010
,
0100
0010
0001
0001
,
1000
0010
0100
0010
,
1000
0001
1000
0001
,
1000
0010
0100
0010
,
1000
0001
1000
0000
,
0001
0100
0010
0100
,
0001
1000
0001
1000
,
0001
0100
0010
0100
,
0001
1000
0100
0000
,
1001
0010
0110
0100
,
1001
1000
1001
0001
,
0110
0010
0110
0100
,
1001
1000
1001
0001
,
1000
0100
1000
0100
,
1000
0001
1000
0001
,
1000
0100
1000
0100
,
1000
0001
1000
0001
,
0100
0001
0100
0001
,
1000
0001
1000
0001
,
0100
0001
0100
0001
,
1000
0001
1000
0001
,
1000
0100
0010
0001
,
1001
0000
1001
0000
,
1002
0000
0100
0000
,
1003
0001
0010
0100
,
2000
0000
0100
0000
,
3001
1000
0100
0010
,
0002
0000
0100
0000
,
0013
0001
0010
0100
,
2000
0000
0010
0000
,
3100
1000
0010
0100
,
0002
0000
1000
0000
,
0013
0001
0010
0100
,
2000
0000
0010
0000
,
3100
1000
0010
0100
,
0002
0000
1000
0000
,
0103
0001
1000
0010
,
2000
0000
0010
0000
,
3100
1000
0001
0010
,
0200
0000
1000
0000
,
0310
1000
0100
0010
,
0002
0000
0100
0000
,
0013
0001
0010
0100
,
2000
0000
0001
0000
,
3100
1000
0001
0010
,
0100
1000
0100
1000
,
0001
0100
0001
0100
,
2002
0000
0000
0000
,
0000
0000
0000
0000
,
3003
0000
0000
0000
;

//---------------dance-single - ----------------
#NOTEDATA:;
#CHARTNAME:;
#STEPSTYPE:dance-single;
#DESCRIPTION:;
#CHARTSTYLE:;
#DIFFICULTY:Medium;
#METER:11;
#RADARVALUES:0.451882,0.574090,0.419426,0.393212,0.017476,362.000000,314.000000,48.000000,45.000000,0.000000,0.000000,0.000000,0.000000,0.000000,0.451882,0.574090,0.419426,0.393212,0.017476,362.000000,314.000000,48.000000,45.000000,0.000000,0.000000,0.000000,0.000000,0.000000;
#CREDIT:;
#DISPLAYBPM:85.000000:173.000000;
#NOTES:
// measure 0
0000
0000
0000
0000
,  // measure 1
0000
0000
0000
0000
,  // measure 2
0000
0000
0000
0000
,  // measure 3
0000
0000
0000
0000
,  // measure 4
0000
0000
0000
0000
,  // measure 5
0000
0000
0000
0000
,  // measure 6
0000
0000
0000
0000
,  // measure 7
0000
0000
0000
0000
,  // measure 8
0000
0000
0000
0000
,  // measure 9
0001
0101
0100
0101
,  // measure 10
0001
1001
1000
1001
,  // measure 11
0001
0011
0010
0011
,  // measure 12
0001
1001
1000
1001
,  // measure 13
1200
1000
1000
1300
,  // measure 14
0021
0031
0021
0031
,  // measure 15
1001
1001
1001
1001
,  // measure 16
0110
0000
0000
0010
0000
0000
0100
0000
0000
0010
0000
0000
0110
0000
0000
0000
,  // measure 17
0001
0100
0002
0000
1000
0000
1003
0000
,  // measure 18
0001
0100
0010
1000
,  // measure 19
0100
0010
0200
0000
1000
0000
1300
0000
,  // measure 20
0010
0000
0100
0000
0001
0000
1000
0001
,  // measure 21
2000
0001
3001
1000
,  // measure 22
0100
0000
1000
0000
0001
0100
0002
0000
,  // measure 23
1000
1003
0001
0100
,  // measure 24
0020
1030
1001
1001
,  // measure 25
0001
0010
0100
0010
,  // measure 26
0001
1000
0001
0000
0010
0000
0100
0000
,  // measure 27
1000
0010
1000
0001
0010
0001
1000
0000
,  // measure 28
0100
0010
0001
0001
,  // measure 29
0001
0010
0100
1000
,  // measure 30
0010
0000
0100
0000
0010
0000
1000
0001
,  // measure 31
2000
0010
3010
0100
,  // measure 32
0001
0100
0101
0110
,  // measure 33
2001
0000
3010
0020
0230
0000
0310
0000
,  // measure 34
1002
0000
0103
0000
0002
2003
3002
1003
,  // measure 35
0020
0100
0130
0000
0021
0000
0032
1003
,  // measure 36
2001
0000
3020
0230
0320
0000
1030
0000
,  // measure 37
0001
0010
0001
0000
1000
0001
1000
0000
,  // measure 38
0001
0010
0001
0000
1000
0000
0010
0000
,  // measure 39
1000
0010
1000
0000
0001
1000
0001
0000
,  // measure 40
1000
0010
1000
0000
0100
0000
0010
0000
,  // measure 41
0100
0010
0100
0000
1000
0001
1000
0000
,  // measure 42
0100
0010
0100
0000
1000
0000
0001
0000
,  // measure 43
0100
0010
0100
0000
0001
1000
0001
0000
,  // measure 44
0100
0010
0100
0000
0001
0000
1000
0000
,  // measure 45
0002
0000
0023
0000
0130
1000
0010
0100
,  // measure 46
0001
0000
0000
1000
0000
0000
0001
0000
0000
1000
0000
0000
1001
0000
0000
0000
,  // measure 47
1200
1000
1000
1300
,  // measure 48
0002
0000
1003
0001
0100
0001
1000
0100
,  // measure 49
0020
0001
0001
0031
,  // measure 50
0200
0000
0301
0010
0100
0010
0001
0000
,  // measure 51
0200
0010
0010
0310
,  // measure 52
2000
0000
3100
0010
0001
0010
0100
1000
,  // measure 53
0020
0100
0100
0130
,  // measure 54
0002
0000
1003
0010
0100
0010
1000
0010
,  // measure 55
0200
0010
0010
0310
,  // measure 56
2000
0000
3100
0010
0001
0010
0100
0000
,  // measure 57
2000
0010
0010
3010
,  // measure 58
0200
0000
0301
1000
0100
1000
0001
1000
,  // measure 59
0200
0010
0010
0310
,  // measure 60
0002
0000
0013
0100
1000
0100
0010
0001
,  // measure 61
0200
0010
0010
0310
,  // measure 62
2000
0000
3001
0100
0010
0100
0001
0100
,  // measure 63
0110
0110
0110
0110
,  // measure 64
1002
0000
0103
0010
1000
0010
0100
0010
,  // measure 65
1001
1001
1001
1001
,  // measure 66
2001
0000
3100
0010
0001
0010
0100
1000
,  // measure 67
1010
1010
1010
1010
,  // measure 68
1001
0000
0001
0010
0100
1000
0001
0100
,  // measure 69
0101
0101
0110
0110
,  // measure 70
1001
0000
1000
0010
0100
0001
1000
0100
,  // measure 71
2002
0000
0000
0000
,  // measure 72
0000
0000
0000
0000
,  // measure 73
3003
0000
0000
0000
;

//---------------dance-single - ----------------
#NOTEDATA:;
#CHARTNAME:;
#STEPSTYPE:dance-single;
#DESCRIPTION:;
#CHARTSTYLE:;
#DIFFICULTY:Hard;
#METER:13;
#RADARVALUES:0.550497,0.701666,0.131071,0.305832,0.122333,441.000000,426.000000,15.000000,35.000000,0.000000,0.000000,0.000000,0.000000,0.000000,0.550497,0.701666,0.131071,0.305832,0.122333,441.000000,426.000000,15.000000,35.000000,0.000000,0.000000,0.000000,0.000000,0.000000;
#CREDIT:;
#DISPLAYBPM:85.000000:173.000000;
#NOTES:
0000
0000
0000
0000
,
0000
0000
0000
0000
,
0000
0000
0000
0000
,
0000
0000
0000
0000
,
0000
0000
0000
0000
,
0000
0000
0000
0000
,
0000
0000
0000
0000
,
0000
0000
0000
0000
,
0000
0000
0000
0000
,
0000
0001
0000
0100
0000
0001
0000
0100
,
0000
1000
0000
0100
0000
1000
0000
0100
,
0000
0001
0000
1000
0000
0001
0000
1000
,
0000
0010
0000
0100
0000
0010
0100
0001
,
1000
0100
0010
0100
1000
0100
0010
0100
,
1000
0001
1000
0001
0100
0001
0010
0001
,
0101
0110
0101
0110
,
1100
0000
0000
1000
0000
0000
0011
0000
0000
0001
0000
0000
1000
0000
1000
0000
,
0001
0100
1000
0100
0002
0000
1003
0000
,
0001
1000
0001
0000
1000
0010
0100
0000
,
0001
0010
1000
0010
0002
0000
1003
0000
,
0100
1000
0010
0000
0100
0010
1000
0100
,
0020
0000
0130
0000
1000
0001
0100
0000
,
0001
0100
0001
0000
0010
0100
1000
0010
,
0002
0000
0013
0000
1000
0001
0100
0000
,
0102
0000
0000
0103
0010
0100
0001
0000
0000
1001
0000
0000
,
0001
1000
0200
0000
0310
0000
0001
0100
,
0001
1000
0200
0000
0310
0000
0001
1000
,
0100
0010
0001
0100
0020
0000
0130
0000
,
0001
0100
0001
0000
0010
0100
1000
0001
,
0001
0100
0010
0000
0100
0010
0100
0000
,
0001
1000
0100
0000
1000
0100
0001
0100
,
2000
0000
3001
0000
1000
0100
1000
0000
,
0100
0000
0000
1000
0000
0000
0001
0000
0000
0100
0000
0000
0001
0000
0000
0000
1000
0000
0100
0000
0000
0000
0010
0000
,
0200
0000
0000
0000
0000
0000
0000
0000
1300
0000
1000
0000
1000
0000
1000
0000
0001
0000
0000
0001
0000
0000
0001
0000
0200
0000
0000
0000
0300
0000
0000
0000
,
1002
0000
0000
0000
0103
0100
0100
0000
0002
0000
1000
1000
2003
0000
3200
0000
,
1300
0000
0000
0000
0001
0000
0000
0000
0101
0000
0000
0100
0000
0000
0100
0000
0020
0000
0000
0000
0000
0000
0000
0000
2030
0000
0000
0000
3001
0000
0000
0000
,
1100
0000
0000
0000
0000
0000
0100
0000
0000
0100
0000
0000
0200
0000
0000
0000
0000
0000
2300
0000
0000
0000
0000
0000
3002
0000
0000
0000
0000
0000
0013
0000
0100
0000
0010
0000
0002
0000
0000
0000
0000
0000
2003
0000
0000
0000
0000
0000
,
3001
1000
0100
1000
0100
0010
0100
0000
,
1000
0010
0100
0010
0100
0001
1000
0000
,
0100
0010
0001
0010
0001
0100
0010
0000
,
0100
0001
1000
0001
1000
0100
0010
0010
,
0001
1000
0010
1000
0001
0010
0100
0000
,
1000
0100
1000
0001
0100
0010
0100
0000
,
0001
1000
0100
1000
0001
0100
0010
0000
,
1000
0001
0100
0001
1000
0100
0010
0010
,
0001
0001
1000
1000
0002
0000
1003
0000
,
0011
0000
0000
0001
0000
0000
1100
0000
0000
1000
0000
0000
0001
0000
1000
0000
,
0002
0000
0000
0100
0100
0100
0100
0103
,
0001
1000
0100
0010
0001
0010
0100
1000
,
0002
0000
0010
0010
0010
0010
0010
0013
,
0001
1000
0010
0100
0001
0100
0010
1000
,
0200
0000
0000
0000
0000
0000
0010
0000
0010
0000
0000
0010
0000
0000
0310
0000
,
0001
1000
0100
0001
0100
1000
0001
0100
,
0020
0000
0000
0000
0000
0000
1000
0000
1000
0000
0000
1000
0000
0000
1030
0000
,
0001
1000
0010
0001
0010
1000
0001
0010
,
0200
0000
0000
1000
1000
1000
1000
1300
,
0010
0001
1000
0100
0001
0100
1000
0001
,
0020
0000
0100
0100
0100
0100
0100
0130
,
1000
0001
1000
0010
0001
0010
1000
0001
,
0200
0000
0000
0000
0000
0000
0010
0000
0010
0000
0000
0010
0000
0000
0310
0000
,
1000
0100
0001
0100
1000
0001
0010
0100
,
0020
0000
0000
0000
0000
0000
0001
0000
0001
0000
0000
0001
0000
0000
0031
0000
,
1000
0100
0001
0100
1000
0001
0010
0001
,
2001
0000
0000
3100
0010
0001
0010
0100
,
1000
0010
1000
0000
0001
0000
0001
0000
1000
0000
0100
0000
0010
0000
0001
0000
,
2000
0000
3001
0010
0100
1000
0100
0010
,
0001
0100
0001
0000
1000
0000
1000
0000
0001
0000
0100
0000
0010
0000
1000
0000
,
0001
0010
0100
0010
0001
0010
0100
0010
,
0001
1000
0010
0100
0010
1000
0010
0100
,
0001
0001
1000
1000
0001
0001
1000
1000
,
0010
0100
0010
0000
1000
0000
0100
0000
0010
0100
0010
0000
0001
0100
0001
0000
,
2002
0000
0000
0000
,
0000
0000
0000
0000
,
3003
0000
0000
0000
;

//---------------dance-single - ----------------
#NOTEDATA:;
#CHARTNAME:;
#STEPSTYPE:dance-single;
#DESCRIPTION:;
#CHARTSTYLE:;
#DIFFICULTY:Challenge;
#METER:15;
#RADARVALUES:0.750224,1.052498,0.139809,0.262142,0.572342,601.000000,585.000000,16.000000,30.000000,0.000000,0.000000,0.000000,0.000000,0.000000,0.750224,1.052498,0.139809,0.262142,0.572342,601.000000,585.000000,16.000000,30.000000,0.000000,0.000000,0.000000,0.000000,0.000000;
#CREDIT:;
#DISPLAYBPM:85.000000:173.000000;
#NOTES:
0000
0000
0000
0000
,
0000
0000
0000
0000
,
0000
0000
0000
0000
,
0000
0000
0000
0000
,
0000
0000
0000
0000
,
0000
0000
0000
0000
,
0000
0000
0000
0000
,
0000
0000
0000
0000
,
0000
0000
0000
0000
,
1000
0010
0100
1000
0100
0010
1000
0000
,
0100
0010
0001
1000
0010
1000
0001
0000
,
1000
0100
0010
1000
0010
0100
1000
0000
,
0010
0100
0001
1000
0100
0010
0001
0001
,
1000
0010
1000
0010
1000
0010
1000
0000
0001
0100
0001
0100
0001
0100
0001
0000
,
1000
0100
1000
0100
1000
0100
1000
0000
0001
0010
0001
0010
0001
0010
0001
0000
,
1000
0001
1000
0000
0001
1000
0001
0000
0010
0001
0010
0100
1000
0001
1000
0000
,
1010
0000
0000
0110
0000
0000
0101
0000
0000
0110
0000
0000
1001
0000
0001
0000
,
1000
0010
0100
0010
1000
0010
0100
0010
,
1000
0001
0010
0100
0010
0001
0010
0100
,
1000
0001
0010
0001
1000
0001
0010
0001
,
1000
0010
0100
0010
1000
0001
0010
0010
,
0001
1000
0010
1000
0001
1000
0100
0010
,
0001
0100
0001
0010
0100
1000
0010
0100
,
0001
1000
0010
1000
0001
1000
0010
1000
,
0002
0000
0000
1003
1000
0010
0100
0000
0000
1001
0000
0000
,
0001
1000
0100
1000
0001
1000
0100
1000
,
0001
0010
0100
1000
0100
0010
0001
1000
,
0100
0010
0001
0100
1000
0100
0001
1000
,
0010
1000
0001
0010
0001
1000
0010
1000
,
1000
0100
0010
0001
0010
0100
0010
0001
,
1000
0010
0100
0010
1000
0100
0010
0001
,
1000
0001
0010
0001
1000
0001
0010
0001
,
1000
0000
0000
0010
0000
0000
0100
0000
0000
0001
0000
0000
1000
0000
0000
0000
1000
0000
0001
0000
0010
0000
0100
0000
,
0020
0000
0000
0000
0000
0000
0000
0000
0031
0000
0001
0000
0001
0000
0001
0000
0200
0300
0000
0200
0300
0000
0200
0300
0020
0000
0000
0000
2030
0000
0000
0000
,
3002
0000
0000
0000
0000
0000
0000
0000
0000
0000
0000
0000
1003
0000
0000
1000
0000
0000
1000
0000
0000
0000
0000
0000
0200
0000
0000
0000
0000
0000
0010
0000
0000
0010
0000
0000
0310
0000
0001
0000
0010
0000
0100
0000
1000
0000
0001
0000
,
2000
0000
0000
0000
0000
0000
0000
0000
0000
0000
0000
0000
0000
0000
0000
0000
0000
0000
0000
0000
0000
0000
0000
0000
0001
0000
0000
0000
0000
0000
0000
0000
0000
0000
0000
0000
0000
0000
0000
0000
0000
0000
0000
0000
0000
0000
0000
0000
3002
0000
0000
0000
0000
0000
0003
0000
0000
0000
0000
0000
0000
0000
0000
0000
0000
0000
0002
0000
0000
0000
0000
0000
0003
0000
0000
0000
0000
0000
0000
0000
0000
0000
0000
0000
0002
0000
0000
0000
0000
0000
0003
0000
0000
0000
0000
0000
0200
0000
0000
0000
0000
0000
0000
0000
0000
0000
0000
0000
0000
0000
0000
0000
0000
0000
0000
0000
0000
0000
0000
0000
0000
0000
0000
0000
0000
0000
0000
0000
0000
0000
0000
0000
0000
0000
0000
0000
0000
0000
0000
0000
0000
0000
0000
0000
0301
0000
0000
0000
0000
0000
0000
0000
0010
0000
0000
0000
0000
0000
0000
0000
0100
0000
0000
0000
0000
0000
0000
0000
1000
0000
0000
0000
0000
0000
0000
0000
0000
0000
0000
0000
0000
0000
0000
0000
0000
0000
0000
0000
0000
0000
0000
0000
,
0120
0000
0000
0000
0000
0000
1000
0000
0000
1000
0000
0000
2030
0000
0000
0000
0000
0000
3001
0000
0000
0100
0000
0000
0002
0000
0000
0000
0000
0000
1003
0000
0100
0000
0010
0000
0001
0000
1000
0000
0010
0000
2000
0000
0000
0000
0000
0000
,
3001
1000
0010
1000
0001
0010
0001
1000
,
0010
1000
0100
0010
0001
0010
0100
1000
,
0001
1000
0010
1000
0100
1000
0010
1000
,
0001
0010
0100
1000
0100
0010
0001
0001
,
1000
0001
0010
0001
0100
0010
0100
0001
,
1000
0010
0100
0001
0100
0010
1000
0001
,
1000
0100
0010
0100
1000
0010
0100
0010
,
1000
0010
0100
0001
0100
0010
1000
1000
,
0001
0000
0001
0000
1000
0000
1000
0000
0001
0010
0100
1000
0010
0100
0010
0000
,
1010
0000
0000
0110
0000
0000
0101
0000
0000
0110
0000
0000
1001
0000
0001
0000
,
2001
0000
0000
0000
0000
0000
3010
1000
0010
1000
0010
1000
0010
1000
0010
0000
,
1000
0001
1000
0000
0001
0000
0001
0000
1000
0000
0100
0000
0001
0000
0100
0000
,
2000
0000
0000
0000
3010
0100
0010
0100
0010
0100
0010
0100
0010
0100
0010
0000
,
1000
0100
0010
0000
0001
0000
0001
0000
1000
0000
0010
0000
0001
0000
0010
0000
,
2000
0000
0000
0000
0000
0000
3001
0100
0001
0000
0100
0001
0000
0100
0001
0000
,
1000
0100
0010
0000
0001
0000
0010
0000
1000
0000
0010
0000
0001
0000
1000
0000
,
0200
0000
0000
0000
0000
0000
1300
0001
1000
0001
0000
1000
0001
0000
1000
0000
,
0001
0100
0001
0000
0010
0000
0100
0000
1000
0001
1000
0000
0001
0100
0001
0000
,
1002
0000
0000
0000
0000
0000
1003
0010
1000
0010
1000
0010
1000
0010
1000
0000
,
0001
1000
0001
0000
1000
0000
1000
0000
0100
0000
0010
0000
0001
0000
0001
0000
,
2000
0000
0000
0000
3001
0100
0001
0100
0001
0100
0001
0100
0001
0100
0001
0000
,
1000
0100
0010
0000
0100
0000
0100
0000
1000
0000
0010
0000
0100
0000
0100
0000
,
0002
0000
0000
0000
0000
0000
1003
0100
1000
0000
0100
1000
0000
0100
1000
0000
,
0001
0010
0100
0000
1000
0000
1000
0000
0010
0000
0100
0000
0100
0000
0001
0000
,
2000
0000
0000
0000
0000
0000
3010
0100
0010
0100
0000
0010
0100
0000
0010
0000
,
1000
0100
0010
0000
0001
0000
0001
0000
1000
0100
1000
0000
0001
0100
0001
0000
,
1002
0000
0000
0000
0000
0000
0103
0001
0100
0001
1000
0100
1000
0100
0010
0001
,
0100
0010
0100
0000
0001
0000
0001
0000
0100
0000
0010
0000
1000
0000
1000
0000
,
0020
0000
0000
0000
0130
0001
0100
0001
1000
0100
1000
0100
0010
0001
0010
0001
,
1000
0010
1000
0000
0001
0000
0001
0000
0010
0000
0100
0000
1000
0000
0001
0000
,
0010
0001
0010
0001
0010
0001
0010
0000
0100
0010
0100
0010
0100
0010
0100
0000
,
1000
0010
1000
0010
1000
0010
1000
0000
0001
1000
0001
1000
0001
1000
0001
0000
,
0100
0001
0100
0001
0010
0100
0010
0100
1000
0010
1000
0010
1000
0001
1000
0001
,
0100
0010
0100
0001
0010
0100
1000
0001
0100
0001
1000
0100
0010
0001
1000
0000
,
2002
0000
0000
0000
,
0000
0000
0000
0000
,
3003
0000
0000
0000
;

//---------------dance-single - ----------------
#NOTEDATA:;
#CHARTNAME:;
#STEPSTYPE:dance-single;
#DESCRIPTION:;
#CHARTSTYLE:;
#DIFFICULTY:Beginner;
#METER:3;
#RADARVALUES:0.102360,0.186120,0.043690,0.000000,0.000000,82.000000,77.000000,5.000000,0.000000,0.000000,0.000000,0.000000,0.000000,0.000000,0.102360,0.186120,0.043690,0.000000,0.000000,82.000000,77.000000,5.000000,0.000000,0.000000,0.000000,0.000000,0.000000,0.000000;
#CREDIT:;
#DISPLAYBPM:85.000000:173.000000;
#NOTES:
0000
0000
0000
0000
,
0000
0000
0000
0000
,
0000
0000
0000
0000
,
0000
0000
0000
0000
,
0000
0000
0000
0000
,
0000
0000
0000
0000
,
0000
0000
0000
0000
,
0000
0000
0000
0000
,
0000
0000
0000
0000
,
0001
0000
0000
0000
,
1000
0000
0000
0000
,
0001
0000
0000
0000
,
1000
0000
0000
0000
,
0100
0000
0000
0000
,
0100
0000
0100
0000
,
0100
0000
0100
0000
,
0110
0000
0000
0000
,
0001
0000
0000
0000
,
1000
0000
0000
0000
,
0001
0000
0000
0000
,
1000
0000
0000
0000
,
0010
0000
0000
0000
,
0100
0000
0000
0000
,
0010
0000
0000
0000
,
1000
0000
0000
0000
,
0001
0000
0000
0000
,
0010
0000
0000
0000
,
0100
0000
0000
0000
,
1000
0000
0000
0000
,
0001
0000
0000
0000
,
1000
0000
0000
0000
,
0100
0000
0000
0000
,
0010
0000
0000
0000
,
1001
0000
0000
0000
,
0001
0000
0000
0000
,
1000
0000
0000
0000
,
0001
0000
0000
0000
,
1001
0000
0000
0000
,
1000
0000
0000
0000
,
0001
0000
0000
0000
,
1000
0000
0000
0000
,
0100
0000
0000
0000
,
0010
0000
0000
0000
,
0100
0000
0000
0000
,
0010
0000
0000
0000
,
0001
0000
0000
0000
,
1000
0000
0000
0000
,
1001
0000
0000
0000
,
0001
0000
1000
0000
,
0001
0000
0000
0000
,
1000
0000
0001
0000
,
1000
0000
0000
0000
,
0010
0000
0100
0000
,
0010
0000
0000
0000
,
0100
0000
0010
0000
,
0100
0000
0000
0000
,
0001
0000
1000
0000
,
0001
0000
0000
0000
,
0010
0000
0001
0000
,
0010
0000
0000
0000
,
0100
0000
1000
0000
,
0100
0000
0000
0000
,
1000
0000
0001
0000
,
1000
0000
0000
0000
,
0001
0000
1000
0000
,
0001
0000
0000
0000
,
0100
0000
0001
0000
,
0100
0000
0000
0000
,
0010
0000
1000
0000
,
0010
0000
0010
0000
,
0010
0000
0000
0000
,
0110
0000
0000
0000
;
