#TITLE:Born Too Slow;
#SUBTITLE:;
#ARTIST:The Crystal Method;
#TITLETRANSLIT:;
#SUBTITLETRANSLIT:;
#ARTISTTRANSLIT:;
#CREDIT:DigiMindAxel;
#BANNER:Born Too Slow.png;
#BACKGROUND:Born Too Slow-bg.png;
#LYRICSPATH:Born Too Slow.lrc;
#CDTITLE:DigiMindAxel original simfile.png;
#MUSIC:Born Too Slow.ogg;
#METERTYPE:DDR X;
#OFFSET:-0.038;
#SAMPLESTART:20.046;
#SAMPLELENGTH:12.000;
#SELECTABLE:YES;
#BPMS:0.000=130.000;
#STOPS:;
#BGCHANGES:-0.500=Born Too Slow.avi=1.000=1=1=0,
99999=-nosongbg-=1.000=0=0=0 // don't automatically add -songbackground-
;

//---------------dance-single - ----------------
#NOTES:
     dance-single:
     :
     Easy:
     5:
     0.187,0.212,0.017,0.099,0.000:
0000
0000
0000
0000
,
0000
0000
0000
0000
,
0000
0000
0000
0000
,
0000
0000
0000
0000
,
0002
0000
0000
0000
,
0013
0000
0100
0000
,
2000
0000
0000
0000
,
3100
0000
0010
0000
,
0001
0000
0100
0000
,
0010
0000
0010
0010
,
1000
0000
0100
0000
,
0010
0001
0010
0001
,
2000
0000
0100
0000
,
0100
0000
3100
0000
,
0010
0000
0001
0000
,
0100
0010
0100
0010
,
0200
0000
0010
0000
,
0010
0000
0010
0000
,
0310
0000
1000
0000
,
0100
0000
0010
0001
,
1000
0000
0100
1000
,
0100
0000
0010
0000
,
0001
0000
0100
0010
,
0100
0000
0001
0000
,
1000
0000
0100
1000
,
0100
0000
0010
0000
,
0001
0000
0100
0010
,
0100
0100
0100
0000
,
1001
0000
0001
0010
,
0100
0000
0010
0000
,
0001
0100
0010
0100
,
0001
0000
1000
0000
,
0100
1000
0100
0010
,
0001
0000
1000
0000
,
0100
1000
0100
0010
,
0001
0000
0000
0000
,
1001
0000
1000
0000
,
0100
1000
0100
0000
,
0010
0000
0001
0100
,
0010
0000
0010
0000
,
1000
0000
0100
0000
,
0010
0100
1000
0001
,
0100
0000
0100
0000
,
0010
0010
0010
0000
,
2000
0000
0001
0000
,
0001
0000
3001
0000
,
0020
0000
0001
0000
,
0001
0000
0031
0000
,
0200
0000
0010
0000
,
0010
0000
0310
0000
,
2000
0000
0100
0000
,
3100
0100
0100
0000
,
1000
0000
0100
0010
,
0001
0000
0010
0000
,
0001
0000
0100
0010
,
1000
0000
0010
0000
,
0100
0000
0001
0010
,
0100
0000
0010
0000
,
0001
0000
0010
0100
,
1000
0010
1000
0010
,
0200
0000
0000
0000
,
0320
0000
0000
0000
,
0230
0000
0000
0000
,
0320
0000
0000
0000
,
0130
0000
0000
0000
;

//---------------dance-single - ----------------
#NOTES:
     dance-single:
     :
     Medium:
     7:
     0.358,0.397,0.099,0.091,0.021:
0000
0000
0000
0000
,
0000
0000
0000
0000
,
0000
0000
0000
0000
,
0000
0000
0000
0000
,
0001
1000
0000
0000
0010
1000
0010
0000
,
1000
0001
0000
0000
0010
0001
0010
0000
,
0100
1000
0000
0000
0010
0100
0010
0000
,
0100
0001
0000
0000
1000
0100
1000
0000
,
0010
0100
0000
0000
0001
1000
0001
0000
,
0010
0001
0000
0100
0010
0000
0010
0000
,
1000
0001
0000
0000
1000
0100
1000
0000
,
0010
0100
0010
0000
0010
0100
0010
0000
,
1001
0000
1000
0000
1100
0000
0000
0010
,
0001
0000
0001
0000
0101
0000
0000
0010
,
1000
0000
1000
0000
1000
0001
0000
0100
,
0010
0100
0000
0001
1000
0000
0100
0000
,
0011
0000
0001
0000
1001
0000
0000
0100
,
1000
0000
1000
0000
1010
0000
0000
0100
,
0001
0000
0001
0000
0001
1000
0000
0010
,
0100
0010
0000
1000
0001
0000
0010
0000
,
0200
0000
1000
0000
0000
1000
1300
0000
,
0020
0000
0100
0000
0000
0100
0130
0000
,
0002
0000
0010
0000
0000
0010
0013
0000
,
0200
0000
0010
0000
0000
0010
0310
0000
,
0002
0000
1000
0000
0000
1000
1003
0000
,
0200
0000
1000
0000
0000
1000
1300
0000
,
0020
0000
0100
0000
0000
0100
0130
0000
,
0001
1000
0001
1000
0001
1000
0001
0000
,
0100
0001
0000
0100
0001
0000
1000
0100
,
1000
0000
0000
0000
0010
0100
0010
0000
,
1000
0001
0000
1000
0001
0000
0100
0001
,
0100
0000
0000
0000
0001
1000
0001
0000
,
1000
0100
0000
1000
0100
0000
0010
0100
,
0010
0000
0000
0000
0001
1000
0001
0000
,
0100
0001
0000
1000
0100
0000
0010
0100
,
0010
0000
0000
0001
,
1000
0000
0010
0000
0000
0010
0000
0000
0010
0000
0000
0000
0000
0000
0000
0000
,
1000
0000
0001
0000
0000
0001
0000
0000
0001
0000
0000
0000
0000
0000
0000
0000
,
0010
0100
1000
0000
0001
0100
0001
0000
,
1000
0010
1000
0000
0010
0100
0010
0000
,
1000
0000
0001
0000
0000
0001
0000
0000
0001
0000
0000
0000
0000
0000
0000
0000
,
0010
0000
0100
0000
0000
0100
0000
0000
0100
0000
0000
0000
0000
0000
0000
0000
,
1000
0010
0100
0000
0010
0100
0001
0000
,
1000
0001
1000
0001
1000
0001
1000
0000
,
1100
0000
0000
1100
0000
0000
1000
0100
,
0010
0000
0000
0000
0000
0001
0100
0001
,
1000
0000
0000
1001
0000
0000
0001
0100
,
0010
0000
0000
0000
0000
1000
0100
1000
,
0010
0000
0000
1010
0000
0000
0100
0001
,
0010
0000
0000
0000
0000
0001
0010
0100
,
1000
0000
0000
1100
0000
0000
0010
0001
,
0100
0010
0100
0010
0100
0010
0100
0000
,
1002
0000
1000
0000
0000
0010
0013
0000
,
0100
0000
1000
0010
0000
1000
0001
0000
,
0020
0000
0001
0000
0000
0100
0130
0000
,
1000
0000
0100
1000
0000
0010
0100
0000
,
0020
0000
1000
0000
0000
0100
0130
0000
,
0001
0000
0010
0001
0000
0010
0100
0000
,
2000
0000
0010
0000
0000
0001
3001
0000
,
1000
0001
1000
0001
1000
0001
1000
0000
,
0100
0000
0000
0000
0000
0000
0010
0001
,
0100
0000
0000
0000
0000
0000
0000
0000
0010
0000
0000
0010
0000
0000
0010
0000
,
1000
0000
0000
0000
0000
0000
0100
0010
,
0001
0000
0010
0100
0000
0000
1000
0010
,
0100
0000
0000
0000
;

//---------------dance-single - ----------------
#NOTES:
     dance-single:
     :
     Hard:
     11:
     0.514,0.502,0.107,0.372,0.050:
0000
0000
0000
0000
,
0000
0000
0000
0000
,
0000
0000
0000
0000
,
0000
0000
0000
0000
,
1000
0010
0000
1000
0010
1000
0010
1000
,
0100
0010
0000
0100
0010
0001
0010
0001
,
0100
0010
0000
0100
0010
0100
0010
0100
,
0001
1000
0000
0001
1000
0100
0010
0100
,
1000
0010
0000
1000
0010
1000
0010
1000
,
0001
0010
0000
0001
0010
0100
0010
0001
,
0100
0010
0000
0100
0010
0100
0010
0100
,
0001
0001
1000
1000
0001
0001
1000
1000
,
0020
0100
0000
0230
0001
0000
0301
1000
,
0200
1000
0000
2300
0010
0000
3010
0100
,
0001
0010
0100
0000
1000
0010
0010
1000
,
0001
0001
1000
0010
0010
1000
0001
0000
,
0200
0001
0000
0302
1000
0000
1003
0100
,
0020
0001
0000
0032
0100
0000
0103
0010
,
1000
0100
0010
0000
0001
0100
0100
0001
,
1000
1000
0001
0100
0100
0001
1000
0000
,
0100
1000
0020
0000
0000
0130
0110
0000
,
0100
0001
0020
0000
0000
0130
0110
0000
,
1000
0001
0020
0000
0000
0031
1001
0000
,
1000
0010
0200
0000
0000
0301
0101
0000
,
0010
1000
0200
0000
0000
1300
1001
0000
,
0001
0010
0200
0000
0000
0310
0110
0000
,
1000
0001
0020
0000
0000
0130
0110
0000
,
1000
1000
0001
0001
1000
1000
0001
0001
,
0010
0100
0000
1000
0010
0010
0100
0100
,
0001
0010
0000
0001
0010
0100
1000
0010
,
0100
0001
0010
1000
0010
0001
0001
0000
,
0010
0100
0000
1000
0010
0010
0100
0100
,
0001
0010
0000
0001
0010
0010
0100
0100
,
1000
0010
0000
1000
0010
0100
0001
0000
,
1000
0010
1000
0100
0001
0100
1000
0001
,
0010
0100
0000
1000
1000
0010
0010
0000
,
0100
0000
0001
0000
1000
0100
0000
1000
0200
0000
0000
0000
0300
0000
0010
0000
,
0001
0000
0100
0000
0010
1000
0000
0010
2000
0000
0000
0000
3000
0000
0001
0000
,
1000
0010
0100
0001
0020
0100
0130
1000
,
0200
1000
1300
0010
0200
0001
0301
0000
,
1000
0000
0100
0000
0010
0100
0000
0010
0200
0000
0000
0000
0300
0000
1000
0000
,
0001
0000
0010
0000
0100
0010
0000
0100
0020
0000
0000
0000
0030
0000
0001
0000
,
0100
0010
1000
0001
0020
0001
0031
1000
,
0100
0100
0010
0010
0100
0100
0010
0010
,
2002
0000
3003
2200
0000
3300
0020
0002
,
0000
0000
0000
0000
0033
0000
0000
0000
0100
0000
0000
1000
0000
0000
0001
0000
,
0202
0000
0303
0220
0000
0330
2000
0200
,
0000
0000
0000
0000
3300
0000
0000
0000
0010
0000
0000
0001
0000
0000
1000
0000
,
1020
0000
0100
0230
0000
0000
0301
1000
,
0100
0000
0000
0000
0010
0000
0001
0000
0100
0000
0000
0100
0000
0000
0100
0000
,
1002
0000
0010
0023
0000
0000
0130
1000
,
0010
0010
0100
0100
0010
0010
0100
0100
,
0001
0010
0000
0001
0010
0100
0010
0001
,
0200
0000
0010
0320
0000
1000
1030
0000
,
0001
0100
0000
0001
0100
0010
0100
0001
,
2000
0000
0100
3200
0000
0010
0310
0000
,
0001
1000
0000
0001
1000
0100
0010
0100
,
2000
0000
0010
3020
0000
0100
0130
0000
,
0001
1000
0000
0001
1000
0100
0001
0100
,
1000
1000
0001
0001
1000
1000
0001
0001
,
0010
0000
0100
0000
1000
0000
0010
0010
,
0100
0000
0000
0000
0001
0000
0000
0000
1000
0000
0000
1000
0000
0000
1000
0000
,
0100
0000
0010
0000
0001
0000
0100
0100
,
0010
0000
1000
0001
0010
0000
0100
1000
,
0001
0000
0000
0000
;

//---------------dance-single - ----------------
#NOTES:
     dance-single:
     :
     Beginner:
     1:
     0.070,0.132,0.033,0.000,0.000: // measure 1
0000
0000
0000
0000
,  // measure 2
0000
0000
0000
0000
,  // measure 3
0000
0000
0000
0000
,  // measure 4
0000
0000
0000
0000
,  // measure 5
0001
0000
0000
0000
,  // measure 6
0001
0000
0000
0000
,  // measure 7
1000
0000
0000
0000
,  // measure 8
1000
0000
0000
0000
,  // measure 9
0001
0000
0000
0000
,  // measure 10
0001
0000
0000
0000
,  // measure 11
1000
0000
0000
0000
,  // measure 12
0100
0000
0000
0000
,  // measure 13
1001
0000
0000
0000
,  // measure 14
0000
0000
0000
0000
,  // measure 15
0000
0000
0000
0000
,  // measure 16
0010
0000
0010
0000
,  // measure 17
0110
0000
0000
0000
,  // measure 18
0000
0000
0000
0000
,  // measure 19
0000
0000
0000
0000
,  // measure 20
1000
0000
1000
0000
,  // measure 21
0001
0000
0000
0000
,  // measure 22
0010
0000
0000
0000
,  // measure 23
0100
0000
0000
0000
,  // measure 24
1000
0000
0000
0000
,  // measure 25
0001
0000
0000
0000
,  // measure 26
0100
0000
0000
0000
,  // measure 27
0010
0000
0000
0000
,  // measure 28
0100
0000
0100
0000
,  // measure 29
1001
0000
0000
0000
,  // measure 30
0001
0000
0000
0000
,  // measure 31
1000
0000
0000
0000
,  // measure 32
0000
0000
0000
0000
,  // measure 33
0001
0000
0000
0000
,  // measure 34
1000
0000
0000
0000
,  // measure 35
0100
0000
0000
0000
,  // measure 36
0000
0000
0000
0000
,  // measure 37
1001
0000
0000
0000
,  // measure 38
1000
0000
0000
0000
,  // measure 39
0001
0000
0000
0000
,  // measure 40
0010
0000
0000
0000
,  // measure 41
0100
0000
0000
0000
,  // measure 42
1000
0000
0000
0000
,  // measure 43
0100
0000
0000
0000
,  // measure 44
1000
0000
0000
0000
,  // measure 45
0010
0000
0000
0000
,  // measure 46
0000
0000
0000
0000
,  // measure 47
0010
0000
0000
0000
,  // measure 48
0000
0000
0000
0000
,  // measure 49
0100
0000
0000
0000
,  // measure 50
0001
0000
0000
0000
,  // measure 51
1000
0000
0000
0000
,  // measure 52
0100
0000
0000
0000
,  // measure 53
0010
0000
0000
0000
,  // measure 54
0001
0000
0000
0000
,  // measure 55
1000
0000
0000
0000
,  // measure 56
0001
0000
0000
0000
,  // measure 57
0010
0000
0000
0000
,  // measure 58
0001
0000
0000
0000
,  // measure 59
1000
0000
0000
0000
,  // measure 60
0010
0000
0010
0000
,  // measure 61
0010
0000
0000
0000
,  // measure 62
0000
0000
0000
0000
,  // measure 63
0100
0000
0000
0000
,  // measure 64
0000
0000
0000
0000
,  // measure 65
0100
0000
0000
0000
;
