#TITLE:Boom! Boom! ヘブン;
#SUBTITLE:;
#ARTIST:BRADIO;
#TITLETRANSLIT:Boom! Boom! HEAVEN;
#SUBTITLETRANSLIT:;
#ARTISTTRANSLIT:;
#CREDIT:DigiMindAxel;
#BANNER:Boom! Boom! HEAVEN.png;
#BACKGROUND:Boom! Boom! HEAVEN-bg.png;
#LYRICSPATH:Boom! Boom! HEAVEN.lrc;
#CDTITLE:DigiMindAxel original simfile.png;
#MUSIC:Boom! Boom! HEAVEN.ogg;
#METERTYPE:DDR X;
#OFFSET:-0.603;
#SAMPLESTART:46.499;
#SAMPLELENGTH:12.000;
#SELECTABLE:YES;
#BPMS:0.000=182.000;
#STOPS:;
#BGCHANGES:-2.000=Boom! Boom! HEAVEN.avi=1.000=1=1=0,
99999=-nosongbg-=1.000=0=0=0 // don't automatically add -songbackground-
;

//---------------dance-single - ----------------
#NOTES:
     dance-single:
     :
     Easy:
     5:
     0.245,0.295,0.111,0.011,0.000:
0000
0000
0000
0000
,
0000
0000
0000
0000
,
0000
0000
0000
0000
,
0001
0000
0000
0000
,
0010
0000
0000
0000
,
0001
0000
0000
0000
,
1000
0100
0010
0001
,
0100
0000
0000
0000
,
0010
0000
0000
0000
,
0100
0000
0000
0000
,
0001
0010
0100
1000
,
0001
0000
0000
0000
,
0100
0000
0000
0000
,
0001
0000
0000
0000
,
1000
0000
0000
0000
,
0100
0000
0000
0000
,
0010
0000
0000
0000
,
0100
0000
0000
0000
,
0010
0000
0000
0000
,
0001
0100
0001
0000
,
1000
0000
0000
0000
,
0100
1000
0100
0000
,
0010
0000
0000
0000
,
0001
0100
0001
0000
,
1000
0000
0000
0000
,
0100
0010
0100
0000
,
0010
0000
0000
0000
,
0001
0000
0100
0000
,
0001
0100
0010
0000
,
1000
0000
0100
0000
,
1000
0100
0010
0000
,
0001
0000
1000
0000
,
0001
1000
0100
0000
,
1001
0000
0000
0000
,
1001
0000
0000
0000
,
0110
0000
0110
0000
,
0010
0100
0010
0000
,
1001
0000
1000
0000
,
0001
0010
0100
0000
,
0010
0001
0010
0000
,
0100
0010
0100
0000
,
1001
0000
0000
0000
,
1001
0000
0000
0000
,
0110
0000
0110
0000
,
0010
0100
0010
0000
,
1001
0000
1000
0000
,
0001
0010
0100
0000
,
0010
0000
0001
0000
,
0100
0000
0010
0000
,
0100
0001
0010
0100
,
2000
0000
0000
0000
,
3001
0100
0001
0000
,
1000
0001
1000
0000
,
0001
0100
0001
0000
,
1000
0001
1000
0100
,
0010
0001
0010
0000
,
0100
0010
0100
0000
,
0010
0001
0010
0000
,
0100
0010
0100
1000
,
0010
0100
0010
0000
,
1000
0010
1000
0000
,
0010
0100
0010
0000
,
1000
0010
0100
0001
,
1000
0100
1000
0000
,
0001
1000
0001
0000
,
1000
0100
1000
0000
,
0001
0010
0100
1000
;

//---------------dance-single - ----------------
#NOTES:
     dance-single:
     :
     Medium:
     9:
     0.441,0.407,0.144,0.088,0.000: // measure 1
0000
0000
0000
0000
,  // measure 2
0000
0000
0000
0000
,  // measure 3
0000
0000
0000
0000
,  // measure 4
0001
0000
1000
0100
0000
0100
0000
0000
,  // measure 5
1000
0000
0001
0100
0000
0100
0000
0000
,  // measure 6
0001
0000
1000
0100
0000
0100
0000
0020
,  // measure 7
0000
0031
0010
0100
,  // measure 8
1000
0000
0010
0100
0000
0100
0000
0000
,  // measure 9
0001
0000
1000
0100
0000
0100
0000
0000
,  // measure 10
0010
0000
0001
0100
0000
0100
0000
0002
,  // measure 11
0000
1003
0100
0010
,  // measure 12
1001
1000
0001
0100
,  // measure 13
0001
0010
0100
1000
,  // measure 14
0100
1000
0010
0100
,  // measure 15
0001
0010
0001
0000
,  // measure 16
1000
0100
0010
0001
,  // measure 17
0010
0100
0010
0000
,  // measure 18
0001
0100
0010
0100
,  // measure 19
0002
0000
0000
0000
,  // measure 20
1003
0000
0100
1000
0000
0100
1000
0000
,  // measure 21
0010
0100
0000
0010
0100
0000
0001
0000
,  // measure 22
0000
1000
0000
0100
,  // measure 23
0010
0001
0010
0000
0100
0000
1000
0000
,  // measure 24
0010
0000
1000
0001
0000
1000
0001
0000
,  // measure 25
0100
0001
0000
0100
0001
0000
0010
0000
,  // measure 26
0000
0100
0000
1000
,  // measure 27
0010
0100
0010
0100
,  // measure 28
0001
1000
0001
0000
1000
0100
1000
0000
,  // measure 29
0001
0010
0100
0000
,  // measure 30
0010
0001
0010
0000
0100
0010
0100
0000
,  // measure 31
1000
0010
0100
0000
,  // measure 32
0001
1000
0001
0000
1000
0100
1000
0000
,  // measure 33
0001
0010
0100
0000
,  // measure 34
1100
0000
0000
1100
0000
0000
1100
0000
,  // measure 35
0000
1001
0000
0000
0000
0000
0000
0001
,  // measure 36
0000
0100
0000
0010
0000
0100
0000
0001
,  // measure 37
0000
1000
0000
0100
1000
0100
0000
0000
,  // measure 38
1000
0100
0001
0100
,  // measure 39
1000
0000
0001
0000
1000
0000
0000
0100
,  // measure 40
0000
0010
0000
1001
0000
0000
0000
0010
,  // measure 41
0000
0100
0000
1001
0000
1000
0000
0000
,  // measure 42
1001
0000
0000
1001
0000
0000
1001
0000
,  // measure 43
0001
0000
0010
0000
0100
0000
0000
0010
,  // measure 44
0000
0001
0000
0010
0000
0001
0000
0100
,  // measure 45
0000
0010
0000
1000
0010
1000
0000
0000
,  // measure 46
0001
0000
0100
0000
1000
0000
0100
0001
,  // measure 47
0000
1000
0000
0000
0000
0010
0100
0001
,  // measure 48
0000
0100
0000
0000
0000
0010
0100
0001
,  // measure 49
0000
1000
0001
0010
,  // measure 50
1100
1000
0010
0100
,  // measure 51
2002
0000
0000
3003
,  // measure 52
0001
0000
0100
0001
0000
0001
0000
0010
,  // measure 53
0100
0000
1000
0010
0000
0010
0000
1000
,  // measure 54
0001
0000
0100
0001
0000
0001
0000
2000
,  // measure 55
0000
3100
0010
0001
,  // measure 56
1000
0000
0010
0100
0000
0100
0000
0001
,  // measure 57
1000
0000
0100
1000
0000
1000
0000
0010
,  // measure 58
0100
0000
0001
0010
0000
0010
0000
0002
,  // measure 59
0000
1003
0100
0010
,  // measure 60
0001
0000
0100
0010
0000
0010
0000
1000
,  // measure 61
0100
0000
1000
0010
0000
0010
0000
0100
,  // measure 62
0001
0000
0100
0010
0000
0010
0000
2000
,  // measure 63
0000
3100
0010
0001
,  // measure 64
0100
0000
0010
1000
0000
1000
0000
0001
,  // measure 65
0010
0000
0100
1000
0000
1000
0000
0010
,  // measure 66
0100
0000
0001
0010
0000
0010
0000
1001
,  // measure 67
0000
0100
1000
0100
1000
0100
1000
0100
;

//---------------dance-single - ----------------
#NOTES:
     dance-single:
     :
     Hard:
     12:
     0.665,0.629,0.409,0.144,0.011:
0000
0000
0000
0000
,
0000
0000
0000
0000
,
0000
0000
0000
0000
,
1000
0010
0100
0001
0000
0001
0000
1000
,
0001
0010
0100
1000
0000
1000
0000
0001
,
1000
0100
0010
0001
0000
0001
0000
0201
,
0000
0310
0010
1000
1000
0001
0001
1000
,
0100
0010
0001
0100
0000
0100
0000
0010
,
1000
0001
0010
0100
0000
0100
0000
1000
,
0001
0100
0010
1000
0000
1000
0000
1002
,
0000
0013
0010
0100
0100
1000
1000
0010
,
0110
0000
0100
0001
0000
0100
0001
1000
,
0000
0100
0000
0010
0000
0001
1000
0000
,
0001
0000
0010
0100
0000
0010
0100
1000
,
0000
0010
0000
0100
0000
0001
1000
0100
,
1000
0000
0010
0100
0000
0010
0100
0001
,
0000
0010
0000
0100
0000
1000
0010
0000
,
1000
0000
0001
0010
0000
0001
0010
0000
,
1001
0000
0000
0001
1000
0000
0100
0000
0010
0000
0001
0000
1000
0000
0100
0000
,
0110
0000
0001
0001
0000
0100
0100
0000
,
0010
0010
0000
1000
1000
0000
0100
0010
,
0001
0100
1000
0100
,
0001
0100
0001
1000
0100
0010
0100
1000
,
0001
0000
0010
0010
0000
0001
0001
0000
,
0100
0100
0000
0010
0010
0000
1000
0001
,
0010
1000
0010
0001
,
1001
0000
0000
1000
0001
0000
0010
0000
0100
0000
1000
0000
0001
0000
0100
0000
,
0001
0010
0100
0000
1000
0010
0100
0000
,
0101
0000
0101
0000
0001
1000
0100
0010
,
0001
1000
0100
0000
0010
0100
1000
0000
,
1100
0000
1100
0000
1000
0001
0100
0010
,
1000
0100
0010
0000
0100
1000
0001
0000
,
0101
0000
0101
0000
0001
1000
0100
0010
,
0011
0000
0000
0011
0000
0000
0011
0000
,
1002
0000
0000
1003
0010
0110
0000
1000
,
0100
0001
0000
1000
0010
0001
1000
0100
,
0000
0110
0000
0010
0001
1000
0000
0010
,
0100
0001
0100
0010
0001
0010
0100
0001
,
0000
1100
0000
0000
0010
0001
0100
0010
,
0000
0010
0000
1001
0000
1001
0000
0010
,
0000
0010
0000
1001
0000
1001
0000
0000
,
1100
0000
0000
1100
0000
0000
1100
0000
,
1002
0000
0000
1003
0010
0110
0000
0001
,
0100
1000
0000
0001
0010
1000
0001
0100
,
0000
0101
0000
0001
1000
0010
0000
0100
,
0001
0010
0100
0001
0100
0010
0001
1000
,
0000
1010
0000
0110
0000
0100
0001
1000
,
0100
1000
0000
1001
0000
0001
1000
0100
,
0010
0001
0100
0010
0100
0001
1000
0000
,
0100
0100
0010
0010
0001
0001
0100
0100
,
2002
0000
0000
3003
,
0001
0010
0100
1000
0000
1000
0000
0010
,
0100
0001
0010
0100
0000
0100
0000
0010
,
0100
1000
0001
0010
0000
0010
0000
1002
,
0000
1003
1000
0010
0010
0100
0100
0001
,
0001
0010
0100
1000
0000
1000
0000
0100
,
0010
0001
0100
0010
0000
0010
0000
0100
,
0001
1000
0010
0100
0000
0100
0000
2001
,
0000
3001
0001
0010
0010
0100
0100
1000
,
1000
0010
0100
0001
0000
0001
0000
0010
,
0100
1000
0010
0100
0000
0100
0000
0010
,
0100
0001
1000
0010
0000
0010
0000
1002
,
0000
1003
2000
3100
0200
0310
0020
0031
,
0100
0010
1000
0100
0000
0100
0000
0010
,
0001
1000
0100
0010
0000
0010
0000
0100
,
1000
0001
0100
0001
0000
0001
0000
2001
,
0000
3010
0010
0100
0100
0001
0001
1000
;

//---------------dance-single - ----------------
#NOTES:
     dance-single:
     :
     Beginner:
     2:
     0.093,0.109,0.011,0.000,0.000:
0000
0000
0000
0000
,
0000
0000
0000
0000
,
0000
0000
0000
0000
,
1000
0000
0000
0000
,
0001
0000
0000
0000
,
1000
0000
0000
0000
,
0010
0000
0000
0000
,
1000
0000
0000
0000
,
0001
0000
0000
0000
,
1000
0000
0000
0000
,
0010
0000
0000
0000
,
0100
0000
0000
0000
,
0100
0000
0000
0000
,
0001
0000
0000
0000
,
0001
0000
0000
0000
,
1000
0000
0000
0000
,
1000
0000
0000
0000
,
0001
0000
0000
0000
,
0001
0000
0000
0000
,
0010
0000
0000
0000
,
0000
0000
0000
0000
,
0100
0000
0000
0000
,
0000
0000
0000
0000
,
1000
0000
0000
0000
,
0000
0000
0000
0000
,
0001
0000
0000
0000
,
0000
0000
0000
0000
,
1001
0000
0000
0000
,
1000
0000
0000
0000
,
0001
0000
0000
0000
,
1000
0000
0000
0000
,
0100
0000
0000
0000
,
1000
0000
0000
0000
,
0100
0000
0000
0000
,
0000
0000
0000
0000
,
0010
0000
0000
0000
,
0001
0000
0000
0000
,
0100
0000
0000
0000
,
0100
0000
0000
0000
,
0010
0000
0000
0000
,
1000
0000
0000
0000
,
0100
0000
0000
0000
,
0000
0000
0000
0000
,
1000
0000
0000
0000
,
0100
0000
0000
0000
,
0010
0000
0000
0000
,
0010
0000
0000
0000
,
0100
0000
0000
0000
,
0010
0000
0000
0000
,
0001
0000
0000
0000
,
0001
0000
0000
0000
,
1000
0000
0000
0000
,
0010
0000
0000
0000
,
1000
0000
0000
0000
,
0001
0000
0000
0000
,
0010
0000
0000
0000
,
0001
0000
0000
0000
,
0010
0000
0000
0000
,
0100
0000
0000
0000
,
1000
0000
0000
0000
,
1000
0000
0000
0000
,
0010
0000
0000
0000
,
0010
0000
0000
0000
,
0100
0000
0000
0000
,
0001
0000
0000
0000
,
0010
0000
0000
0000
,
0001
0000
0000
0000
;
