#TITLE:Black Moon Sympathy;
#SUBTITLE:;
#ARTIST:TeddyLoid;
#TITLETRANSLIT:;
#SUBTITLETRANSLIT:;
#ARTISTTRANSLIT:;
#CREDIT:DigiMindAxel;
#BANNER:Black Moon Sympathy.png;
#BACKGROUND:Black Moon Sympathy-bg.png;
#LYRICSPATH:Black Moon Sympathy.lrc;
#CDTITLE:DigiMindAxel original simfile.png;
#MUSIC:Black Moon Sympathy.ogg;
#METERTYPE:DDR X;
#OFFSET:-1.134;
#SAMPLESTART:62.375;
#SAMPLELENGTH:12.000;
#SELECTABLE:YES;
#BPMS:0.000=128.000,68.000=64.000,84.000=128.000;
#STOPS:;
#BGCHANGES:-2.000=Black Moon Sympathy.avi=1.000=1=1=0,
99999=-nosongbg-=1.000=0=0=0 // don't automatically add -songbackground-
;

//---------------dance-single - ----------------
#NOTES:
     dance-single:
     :
     Easy:
     5:
     0.204,0.216,0.077,0.155,0.000: // measure 1
0000
0000
0000
0000
,  // measure 2
0000
0000
0000
0000
,  // measure 3
0000
0000
0000
0000
,  // measure 4
0000
0000
0000
0000
,  // measure 5
2000
0000
0000
0000
,  // measure 6
3002
0000
0000
0000
,  // measure 7
2003
0000
0000
0000
,  // measure 8
0000
0000
3000
0000
,  // measure 9
1001
0000
1000
0001
,  // measure 10
0010
0000
0001
1000
,  // measure 11
0100
0000
1000
0100
,  // measure 12
0010
0010
0010
0000
,  // measure 13
0001
1000
0100
0000
,  // measure 14
0010
0001
1000
0000
,  // measure 15
0010
0100
0001
0000
,  // measure 16
0100
0010
1000
0000
,  // measure 17
2002
0000
0000
3003
,  // measure 18
0002
0000
0203
0000
,  // measure 19
0302
0000
2003
0000
,  // measure 20
3200
0000
0320
0000
,  // measure 21
0032
0000
2003
0000
,  // measure 22
3001
1000
0001
0000
,  // measure 23
0020
0000
0000
0030
,  // measure 24
0001
1000
0001
0000
,  // measure 25
0200
0000
0000
0300
,  // measure 26
0001
1000
0001
0000
,  // measure 27
0020
0000
0000
0030
,  // measure 28
2002
0000
0000
0000
,  // measure 29
0000
0000
3003
0000
,  // measure 30
1000
0100
0010
0000
,  // measure 31
0100
1000
0010
0000
,  // measure 32
0100
0001
0100
0001
,  // measure 33
1000
0100
0010
0000
,  // measure 34
0001
1000
0100
0000
,  // measure 35
0010
0100
0010
0000
,  // measure 36
0001
0100
0001
0100
,  // measure 37
0010
1000
0100
0000
,  // measure 38
1000
0001
1000
0000
,  // measure 39
0100
0010
0001
0000
,  // measure 40
0100
0010
0100
0010
,  // measure 41
1000
0001
0010
0000
,  // measure 42
0100
0010
0100
0000
,  // measure 43
1000
0010
0100
0000
,  // measure 44
0010
0100
0010
0100
,  // measure 45
0001
0000
0000
0000
,  // measure 46
1001
0000
1000
0100
,  // measure 47
0010
0100
1000
0000
,  // measure 48
1001
0000
0001
0010
,  // measure 49
0100
0100
0100
0000
,  // measure 50
0010
0001
0100
0000
,  // measure 51
0010
1000
0100
0000
,  // measure 52
1000
0100
0010
0001
,  // measure 53
0010
0100
1000
0000
,  // measure 54
1001
0001
0001
0001
,  // measure 55
0100
0100
0100
0000
,  // measure 56
1001
0001
0001
0001
,  // measure 57
0010
0010
0010
0000
,  // measure 58
1001
1000
1000
1000
,  // measure 59
0100
0100
0100
0000
,  // measure 60
1001
1000
1000
1000
,  // measure 61
0010
0010
0010
0100
,  // measure 62
2002
0000
0000
0000
,  // measure 63
3003
0000
0000
0000
;

//---------------dance-single - ----------------
#NOTES:
     dance-single:
     :
     Medium:
     8:
     0.377,0.408,0.163,0.333,0.031: // measure 1
0000
0000
0000
0000
,  // measure 2
0000
0000
0000
0000
,  // measure 3
0000
0000
0000
0000
,  // measure 4
0000
0000
0000
0000
,  // measure 5
1000
1000
1000
1000
,  // measure 6
0010
0010
0010
0010
,  // measure 7
0100
0100
0100
0100
,  // measure 8
0001
0001
0001
0000
,  // measure 9
1000
0100
1000
0000
0100
0000
0010
0000
,  // measure 10
0001
1000
0001
0000
0010
0000
0100
0000
,  // measure 11
0010
0001
0010
0000
0001
0000
0100
0000
,  // measure 12
0020
0000
2030
0000
3002
0000
0013
0001
,  // measure 13
0010
0001
0100
0000
0010
0000
1000
0000
,  // measure 14
0010
1000
0100
0000
0020
0000
0031
0000
,  // measure 15
0200
0010
0010
0010
,  // measure 16
0010
0000
0310
1000
0001
0000
0001
0000
,  // measure 17
0202
0000
0000
0303
,  // measure 18
0120
0000
0230
0000
,  // measure 19
0302
0000
2003
0000
,  // measure 20
3002
0000
0000
0100
0000
0100
0000
0000
2003
0000
0000
0100
0000
0100
0000
0000
,  // measure 21
3002
0000
0000
0010
0000
0010
0000
0000
2003
0000
0000
0010
0000
0010
0000
0000
,  // measure 22
3001
0000
0100
0010
0100
0010
0100
0000
,  // measure 23
0001
0100
1000
0100
,  // measure 24
0001
0000
1000
0001
1000
0001
1000
0000
,  // measure 25
0001
0010
1000
0010
,  // measure 26
0001
0000
0010
0001
0010
0001
0010
0000
,  // measure 27
0001
0100
1000
0100
,  // measure 28
2002
0000
0000
0000
,  // measure 29
0000
0000
3003
0000
,  // measure 30
0001
0010
0100
0000
0010
0001
0010
0001
,  // measure 31
1000
0100
0010
0000
0100
0000
1000
0000
,  // measure 32
0010
0100
0010
0100
0001
0100
0010
0000
,  // measure 33
2000
0000
0001
0000
3001
1000
0100
0000
,  // measure 34
0010
0001
0100
0000
0010
0000
0100
0010
,  // measure 35
0100
0010
1000
0000
0001
0100
0010
1000
,  // measure 36
0100
0000
0010
0000
0001
0000
1000
0001
,  // measure 37
2000
0000
0100
0000
3100
0000
0010
0001
,  // measure 38
0100
0010
0100
0000
0001
0010
0100
1000
,  // measure 39
0001
0100
0001
0000
0010
0000
0100
0000
,  // measure 40
0010
0001
0010
0001
1000
0010
1000
0000
,  // measure 41
0100
0000
0010
0001
1000
0100
1000
0000
,  // measure 42
0001
0000
0200
0000
0310
0000
0010
1000
,  // measure 43
0200
0000
1300
0000
0100
1000
0010
0100
,  // measure 44
0002
1000
1000
1000
,  // measure 45
1003
0000
0100
0100
,  // measure 46
1001
0000
0101
0000
0100
0010
0100
0000
,  // measure 47
1001
0000
1100
0000
0100
1000
0100
0000
,  // measure 48
1001
0000
0011
0000
0010
0001
0010
0000
,  // measure 49
1001
0000
1010
0000
0010
1000
0010
0000
,  // measure 50
1001
0000
0011
0000
0100
0010
0100
0000
,  // measure 51
1001
0000
1100
0000
0010
0100
0010
0000
,  // measure 52
1001
0000
0101
0000
0010
0100
0010
0000
,  // measure 53
1001
0000
1010
0000
0100
0010
0100
0000
,  // measure 54
1020
0230
0302
2003
,  // measure 55
3001
0010
0100
0010
0002
0000
0013
0001
,  // measure 56
0200
0000
0320
0000
1030
0100
0010
0100
,  // measure 57
2000
0000
3020
0000
0230
0000
0301
0010
,  // measure 58
0200
2300
3002
0203
,  // measure 59
0301
0010
0100
0010
0002
0000
0103
0001
,  // measure 60
2000
0000
3200
0000
1300
0010
0100
0010
,  // measure 61
2000
0000
3002
0000
1003
0001
0010
0000
,  // measure 62
2200
0000
0000
0000
,  // measure 63
3300
0000
0000
0000
;

//---------------dance-single - ----------------
#NOTES:
     dance-single:
     :
     Hard:
     12:
     0.495,0.648,0.186,0.302,0.333: // measure 1
0000
0000
0000
0000
,  // measure 2
0000
0000
0000
0000
,  // measure 3
0000
0000
0000
0000
,  // measure 4
0000
0000
0000
0000
,  // measure 5
0001
0100
0001
0100
,  // measure 6
0010
1000
0010
1000
,  // measure 7
0100
0010
0001
1000
,  // measure 8
0200
1000
1300
0000
,  // measure 9
0001
0000
1000
0010
0000
1000
0010
0000
0100
0000
0000
0100
0000
0000
0000
0000
,  // measure 10
0001
0000
0010
0100
0000
0010
0100
0000
1000
0000
0000
1000
0000
0000
0000
0000
,  // measure 11
0100
0000
0010
0001
0000
0010
0001
0000
0100
0000
0000
0100
0000
0000
0000
0000
,  // measure 12
1002
0000
0023
0000
2030
0000
3010
0001
,  // measure 13
0100
0000
0010
0100
0000
0010
0100
0000
0001
0000
0000
0001
0000
0000
0000
0000
,  // measure 14
0010
0000
0100
1000
0000
0100
1000
0000
0010
0000
0000
0010
0000
0000
0000
0000
,  // measure 15
1000
0000
0001
0100
0000
0001
0100
0000
0010
0000
0000
0010
0000
0000
0010
0000
,  // measure 16
1000
0000
0001
0010
0000
0001
0010
0000
0100
0000
0000
0100
1000
0000
1000
0000
,  // measure 17
0220
0000
0000
0330
,  // measure 18
1001
0000
0000
0101
0000
0001
0000
0100
0010
0010
1000
1000
0000
1010
0000
0000
,  // measure 19
1001
0000
0000
0011
0000
0010
0000
0001
0100
0100
0010
0010
0000
0110
0000
0000
,  // measure 20
1001
0000
0000
0011
0000
0001
0000
0010
0100
0100
1000
1000
0000
1100
0000
0000
,  // measure 21
1001
0000
0000
1010
0000
1000
0000
0010
0100
0100
0001
0001
0000
0101
0000
0000
,  // measure 22
1001
0100
0010
0001
1000
0010
0000
0200
,  // measure 23
0000
0302
0000
0000
1000
0000
1003
0000
,  // measure 24
0001
1000
0100
0010
0001
1000
0000
0020
,  // measure 25
0000
2030
0000
0000
0001
0000
3001
0000
,  // measure 26
0010
0001
0100
0010
1000
0100
0000
2000
,  // measure 27
0000
3002
0000
0000
0100
0000
0103
0000
,  // measure 28
2002
0000
0000
0000
,  // measure 29
0000
0000
0000
0000
3003
0000
0000
0000
0001
1000
0001
1000
0001
1000
0001
0000
,  // measure 30
1000
0000
0010
0100
0010
0000
1000
0000
0001
0000
0010
0000
1000
0000
0010
0000
,  // measure 31
0000
2002
0000
0000
0000
3003
0000
0001
,  // measure 32
0100
0000
0010
0100
0010
0000
0100
0000
0002
0000
0000
1000
0000
0000
2000
0000
,  // measure 33
0000
0000
0000
3003
0000
0001
0100
0001
,  // measure 34
1000
0010
0001
0010
0000
1000
0100
1000
,  // measure 35
0001
0010
1000
0010
0000
0001
0100
0001
,  // measure 36
1000
0010
0001
0010
1000
0100
0010
0002
,  // measure 37
0000
0000
0000
0000
0003
0000
0100
0100
,  // measure 38
0001
0000
1000
0100
1000
0000
0001
0000
1000
0000
0010
0000
0001
0000
0010
0000
,  // measure 39
0000
2002
0000
0000
0000
3003
0000
1000
,  // measure 40
0001
0000
0010
0100
0010
0000
0001
0000
1000
0000
0000
0010
0000
0000
0200
0000
,  // measure 41
0000
0000
0301
1000
0000
1000
0001
0010
,  // measure 42
0100
0000
1000
0001
1000
0000
0010
0000
0100
0000
0000
0000
0010
0000
0100
0000
,  // measure 43
0001
0000
1000
0001
1000
0000
0100
0000
0010
0000
0001
0000
0100
0000
0001
0000
,  // measure 44
2000
0010
0010
0010
,  // measure 45
3010
0000
0000
0000
0000
0000
0000
0000
1000
0001
0000
0001
1000
0000
1000
0000
,  // measure 46
0001
0000
0010
0001
0010
0000
0100
0000
1000
0000
0010
0000
0001
0000
0010
0000
,  // measure 47
1000
0000
0100
0010
0100
0000
1000
0000
0001
0000
0100
0000
1000
0000
0100
0000
,  // measure 48
0001
0000
1000
0010
1000
0000
0001
0000
1000
0000
0100
0000
0010
0000
0000
0000
,  // measure 49
1002
0000
0203
0000
2300
0000
3100
0001
,  // measure 50
1000
0000
0010
0100
0010
0000
1000
0000
0001
0000
0100
0000
1000
0000
0100
0000
,  // measure 51
0001
0000
0100
0010
0100
0000
0001
0000
1000
0000
0010
0000
0001
0000
0010
0000
,  // measure 52
1000
0000
0100
0010
0100
0000
1000
0000
0001
0000
0100
0000
1000
0000
0100
0000
,  // measure 53
0001
0000
0010
0100
0010
0000
0001
0000
0100
0000
0000
0010
1000
0000
1000
0000
,  // measure 54
1020
0000
0230
0000
0301
0010
0100
1000
,  // measure 55
0010
0100
0010
0100
0001
1000
0001
1000
0100
0000
0010
0100
0010
0000
0001
0000
,  // measure 56
0201
0000
0000
0000
0320
0000
0000
0000
1030
0001
1000
0001
0010
0001
0010
0001
,  // measure 57
0200
0000
0000
0000
0320
0000
0000
0000
2030
0000
0000
0000
3010
0100
0010
0000
,  // measure 58
0201
0000
0320
0000
1030
0100
0010
0001
,  // measure 59
0100
0010
0100
0010
1000
0001
1000
0001
0010
0000
0100
0010
0100
0000
1000
0000
,  // measure 60
1200
0000
0000
0000
0320
0000
0000
0000
0031
1000
0001
1000
0010
1000
0010
1000
,  // measure 61
0001
0000
0100
0000
1000
0000
0100
0000
0001
0000
0000
0100
0010
0000
0010
0000
,  // measure 62
2002
0000
0000
0000
,  // measure 63
3003
0000
0000
0000
;

//---------------dance-single - ----------------
#NOTES:
     dance-single:
     :
     Beginner:
     2:
     0.096,0.142,0.054,0.000,0.000:
0000
0000
0000
0000
,
0000
0000
0000
0000
,
0000
0000
0000
0000
,
0000
0000
0000
0000
,
1000
0000
0000
0000
,
0001
0000
0000
0000
,
1000
0000
0000
0000
,
0000
0000
0000
0000
,
1001
0000
0001
0000
,
0001
0000
0001
0000
,
1000
0000
1000
0000
,
1000
0000
0000
0000
,
0010
0000
0010
0000
,
0010
0000
0010
0000
,
0100
0000
0100
0000
,
0100
0000
0100
0000
,
0010
0000
0000
0000
,
1001
0000
0000
0000
,
1000
0000
0000
0000
,
0001
0000
0000
0000
,
1000
0000
0000
0000
,
1001
0000
0000
0000
,
0001
0000
0000
0000
,
1000
0000
0000
0000
,
1000
0000
0000
0000
,
0001
0000
0000
0000
,
0001
0000
0000
0000
,
1001
0000
0000
0000
,
0000
0000
0000
0000
,
1000
0000
0000
0000
,
0010
0000
0000
0000
,
0100
0000
0000
0000
,
0001
0000
0000
0000
,
1000
0000
0000
0000
,
0100
0000
0000
0000
,
0010
0000
0000
0000
,
0001
0000
1000
0000
,
0001
0000
0010
0000
,
0001
0000
0000
0000
,
1000
0000
0100
0000
,
1000
0000
0000
0000
,
0001
0000
1000
0000
,
0001
0000
0000
0000
,
1000
0000
0001
0000
,
1000
0000
0000
0000
,
1001
0000
0001
0000
,
0001
0000
0001
0000
,
1000
0000
1000
0000
,
1000
0000
0000
0000
,
0010
0000
0010
0000
,
0010
0000
0010
0000
,
0100
0000
0100
0000
,
0100
0000
0100
0000
,
1001
0000
0001
0000
,
1000
0000
0000
0000
,
0001
0000
0010
0000
,
0100
0000
0000
0000
,
0010
0000
0001
0000
,
0100
0000
0000
0000
,
0010
0000
1000
0000
,
0001
0000
0001
0000
,
1001
0000
0000
0000
;
