#TITLE:Be Rock U;
#SUBTITLE:(1998 burst style);
#ARTIST:NAOKI;
#TITLETRANSLIT:;
#SUBTITLETRANSLIT:;
#ARTISTTRANSLIT:;
#CREDIT:DigiMindAxel;
#BANNER:Be Rock U (1998 burst style).png;
#BACKGROUND:Be Rock U (1998 burst style)-bg.png;
#LYRICSPATH:Be Rock U (1998 burst style).lrc;
#CDTITLE:beatmania IIDX.png;
#MUSIC:Be Rock U (1998 burst style).ogg;
#METERTYPE:DDR X;
#OFFSET:-1.428;
#SAMPLESTART:40.392;
#SAMPLELENGTH:12.000;
#SELECTABLE:YES;
#BPMS:0.000=150.000;
#STOPS:;
#BGCHANGES:-4.000=Be Rock U (1998 burst style).avi=1.000=1=1=0,
99999=-nosongbg-=1.000=0=0=0 // don't automatically add -songbackground-
;

//---------------dance-single - ----------------
#NOTES:
     dance-single:
     :
     Beginner:
     3:
     0.182,0.207,0.123,0.000,0.000:
0000
0000
0000
0000
,
0000
0000
0000
0000
,
0000
0000
0000
0000
,
0000
0000
0000
0000
,
1000
0000
0001
0000
,
0010
0000
0001
0000
,
1000
0000
0001
0000
,
0010
0000
0001
0000
,
0001
0000
1000
0000
,
0010
0000
0100
0100
,
0100
0000
1000
0000
,
0001
0000
1000
0000
,
0001
0000
1000
0000
,
0010
0000
0100
0000
,
0010
0000
0100
0000
,
0010
0000
0100
0100
,
0000
1000
0000
1000
,
0000
0001
0000
0001
,
0000
0110
0000
0001
,
0000
0110
0000
1000
,
0000
1000
1000
0000
,
0000
0001
0001
0000
,
0001
0000
1000
0000
,
0010
0010
0000
0100
,
0000
0000
0000
0000
,
1000
0000
1000
0000
,
0010
0000
0010
0000
,
0100
0000
0100
0000
,
0001
0000
0001
0000
,
0010
0000
0100
0000
,
1000
0000
0001
0000
,
0010
0000
0100
0000
,
0010
0000
1001
0000
,
0001
0000
0100
0000
,
1000
0000
0100
0000
,
1000
0000
0010
0000
,
0001
0000
0010
0000
,
0001
0000
1001
0000
,
1000
0000
1001
0000
,
0010
0000
0110
0000
,
0100
0000
0110
0000
,
0000
0001
0000
1000
,
0000
0010
0000
0001
,
0000
1000
0000
0001
,
0000
0010
0000
1000
,
0000
0100
0000
0001
,
0000
0100
0000
1000
,
0000
0010
0000
0100
,
0000
1000
0000
1001
,
0000
0000
0000
0000
,
0001
0001
0000
1000
,
0000
1000
0000
0001
,
0000
0010
0000
0100
,
0000
0010
0010
0010
,
0010
0000
0110
0000
,
1000
0000
1001
0000
,
0100
0000
0110
0000
,
0001
0000
1001
0000
,
0010
0010
0000
0100
,
0000
0001
0000
1000
,
0000
0010
0000
0100
,
0000
1000
0000
0001
,
0000
0100
0000
0010
,
0000
0001
0000
0010
,
0000
1000
0000
0010
,
0000
0100
0100
0100
,
0100
0000
0010
0000
,
1001
0000
0110
0000
;

//---------------dance-single - ----------------
#NOTES:
     dance-single:
     :
     Easy:
     5:
     0.251,0.267,0.035,0.035,0.000: // measure 1
0000
0000
0000
0000
,  // measure 2
0000
0000
0000
0000
,  // measure 3
0000
0000
0000
0000
,  // measure 4
0000
0000
0000
0000
,  // measure 5
0001
0000
1000
0001
,  // measure 6
1000
0000
0001
1000
,  // measure 7
0001
0000
0100
0010
,  // measure 8
0100
0000
0100
0000
,  // measure 9
0001
0000
1000
0000
,  // measure 10
0010
0000
0100
0100
,  // measure 11
0001
0000
1000
0000
,  // measure 12
0001
0000
1000
0000
,  // measure 13
0001
0000
1000
0000
,  // measure 14
0010
0000
0100
0000
,  // measure 15
0010
0000
1000
0000
,  // measure 16
0010
0000
0100
0100
,  // measure 17
0001
0000
1000
1000
,  // measure 18
1000
0000
0001
0001
,  // measure 19
1000
0000
0110
0001
,  // measure 20
0001
0000
0110
1000
,  // measure 21
0001
0010
1000
0010
,  // measure 22
0001
0010
1000
0010
,  // measure 23
0001
0010
1000
0010
,  // measure 24
0001
0001
0010
1000
,  // measure 25
0002
0000
0000
0003
,  // measure 26
1001
0001
1000
0001
,  // measure 27
0010
0100
0010
0100
,  // measure 28
1000
0000
0010
0000
,  // measure 29
0001
0000
0010
0000
,  // measure 30
0010
0000
0100
0100
,  // measure 31
1000
0000
0001
0100
,  // measure 32
0001
0000
1000
0100
,  // measure 33
0001
1000
0001
0000
,  // measure 34
0001
0010
0100
1000
,  // measure 35
1000
0010
0100
0001
,  // measure 36
1000
0000
0001
0000
,  // measure 37
0100
0000
0010
0000
,  // measure 38
0010
0000
1000
1000
,  // measure 39
0010
0000
0001
0001
,  // measure 40
1000
0000
0001
0100
,  // measure 41
0001
0000
1000
0100
,  // measure 42
0001
0000
1000
0000
,  // measure 43
0010
0100
0001
1000
,  // measure 44
1000
0000
0001
0000
,  // measure 45
0010
0100
1000
1000
,  // measure 46
0001
0100
0001
0001
,  // measure 47
1000
0100
1000
1000
,  // measure 48
0001
1000
0010
0010
,  // measure 49
1000
1000
0001
0001
,  // measure 50
0020
0000
0000
0000
,  // measure 51
0031
0000
0100
0000
,  // measure 52
0001
0000
1000
0000
,  // measure 53
0001
0000
1000
0000
,  // measure 54
0001
1000
0001
1000
,  // measure 55
0010
0010
0001
0001
,  // measure 56
0010
0010
1000
1000
,  // measure 57
1000
0100
1000
0100
,  // measure 58
0001
0100
0001
0100
,  // measure 59
1000
0100
0001
0100
,  // measure 60
1000
0100
0001
0100
,  // measure 61
0001
1000
0001
1000
,  // measure 62
0010
0010
0001
0001
,  // measure 63
0001
0000
1000
0000
,  // measure 64
1000
0000
0001
0000
,  // measure 65
0010
0010
0100
0100
,  // measure 66
0001
1000
0010
0100
,  // measure 67
0001
0000
1000
0000
,  // measure 68
2002
0000
0000
3003
;

//---------------dance-single - ----------------
#NOTES:
     dance-single:
     :
     Medium:
     7:
     0.336,0.384,0.140,0.009,0.004:
0000
0000
0000
0000
,
0000
0000
0000
0000
,
0000
0000
0000
0000
,
0000
0000
0000
0000
,
1000
0000
0001
0000
,
0010
0010
0100
0100
,
1000
0000
0001
0000
,
0010
0010
0100
0100
,
1000
0000
0001
0000
,
0100
0100
0010
0010
,
1000
0001
1000
0001
,
1000
0001
1000
0001
,
1000
0000
0010
0100
,
0010
0100
0010
0100
,
0010
0000
1000
0001
,
0100
0100
0010
1001
,
0100
0100
0001
0001
,
0100
0100
1000
1000
,
0001
0001
0110
1000
,
1000
1000
0110
0001
,
1000
0010
0001
0010
,
0100
1000
0001
0010
,
1000
0010
0001
0010
,
1000
1000
0110
0001
,
2000
0000
0000
3000
,
1001
1000
0100
0010
,
1000
0010
0001
0010
,
0100
0010
1000
0001
,
0100
0000
0010
0000
1000
0001
1000
0000
,
0100
0100
0010
0010
,
0001
0001
1000
0010
,
1000
1000
0001
0010
,
1000
0001
1000
1010
,
1000
0100
0010
0001
,
0001
0100
0010
1000
,
0001
0010
1000
0010
,
1000
0000
0001
0000
1000
0001
1000
0000
,
0100
0100
0001
0010
,
0100
0100
1000
0010
,
0001
0001
1000
0010
,
1000
1000
0001
0010
,
1000
0010
0001
0010
,
0100
0000
0010
0000
1000
0001
0010
0000
,
0001
0010
1000
0010
,
0100
0000
0010
0000
0001
1000
0010
0000
,
1001
0000
0010
0000
1000
0010
1000
0000
,
1001
0000
0010
0000
0001
0010
0001
0000
,
1000
0000
0001
0000
0100
0010
0100
0000
,
1001
0000
0001
0000
1000
0010
1000
0000
,
0100
0001
0010
1000
,
0100
0000
0010
0000
,
1000
0000
0001
0000
,
1000
0000
0001
0000
,
1000
0001
1000
1001
,
0100
0001
0100
0000
1000
0000
1010
0000
,
0100
1000
0100
0000
0001
0000
0011
0000
,
0001
0100
0010
0000
0001
0000
0011
0000
,
1000
0100
0010
0000
1000
0000
1010
0000
,
0001
0010
1000
0010
,
0001
0010
1000
0010
,
1000
0001
1000
0001
,
0100
0000
0010
0000
1000
0001
1000
0000
,
1000
0010
0001
0001
,
0001
0010
1000
1000
,
0100
0100
0010
0010
,
1000
0001
0100
0010
,
1000
1000
0001
0001
,
1001
0000
0000
0100
0000
0000
1001
0000
0000
0000
0000
0000
0000
0000
0000
0000
;

//---------------dance-single - ----------------
#NOTES:
     dance-single:
     :
     Hard:
     10:
     0.508,0.505,0.351,0.097,0.114:
0000
0000
0000
0000
,
0000
0000
0000
0000
,
0000
0000
0000
0000
,
0000
0000
0000
0000
,
1000
0100
0010
0001
1000
0000
0100
0000
,
1000
0010
0100
0001
0010
0000
0100
0000
,
1000
0001
1000
0001
1000
0100
0010
0000
,
0001
0000
0001
0000
0001
0010
0100
0000
,
1000
0000
0000
0001
0000
0000
1000
0000
0000
0001
0000
0000
0010
0000
0000
0000
,
0100
0000
0000
1000
0000
0000
0100
0000
0000
1000
0000
0000
0010
0000
0000
0000
,
1000
0000
0000
0001
0000
0000
1000
0000
0000
0001
0000
0000
0010
0000
0000
0000
,
0100
0000
0000
1000
0000
0000
0100
0000
0000
1000
0000
0000
0010
0000
0000
0000
,
1000
0000
0000
0001
0000
0000
0010
0000
0000
0001
0000
0000
1000
0000
0000
0000
,
0100
0000
0000
0010
0000
0000
0001
0000
0000
0010
0000
0000
0100
0000
0000
0000
,
0010
0000
0000
0100
0000
0000
1000
0000
0000
0001
0000
0000
0100
0000
0000
0000
,
0001
0000
0000
1000
0000
0000
0001
0000
0100
0000
0010
0000
1000
0000
0000
0000
,
1010
0000
1000
0000
1000
0100
0010
0000
,
1100
0000
0011
0000
0001
0100
0010
0000
,
1001
0000
0110
0000
0001
1000
0010
0000
,
0100
0001
0010
0100
1000
0001
0011
0000
,
1100
0000
0010
0000
0001
0100
0010
0000
,
1000
0100
0010
0001
0100
0010
1000
0010
,
0220
0000
0000
0000
0000
0000
0330
0000
0000
0000
1001
0000
0000
1000
0000
0000
,
0001
0000
0000
1000
0000
0000
0001
0000
1000
0000
0100
0000
0010
0000
0001
0000
,
2000
0000
0000
3000
,
1100
0010
0001
0010
,
0100
0010
1000
0010
,
0100
0001
0010
0000
0100
1000
0010
0000
,
0100
0001
0010
0100
1000
0010
1010
0000
,
0101
0000
1010
0000
0100
0001
0010
0000
,
0001
1000
0010
0000
0100
1000
0010
0000
,
1000
0010
0001
0000
0001
0010
1000
0000
,
0001
0100
1000
0100
1000
0100
0110
0000
,
0110
0000
0101
0000
1000
0001
0010
0000
,
1001
0000
1010
0000
0001
0100
0010
0000
,
1000
0001
0010
0000
0001
1000
0010
0000
,
0100
1000
0010
0001
0010
1000
1100
0000
,
1001
0010
0001
0010
,
1000
0001
0100
0001
1000
0001
0100
0000
,
0001
0010
0001
0000
1000
0010
1000
0000
,
0001
0100
0010
1000
0100
0010
0001
0000
,
1000
0000
0001
0000
0100
0010
1000
0000
,
0100
0010
1000
0100
1000
0001
0010
0000
,
1001
0000
1010
0000
0100
0001
0010
0001
,
1000
0000
1001
0000
0100
0001
0010
0000
,
1000
0010
1000
0001
0010
0100
1000
0000
,
1010
0000
0100
0001
0010
0100
1000
0000
,
0010
0100
0001
0010
0100
1000
0010
0000
,
0101
0000
1000
0001
0010
0000
1010
0000
,
0200
0302
0023
2030
,
3100
0000
0001
0000
1000
0001
0010
0000
,
0100
0000
1000
0000
0002
0000
0000
1000
,
1000
0000
2000
3003
,
0100
1000
0010
0100
0001
1000
0010
0000
,
1001
0000
0011
0000
0100
1000
0010
0000
,
1010
0000
0101
0000
1000
0100
0010
0000
,
1000
0010
1000
0000
0001
0010
0001
0000
,
1000
0100
0010
0001
0100
0010
1010
0000
,
1001
0000
0011
0000
0100
1000
0010
0000
,
1010
0000
0101
0000
0100
0010
1000
0000
,
0001
0010
0001
0000
1000
0010
1000
0000
,
0001
0010
0100
1000
0001
1000
1010
0000
,
0100
0001
0010
0000
0100
1000
0010
0000
,
0110
0000
1010
0000
0001
0010
0100
0000
,
1000
0001
0010
0000
0001
1000
0010
0000
,
1000
0001
0100
0010
1000
0100
0010
0000
,
0000
0001
0000
0100
0000
0001
0000
1000
0000
0100
0000
1000
0000
0001
0000
0100
,
0001
0000
0000
1001
0000
0000
2020
0000
0000
0000
0000
0000
3030
0000
0000
0000
;

//---------------dance-single - ----------------
#NOTES:
     dance-single:
     :
     Challenge:
     14:
     0.661,0.684,0.035,0.097,0.706:
0000
0000
0000
0000
,
0000
0000
0000
0000
,
0000
0000
0000
0000
,
0000
0000
0000
0000
,
1000
0010
0100
1000
0100
0010
1000
0000
,
0010
0100
0001
1000
0100
1000
0001
0000
,
0100
0010
0001
0010
0100
0001
1000
0000
,
0010
0000
0010
0000
0100
0000
0100
0000
0001
1000
0001
1000
0001
0000
0000
0000
,
0101
0000
0000
0010
0000
0000
0100
0000
0000
1000
0000
0000
0001
0000
0100
0000
,
0010
0000
0000
0100
0000
0000
0001
0000
0000
0010
0000
0000
0100
0000
0010
0000
,
0001
0000
0000
1000
0000
0000
0100
0000
0000
1000
0000
0000
0010
0000
0100
0000
,
0001
0000
0000
1000
0000
0000
0100
0000
0000
1000
0000
0000
0010
0000
0100
0000
,
0001
0000
0000
0010
0000
0000
0100
0000
0000
0010
0000
0000
0001
0000
1000
0000
,
0010
0000
0000
0100
0000
0000
0001
0000
0000
1000
0000
0000
0100
0000
0010
0000
,
0001
0000
1000
0010
1000
0000
0001
0000
0010
0001
0010
0000
0100
0000
1000
0000
,
0010
0000
0100
0001
0100
0000
0010
0000
1000
0100
1000
0000
0100
0000
0010
0000
,
0001
0000
0001
0000
0100
0000
0100
0000
0010
0000
1000
0100
0000
0000
0010
0000
,
0100
0000
0100
0000
1000
0000
1000
0000
0001
0000
0100
0001
0000
0000
0010
0000
,
0100
0100
1000
1000
0001
0001
0100
0100
,
0010
0000
1000
0100
0000
1000
0001
0000
0010
0000
0100
0000
0010
0000
0001
0000
,
0100
0000
0010
0200
0000
0000
0000
0000
0301
0000
1000
0000
0100
0000
0000
0000
,
0010
0000
0001
0100
0000
0010
0100
0000
0001
0000
1000
0000
0100
0000
0010
0100
,
0020
0000
0000
0000
0000
0000
0031
0000
0100
0000
0010
0000
0000
0010
0000
0000
,
1010
0000
0000
1000
0000
0000
1001
0000
0001
0010
0001
0000
1000
0100
1000
0000
,
0002
0000
0000
0000
0000
0000
0000
0003
,
1001
0000
0000
1000
0010
0000
0100
0000
0010
1000
0000
0001
0010
0000
0100
0000
,
1000
0000
0000
1000
0010
0000
0100
0000
0010
1000
0000
0001
0010
0000
0100
0000
,
0010
0000
0000
0010
0001
0000
0100
0000
0010
0000
0000
0010
1000
0000
0100
0000
,
0020
0000
0000
0001
0000
0000
0031
0000
1000
0000
0100
0000
0010
0000
0001
1000
,
0001
0000
0000
0001
0100
0000
0010
0000
0100
0001
0000
1000
0100
0000
0010
0000
,
0001
0000
0000
0001
0100
0000
0010
0000
0100
0001
0000
1000
0100
0000
0010
0000
,
0001
0000
1000
0000
0010
0000
1000
0000
0001
0010
0000
0001
1000
0000
0010
0000
,
0100
0000
0100
0000
0010
0000
0010
0000
0100
0000
0001
1000
0001
0000
0000
0000
,
1000
0000
0010
0100
0000
0001
0000
0010
0000
0001
0000
1000
0010
0000
0100
0000
,
0010
0000
1000
0100
0000
1000
0000
0010
0000
0100
0000
0001
1000
0000
0100
0000
,
0010
0000
0001
1000
0000
0010
0000
0100
0000
0010
0000
1000
0001
0000
0010
0000
,
0001
0000
0100
0010
0000
1000
0000
0100
0000
1000
0000
0010
0100
0000
0010
0000
,
1000
0000
0100
1000
0000
0100
0000
0010
0000
0001
0000
0100
0010
0000
0100
0000
,
0001
0000
1000
0001
0000
0010
0000
0100
0000
1000
0000
0010
1000
0000
0001
0000
,
0010
0000
0001
1000
0000
0010
0000
0100
0000
0001
0000
1000
0100
0000
0010
0000
,
0001
0000
0100
0001
0000
1000
0000
0100
0000
0010
0000
0001
0100
0000
0010
0000
,
0100
0000
0100
0000
0100
0010
0100
0000
,
0001
1000
0100
0001
0100
1000
0001
0000
,
0010
0000
0010
0000
0010
0001
0010
0000
,
0001
1000
0010
0001
0010
1000
0001
0000
,
0100
0001
0100
0001
0100
0000
0010
0000
1000
0000
0100
0000
0010
0000
0000
0000
,
0001
1000
0001
1000
0001
0000
0010
0000
0100
0000
1000
0000
0010
0000
0000
0000
,
1000
0001
1000
0001
1000
0000
0100
0000
0001
0000
0100
0000
1000
0000
0001
0000
,
0010
0010
0100
0100
1000
0010
0100
0010
,
1000
0001
1000
0001
0010
0001
1000
0100
1000
0010
0100
0010
,
2000
0100
3100
0000
,
0020
0000
0001
0000
0032
0000
0000
1000
,
1003
0001
0010
0100
,
1000
0000
0010
0000
1000
0000
0001
0000
0010
0000
0100
0000
1000
0000
0001
0100
,
0001
0000
0000
0001
1000
0000
0100
0000
1000
0001
0000
0100
0001
0000
1000
0100
,
1000
0000
0000
1000
0001
0000
0010
0000
0001
1000
0000
0010
1000
0000
0001
0000
,
0010
0000
0001
1000
0000
0010
0000
0100
0000
0010
0000
1000
0001
0000
0010
0000
,
0100
0000
1000
0001
0000
0100
0000
0001
0000
1000
0000
0100
1000
0000
0010
0000
,
0100
0000
0000
0100
0001
0000
1000
0000
0100
1000
0000
0001
0100
0000
0001
1000
,
0001
0000
0000
0001
1000
0000
0100
0000
1000
0001
0000
0100
0001
0000
1000
0100
,
1000
0000
0000
1000
0001
0000
0010
0000
0100
1000
0000
0010
0100
0000
0010
0000
,
2000
0000
0000
0001
0000
0000
3001
0000
1000
0010
0000
1000
0001
0000
0010
0001
,
0020
0000
0000
0100
0000
0000
0130
0000
1000
0010
0000
1000
0001
0000
0010
0001
,
0020
0000
0000
0100
0000
0000
0130
0000
1000
0010
0000
1000
0001
0000
1000
0100
,
1000
0000
0001
0000
0010
0100
1000
0000
0001
0100
0001
0000
1000
0010
0100
0000
,
0001
1000
0001
0000
1000
0001
1000
0000
0100
1000
0100
0000
0010
0001
0010
0000
,
0000
0001
0000
1000
0000
0010
0000
0100
0000
0001
0000
0010
0000
0100
0000
1000
,
0010
0000
0100
0001
0000
1000
0200
0000
0000
0000
0000
0000
0300
0000
0000
0000
;
