#TITLE:Bad City;
#SUBTITLE:-readymade 524 mix-;
#ARTIST:Remixed by KONISHI yasuharu (Original Music by SHOGUN);
#TITLETRANSLIT:;
#SUBTITLETRANSLIT:;
#ARTISTTRANSLIT:;
#CREDIT:DigiMindAxel;
#BANNER:Bad City -readymade 524 mix-.png;
#BACKGROUND:Bad City -readymade 524 mix--bg.png;
#LYRICSPATH:Bad City -readymade 524 mix-.lrc;
#CDTITLE:DigiMindAxel original simfile.png;
#MUSIC:Bad City -readymade 524 mix-.ogg;
#METERTYPE:DDR X;
#OFFSET:-5.101;
#SAMPLESTART:21.880;
#SAMPLELENGTH:12.000;
#SELECTABLE:YES;
#BPMS:0.000=200.000,56.000=179.000,60.000=200.000,272.000=180.000,280.000=200.000,316.000=100.000,332.000=200.000;
#STOPS:;
#BGCHANGES:;

//---------------dance-single - ----------------
#NOTES:
     dance-single:
     :
     Easy:
     5:
     0.194,0.222,0.155,0.000,0.000:
1000
0000
0001
0000
,
1000
0000
0001
0000
,
0100
0000
0010
0000
,
0100
0000
0000
0000
,
1001
0000
0000
0000
,
0000
0000
0000
0000
,
0010
0000
0010
0000
,
0010
0000
0110
0000
,
1000
0000
1000
0000
,
1000
0000
0001
0000
,
0001
0000
0100
0000
,
0100
0000
0110
0000
,
1000
0000
0001
0000
,
0010
0000
0001
0000
,
1001
0000
0000
0000
,
1001
0000
0000
0000
,
1000
0000
0100
0000
,
1000
0000
0100
0000
,
1000
0000
0100
0000
,
0010
0000
0001
0000
,
0100
0000
0001
0000
,
0100
0000
0010
0000
,
1000
0000
0100
0000
,
1000
0000
0000
0000
,
0001
0000
0010
0000
,
0001
0000
0100
0000
,
0010
0000
1000
0000
,
0001
0000
0000
0000
,
1000
0000
0001
0000
,
0100
0000
0001
0000
,
1000
0000
0100
0000
,
0110
0000
0000
0000
,
1001
0000
0000
0000
,
0000
0000
0000
0000
,
0000
0000
0000
0000
,
1000
0100
1000
0000
,
1001
0000
0000
0000
,
0000
0000
0000
0000
,
0000
0000
0000
0000
,
0001
0010
0001
0000
,
1000
0000
0100
0000
,
1000
0000
0001
0000
,
0010
0000
0010
0000
,
0001
0000
0001
0000
,
1000
0000
0001
0000
,
1000
0000
0010
0000
,
0100
0000
0100
0000
,
0010
0000
0010
0000
,
1000
0000
0100
0000
,
1000
0000
0001
0000
,
0010
0000
0010
0000
,
1001
0000
0000
0000
,
0100
0000
0000
0000
,
0010
0000
0000
0000
,
0100
0000
0000
0000
,
0010
0000
0000
0000
,
1001
0000
1000
0000
,
0100
0000
1000
0000
,
0010
0000
0100
0000
,
1001
0000
0000
0000
,
0010
0000
0000
0000
,
0000
0000
0000
0000
,
0100
0000
0010
0000
,
0100
0000
0010
0000
,
1001
0000
0000
0000
,
1000
0000
0000
0000
,
0001
0000
0000
0000
,
0010
0000
0001
0000
,
1001
0000
0000
0000
,
1000
0000
0000
0000
,
0001
0000
0000
0000
,
1001
0000
1000
0000
,
0100
0000
1000
0000
,
0010
0000
0100
0000
,
0001
0000
1001
0000
,
0001
0000
1000
0000
,
0100
0000
1000
0000
,
1001
0000
0100
0000
,
0010
0000
0000
0000
,
1001
0000
0000
0000
,
1000
0000
0000
0000
,
1001
0000
0000
0000
,
0001
0000
1000
0000
,
1001
0000
0100
0000
,
1000
0000
0001
0000
,
0010
0000
0001
0000
,
1000
0000
0010
0000
,
1000
0000
0001
0000
,
0100
0000
0001
0000
,
1000
0000
0100
0000
,
1000
0001
1000
0000
;

//---------------dance-single - ----------------
#NOTES:
     dance-single:
     :
     Hard:
     12:
     0.569,0.631,0.376,0.180,0.053:
0011
0100
1000
0001
,
0000
0000
0010
0100
0000
0010
0100
0000
,
1010
0100
0001
1000
,
0000
0000
0010
0100
0000
0010
0100
0000
,
0002
1000
0000
1000
,
0000
0100
0000
0100
,
0000
1000
0000
1000
,
0000
0100
0000
0103
,
1001
0001
0100
0010
,
1000
0100
1000
0100
,
0011
0100
1000
0001
,
0100
0001
0100
0010
,
1000
0010
0100
0010
,
1000
0100
0001
0100
,
1000
0000
2000
0000
0000
0000
3001
0000
0002
0000
0000
0000
,
1003
0000
0000
0000
,
1001
0000
1000
0000
0100
0010
0000
0011
,
0000
0000
0100
0000
0010
0001
0000
0000
,
1001
0000
0001
0000
0010
0100
0000
1100
,
0000
0000
0220
0330
,
1001
0000
0001
0000
1000
0010
0000
0101
,
0000
0000
0010
0000
0100
0001
0000
0000
,
1001
0000
0001
0000
0100
0010
0000
1010
,
0000
0100
0220
0330
,
1001
0000
0001
0010
0001
1000
0000
1010
,
0000
0000
0010
0000
1000
0100
0000
0000
,
1001
0000
1000
0100
1000
0001
0000
0101
,
0000
0100
0220
0330
,
1001
0000
1000
0010
1000
0001
0000
0011
,
0000
0000
0100
0000
1000
0010
0000
0000
,
1001
0000
0001
0100
0001
1000
0000
0100
,
0010
0000
0010
0000
0010
0100
0000
0000
,
1001
0000
0001
0100
0001
1000
0000
0000
,
0100
0000
0010
0001
0010
0100
0000
0000
,
1001
0000
1000
0010
1000
0001
0000
0000
,
0100
0000
0100
0000
0100
0010
0000
0000
,
1001
0000
1000
0010
0100
0001
0000
0000
,
0010
0000
0100
1000
0001
0100
0000
0000
,
0010
0000
1000
0100
0010
0001
0000
1000
,
0010
0000
0010
0000
0010
0100
0000
0000
,
1001
0000
0001
0100
0010
0000
0100
0010
,
1000
0000
0001
0100
0010
1000
0000
1000
,
0001
0000
0010
0100
1000
0001
0000
0000
,
1000
0000
0100
0010
0001
1000
0000
0000
,
1001
0000
1000
0100
0010
0000
0100
0010
,
0001
0000
1000
0100
0010
0001
0000
0001
,
1000
0000
0001
0100
0010
1000
0000
0000
,
0100
0000
0010
0001
1000
0010
0000
0000
,
1001
0000
1000
0010
0100
0000
0010
0100
,
0001
0000
1000
0100
0010
0001
0000
0001
,
1000
0000
0100
0010
0001
1000
0000
0010
,
0100
0000
0100
0000
0100
0010
0000
0000
,
1001
0001
0010
0100
,
1000
0100
0010
0001
,
1001
0100
0010
0001
,
0010
0100
0220
0330
,
1001
0000
0001
0010
0100
0000
0010
0100
,
1000
0001
1000
0001
0100
0000
0100
0000
,
0001
0010
0100
1000
0100
0010
0001
0000
,
0100
0000
0100
0000
0100
0010
0000
0000
,
1001
0001
0010
0100
,
1000
0000
0010
0000
1000
0010
0100
0001
,
1000
0000
0001
0010
0100
0000
0010
0100
,
1000
0100
0010
0001
,
1001
0000
1000
0010
0100
0000
0001
0000
,
1000
0010
1000
0010
0100
0000
0001
0000
,
1001
0000
0010
0000
0100
1000
0100
1000
,
0001
0010
0100
1000
,
0010
0000
0020
0000
0000
0000
0130
0000
0200
0000
0000
0000
,
0310
0000
0020
0000
0000
0000
0130
0000
0200
0000
0000
0000
,
0310
0000
0220
0330
,
1001
0000
0010
0000
0100
1000
0000
1100
,
0000
0000
0010
0100
1000
0001
0100
0000
,
1001
0000
0100
0000
0010
1000
0000
1010
,
0000
0010
0220
0330
,
1001
0000
0100
0000
0010
0001
0000
0011
,
0000
0000
0100
0010
0001
0100
0001
0000
,
1001
0000
0100
0000
0010
0001
0000
0010
,
0100
0000
0100
0000
0100
0010
0000
0000
,
0001
0000
0100
0000
0001
0000
0100
0000
0020
0000
0000
0000
0000
1000
0000
1030
,
0001
0000
0010
0000
0001
0000
0010
0000
0200
0000
0000
0000
0000
1000
0000
1300
,
0010
0000
0100
0000
0010
0000
0100
0000
0002
0000
0000
0000
0000
0010
0000
0013
,
0100
0000
1000
0000
0100
0000
1000
0000
0010
0000
0010
0000
0010
0100
0000
0000
,
1001
0100
0010
0001
,
1000
0010
0100
0001
1000
0100
0000
0100
,
0010
0001
0010
0100
,
1000
0010
0100
0001
1000
0100
0000
0100
,
0010
0001
0010
0100
,
1000
0100
0010
0001
1000
0010
0000
0010
,
0100
0001
0100
0010
,
1000
0000
1000
0000
1000
0001
0000
1001
;

//---------------dance-single - ----------------
#NOTES:
     dance-single:
     :
     Challenge:
     13:
     0.708,1.000,0.563,0.114,0.147: // measure 1
1001
0000
0001
0010
0001
0000
1000
0000
,  // measure 2
0010
0000
0100
0001
0000
1000
0001
0000
,  // measure 3
1001
0000
1000
0100
1000
0000
0001
0000
,  // measure 4
0100
0001
0100
0001
1000
0100
0010
0001
,  // measure 5
1000
0000
0001
0010
0001
0010
0000
0100
,  // measure 6
0000
0100
0000
0100
1000
0010
1000
0010
,  // measure 7
0100
0000
0001
0010
0001
0010
0000
0100
,  // measure 8
0000
0100
0000
0100
1000
0010
0100
0000
,  // measure 9
1001
0000
1000
0100
1000
0100
0000
0010
,  // measure 10
0000
0010
0000
0010
0001
0100
0010
0100
,  // measure 11
0010
0000
1000
0100
1000
0100
0000
0010
,  // measure 12
0000
0010
0000
0010
0001
0100
0010
0100
,  // measure 13
0001
0000
1000
0010
1000
0010
0000
0100
,  // measure 14
0000
0100
0000
0100
0001
0010
0100
1000
,  // measure 15
1001
0000
1001
0000
0000
0000
0101
0000
0101
0000
0000
0000
,  // measure 16
2002
0000
0000
3003
,  // measure 17
1001
0000
0001
0000
0100
0001
0000
0010
,  // measure 18
0000
0100
0000
1000
0010
0001
0010
0000
,  // measure 19
1001
0000
1000
0000
0010
1000
0000
0100
,  // measure 20
0000
0010
0001
1000
0100
0010
0100
0000
,  // measure 21
1001
0000
0001
0000
0100
0001
0000
1000
,  // measure 22
0000
0100
0000
0010
0001
1000
0010
0000
,  // measure 23
1001
0000
1000
0000
0010
1000
0000
0100
,  // measure 24
0000
0010
0000
0001
0100
0010
1000
0000
,  // measure 25
1001
0000
0001
0010
0001
1000
0000
0010
,  // measure 26
0000
0010
0000
0010
1000
0100
0010
0000
,  // measure 27
1001
0000
0001
0100
0001
1000
0000
0100
,  // measure 28
0000
0100
0000
0100
1000
0001
0010
0000
,  // measure 29
1001
0000
1000
0100
1000
0001
0000
0100
,  // measure 30
0000
0100
0000
0100
0001
1000
0100
0000
,  // measure 31
1001
0000
0001
0000
0100
0001
0000
1000
,  // measure 32
1100
0000
1100
0000
0001
1001
0000
0000
,  // measure 33
2000
0100
0100
0100
,  // measure 34
0000
0001
0001
3001
,  // measure 35
1002
0000
1000
0000
0000
1000
0000
0000
,  // measure 36
0103
0000
0101
0000
1000
1001
0000
0000
,  // measure 37
0002
0100
0100
0100
,  // measure 38
0000
1000
1000
1003
,  // measure 39
2001
0000
0001
0000
0000
0001
0000
0000
,  // measure 40
3010
0000
1010
0000
0001
1001
0000
0000
,  // measure 41
1100
0000
1000
0100
0001
0000
1000
0010
,  // measure 42
0001
0000
1000
0010
0100
0001
0000
1000
,  // measure 43
1001
0000
0001
0010
1000
0010
0000
0001
,  // measure 44
1000
0000
0001
0010
1000
0010
0001
0000
,  // measure 45
1001
0000
0001
0100
1000
0000
0001
0010
,  // measure 46
1000
0000
0001
0010
0100
1000
0000
0001
,  // measure 47
1001
0000
1000
0100
0001
0100
0000
1000
,  // measure 48
0010
0000
1000
0010
0001
0010
1000
0000
,  // measure 49
1001
0000
1000
0100
0001
0000
1000
0010
,  // measure 50
0001
0000
1000
0100
0010
0001
0000
1000
,  // measure 51
1001
0000
0001
0010
1000
0010
0000
0001
,  // measure 52
0101
0000
0101
0000
1000
1001
0000
0000
,  // measure 53
1001
0000
1000
0100
1000
0000
0001
0010
,  // measure 54
0001
1000
0100
0010
0001
1000
0001
0000
,  // measure 55
1000
0010
1000
0010
0100
0001
0100
0001
,  // measure 56
0000
0001
0000
0001
1000
0100
0010
0001
,  // measure 57
1000
0010
1000
0000
0001
0100
0001
0000
,  // measure 58
1000
0100
0010
0001
1000
0010
1000
0000
,  // measure 59
0001
0010
0001
0010
0100
1000
0100
1000
,  // measure 60
1001
0000
1001
0000
0010
0110
0000
0000
,  // measure 61
1001
1000
0010
0001
,  // measure 62
0010
0000
1000
0000
0010
0100
0001
0010
,  // measure 63
0100
0000
0010
0100
1000
0000
0100
0010
,  // measure 64
0001
0100
0001
1000
0100
0010
0001
0000
,  // measure 65
1001
1000
0100
0001
,  // measure 66
0100
1000
0100
0010
,  // measure 67
1001
0001
0100
1000
,  // measure 68
0100
0000
0001
0000
1000
0100
0010
0000
,  // measure 69
0101
0000
0101
0000
0000
0000
0110
0000
0110
0000
0000
0000
,  // measure 70
1010
0000
1010
0000
0000
0000
1001
0000
1001
0000
0000
0000
,  // measure 71
2002
0000
0000
3003
,  // measure 72
1001
0000
1000
0010
1000
0001
0000
1001
,  // measure 73
0000
1000
0001
0010
1000
0010
0001
0000
,  // measure 74
1001
0000
0001
0100
0001
1000
0000
1001
,  // measure 75
0000
0001
1000
0010
0001
0010
1000
0000
,  // measure 76
1001
0000
1000
0010
1000
0001
0000
1001
,  // measure 77
0000
1000
0001
0100
1000
0100
0001
0000
,  // measure 78
1001
0000
0001
0010
0001
1000
0000
0010
,  // measure 79
1010
0000
1010
0000
0001
1001
0000
0000
,  // measure 80
1000
0100
1000
0001
0100
0001
0000
1000
0001
0010
0100
0010
0001
2000
0000
3001
,  // measure 81
1000
0010
1000
0001
0010
0001
0000
1000
0001
0100
0010
0100
0001
2000
0000
3001
,  // measure 82
1000
0100
0010
0100
1000
0001
0000
1000
0001
0010
1000
0010
0001
0200
0000
0310
,  // measure 83
1000
0001
0010
0001
1000
0001
0000
0100
0110
0000
0110
0000
1000
0100
0010
0001
,  // measure 84
1000
0010
1000
0100
0010
0001
0000
0001
,  // measure 85
1000
0100
0001
0100
1000
1020
0000
0130
,  // measure 86
0001
0010
0001
1000
0100
0010
0000
0010
,  // measure 87
0001
0100
1000
0100
0001
0021
0000
0130
,  // measure 88
1000
0001
1000
0010
0100
0001
0000
0001
,  // measure 89
1000
0010
0001
0010
1000
1200
0000
0310
,  // measure 90
0001
0100
0001
0010
0100
1000
0000
1000
,  // measure 91
1010
0000
1010
0000
0100
0110
0000
0110
;

//---------------dance-single - ----------------
#NOTES:
     dance-single:
     :
     Medium:
     8:
     0.444,0.594,0.376,0.163,0.000:
0001
0000
0010
0000
,
0001
0000
1000
0000
,
0100
0000
1000
0000
,
0010
0000
0200
0000
,
0310
0000
0000
0000
,
0000
0000
0000
0000
,
1000
0000
0001
0000
,
1000
0000
1001
0000
,
0010
0100
0010
0100
,
0001
0010
0001
1000
,
0100
1000
0010
0100
,
0001
0010
0001
1000
,
1001
0010
0100
0010
,
1000
0001
0100
0010
,
1001
0000
1001
0000
,
1001
0000
0000
0000
,
0010
0100
0001
0010
,
0001
0010
0100
1000
,
1001
0010
0100
0001
,
0100
0010
1000
0000
,
1001
0010
0100
0001
,
0010
0001
0100
0010
,
1001
0010
0100
0001
,
1000
0010
0100
0000
,
1001
0010
1000
0100
,
1000
0010
0100
0001
,
1001
0010
0100
0010
,
0100
0001
0010
0000
,
1001
0010
0100
0010
,
1000
0010
1000
0001
,
0011
0100
1000
0010
,
1010
0000
0000
0000
,
1001
0000
0001
0100
0001
0100
0000
0000
,
0010
0000
1000
0100
1000
0100
0000
0000
,
0010
0000
0001
1000
0001
1000
0000
0000
,
1100
0000
0000
0000
,
1001
0000
1000
0100
1000
0100
0000
0000
,
0010
0000
0001
0100
0001
0100
0000
0000
,
0010
0000
1000
0100
1000
0100
0000
0000
,
1001
0000
0000
0000
,
2000
0000
3002
0000
,
2003
0000
3020
0000
,
0230
0001
0301
0000
,
2000
0100
3100
0010
,
0002
0000
2003
0000
,
3002
0000
0203
0000
,
0320
1000
1030
0000
,
0002
0010
0013
0100
,
2000
0000
3002
0000
,
0023
0000
0230
0000
,
0320
0001
0031
0000
,
1001
0000
0000
0000
,
0001
0100
0010
0100
,
0001
1000
0100
0010
,
0001
1000
0100
1000
,
0001
0010
0100
1000
,
1001
0001
1001
1000
,
0010
0100
0001
0100
,
0010
1000
0010
1000
0010
0000
0100
0000
,
1001
0000
0000
0000
,
0001
0010
0100
0010
,
0001
0010
0100
1000
,
1001
0010
0110
0001
,
0011
0100
1000
0000
,
1001
1001
0110
0110
,
0001
1100
1100
0010
,
1001
1001
0110
0110
,
1001
0000
1100
0000
,
1001
0000
1001
0000
,
0110
0000
0110
0000
,
1001
0000
0000
0000
,
1001
0000
0010
0000
0100
1000
0000
0100
,
0000
0010
0001
1000
,
1100
0000
0010
0000
0001
0100
0000
0010
,
0000
1000
0002
0000
,
0103
0000
0001
0000
1000
0100
0000
0010
,
0000
0000
0100
0000
1000
0010
0000
0000
,
0101
0000
0010
0000
0100
1000
0000
0001
,
0000
0000
0000
0000
,
1000
1000
1000
0000
0010
0010
0010
0000
,
0100
0100
0100
0000
0001
0001
0001
0000
,
1000
1000
1000
0000
0001
0001
0001
0000
,
0010
0010
0010
0000
0100
1000
0001
0000
,
1001
0000
1000
0000
0010
0100
0000
0001
,
1000
0000
0100
0000
0010
0001
0000
0001
,
1000
0000
0010
0000
0100
0001
0000
1000
,
0100
0000
0010
0000
0001
1000
0000
1000
,
0001
0000
0010
0000
0100
0010
0000
0001
,
1000
0000
0100
0000
1000
0010
0000
0010
,
0100
0000
0001
0000
0010
0100
0000
1000
,
0002
0000
0000
0003
0000
0100
0000
0110
;

//---------------dance-single - ----------------
#NOTES:
     dance-single:
     :
     Beginner:
     2:
     0.083,0.220,0.073,0.000,0.000:
0000
0000
0000
0000
,
0000
0000
0000
0000
,
0000
0000
0000
0000
,
0000
0000
0000
0000
,
1000
0000
0000
0000
,
0000
0000
0000
0000
,
0001
0000
0000
0000
,
0000
0000
0000
0000
,
0001
0000
0000
0000
,
0000
0000
0000
0000
,
1000
0000
0000
0000
,
0000
0000
0000
0000
,
0010
0000
0000
0000
,
0000
0000
0000
0000
,
0100
0000
0000
0000
,
0000
0000
0000
0000
,
1001
0000
0000
0000
,
0000
0000
0000
0000
,
1000
0000
0000
0000
,
0000
0000
0000
0000
,
0001
0000
0000
0000
,
0000
0000
0000
0000
,
1000
0000
0000
0000
,
0000
0000
0000
0000
,
0100
0000
0000
0000
,
0000
0000
0000
0000
,
1000
0000
0000
0000
,
0000
0000
0000
0000
,
0010
0000
0000
0000
,
0000
0000
0000
0000
,
0100
0000
0000
0000
,
1001
0000
0000
0000
,
0010
0000
0000
0000
,
0000
0000
0000
0000
,
0000
0000
0000
0000
,
1001
0000
0000
0000
,
0100
0000
0000
0000
,
0000
0000
0000
0000
,
0000
0000
0000
0000
,
1001
0000
0000
0000
,
0010
0000
0000
0000
,
0000
0000
0000
0000
,
0000
0000
0000
0000
,
0000
0000
0000
0000
,
0100
0000
0000
0000
,
0000
0000
0000
0000
,
0000
0000
0000
0000
,
0000
0000
0000
0000
,
0001
0000
0000
0000
,
0000
0000
0000
0000
,
0000
0000
0000
0000
,
1000
0000
0000
0000
,
1001
0000
0000
0000
,
0000
0000
0000
0000
,
0010
0000
0000
0000
,
0000
0000
0000
0000
,
0100
0000
0000
0000
,
0000
0000
0000
0000
,
0001
0000
0000
0000
,
1001
0000
0000
0000
,
1000
0000
0000
0000
,
0000
0000
0000
0000
,
0010
0000
0100
0000
,
0010
0000
0000
0000
,
1000
0000
0000
0000
,
0001
0000
0000
0000
,
1000
0000
0000
0000
,
0001
0000
0000
0000
,
1001
0000
0000
0000
,
1001
0000
0000
0000
,
1001
0000
0000
0000
,
1000
0000
0000
0000
,
0000
0000
0000
0000
,
0001
0000
0000
0000
,
0000
0000
0000
0000
,
0100
0000
0000
0000
,
0000
0000
0000
0000
,
0010
0000
0000
0000
,
0000
0000
0000
0000
,
1000
0000
0000
0000
,
0001
0000
0000
0000
,
0010
0000
0000
0000
,
0001
0000
0000
0000
,
1000
0000
0100
0000
,
1000
0000
0001
0000
,
1000
0000
0001
0000
,
0010
0000
0001
0000
,
1000
0000
0001
0000
,
1000
0000
0010
0000
,
1000
0000
0001
0000
,
0100
0000
0000
0000
;
