#TITLE:Akash;
#SUBTITLE:;
#ARTIST:Akino;
#TITLETRANSLIT:;
#SUBTITLETRANSLIT:;
#ARTISTTRANSLIT:;
#CREDIT:DigiMindAxel;
#BANNER:Akash.png;
#BACKGROUND:Akash-bg.png;
#LYRICSPATH:Akash.lrc;
#CDTITLE:pop'n music.png;
#MUSIC:Akash.ogg;
#METERTYPE:DDR X;
#OFFSET:-7.281;
#SAMPLESTART:45.636;
#SAMPLELENGTH:12.000;
#SELECTABLE:YES;
#BPMS:0.000=147.000;
#STOPS:;
#BGCHANGES:;

//---------------dance-single - ----------------
#NOTES:
     dance-single:
     :
     Easy:
     5:
     0.274,0.298,0.169,0.196,0.000:
0001
1000
0001
1000
,
0100
1000
0100
0010
,
0002
0000
0203
0000
,
0302
0000
1003
0000
,
0001
0010
0001
0010
,
0100
1000
0100
1000
,
0020
0000
0230
0000
,
0320
0000
0130
0000
,
0002
1000
0000
1003
,
0001
0010
0100
1000
,
0010
0010
0010
0000
,
0100
0100
0100
0001
,
2000
0100
0000
3100
,
0010
0001
1000
0010
,
0110
0000
0110
0000
,
1001
0000
1001
0000
,
0001
1000
0100
0000
,
0010
0001
0010
0001
,
0200
0000
0320
0000
,
0230
0000
0300
0000
,
0001
1000
0010
0000
,
0100
0001
1000
0100
,
2000
0000
3002
0000
,
2003
0000
3000
0000
,
0020
1000
0000
1030
,
0001
0010
0100
0010
,
0001
1000
0010
0000
,
0100
0001
1000
0100
,
0020
0001
0000
0031
,
1000
0010
0100
0001
,
1001
0000
1001
0000
,
0110
0000
0110
0000
,
2000
0000
0000
0000
,
3020
0000
0000
0000
,
0230
0000
0000
0000
,
0302
0000
0000
0000
,
1003
1000
1000
0000
,
0001
0001
0001
0000
,
0010
0010
0010
0000
,
0100
0100
0100
0000
,
1001
0000
0010
0100
,
0010
0000
0100
0010
,
0100
0100
0010
0010
,
1000
1000
0001
0001
,
1001
0000
0010
0100
,
0010
0000
0100
0010
,
1000
1000
0001
0001
,
1000
0100
0010
0001
,
1001
0000
0000
0000
,
0000
0000
0000
0000
,
1000
0100
1000
0100
,
0010
0001
0010
0001
,
0100
0100
0010
0010
,
0100
0100
0001
0010
,
0100
1000
0100
1000
,
0010
0100
0010
0100
,
1001
0000
0110
0000
,
1001
0000
0110
0010
,
0110
0000
1001
0000
,
0110
0100
0010
0220
,
0000
0000
0000
0330
;

//---------------dance-single - ----------------
#NOTES:
     dance-single:
     :
     Medium:
     8:
     0.432,0.487,0.481,0.143,0.009: // measure 1
1000
0000
0100
1000
0100
0000
0001
0000
,  // measure 2
0100
0000
1000
0000
0001
1000
0001
0000
,  // measure 3
0020
0000
0000
0001
0032
0000
0000
1000
,  // measure 4
2003
0000
3010
0010
,  // measure 5
1001
0000
1000
0010
1000
0000
0100
0000
,  // measure 6
0001
0000
0100
0000
1000
0001
1000
0000
,  // measure 7
0200
0000
0000
1000
2300
0000
0000
0001
,  // measure 8
3002
0000
0103
0100
,  // measure 9
1001
0011
1001
0011
,  // measure 10
0001
1000
0100
0000
1000
0100
1000
0000
,  // measure 11
1100
1100
1100
1001
,  // measure 12
0011
0011
0011
1001
,  // measure 13
1010
0110
1010
0110
,  // measure 14
1000
0010
0100
0000
0010
0100
0010
0000
,  // measure 15
1001
1000
1001
0001
,  // measure 16
0110
0000
0100
0000
0010
0100
0010
0000
,  // measure 17
1000
0010
0100
0000
0101
0000
0001
1000
,  // measure 18
0001
0000
1000
0100
1000
0000
0001
0010
,  // measure 19
0002
0000
0000
1000
2003
0000
0000
0001
,  // measure 20
3002
0000
1003
0010
,  // measure 21
0101
0000
0001
1000
0100
0000
0010
0100
,  // measure 22
0010
0000
0001
0100
0010
0000
1000
0001
,  // measure 23
2000
0000
0000
0001
3002
0000
0000
1000
,  // measure 24
2003
0000
3001
0000
,  // measure 25
0101
0110
0101
0110
,  // measure 26
0010
1000
0100
0000
1000
0100
1000
0000
,  // measure 27
0010
0100
0010
0100
0001
0000
0001
0000
,  // measure 28
0010
0100
0010
0100
1000
0000
1000
0000
,  // measure 29
1001
0011
1001
0011
,  // measure 30
0010
0001
1000
0000
0010
1000
0010
0000
,  // measure 31
0110
0100
0110
0010
,  // measure 32
1001
0000
1000
0000
0001
1000
0001
0000
,  // measure 33
0200
0000
0000
0000
,  // measure 34
0320
0000
0000
0000
,  // measure 35
1030
0001
1000
0001
,  // measure 36
0010
0100
0010
0100
,  // measure 37
1001
0000
1000
0001
1000
0000
0001
0000
,  // measure 38
0110
0000
0010
0100
0010
0000
0100
0000
,  // measure 39
1001
0000
1000
0001
1000
0000
0001
0000
,  // measure 40
0110
0000
0100
0010
0100
0000
0010
0000
,  // measure 41
1001
0000
0000
1000
0000
0000
0000
0000
0000
0000
0001
0000
0010
0000
0100
0000
,  // measure 42
1000
0000
0000
0000
0000
0001
0010
0100
,  // measure 43
1000
0010
0001
0010
,  // measure 44
1000
0010
0100
0000
0010
0100
0010
0000
,  // measure 45
1001
0000
0000
0001
0000
0000
0000
0000
0000
0000
1000
0000
0100
0000
0010
0000
,  // measure 46
0001
0000
0000
0000
0000
1000
0100
0010
,  // measure 47
0001
0100
1000
0100
,  // measure 48
0001
0010
0100
0000
0010
0001
0010
0001
,  // measure 49
0100
0000
0000
0000
,  // measure 50
0000
0000
0000
0000
,  // measure 51
1001
1100
1001
0011
,  // measure 52
0100
1000
0010
0000
1000
0010
0100
0000
,  // measure 53
0001
1000
0001
1000
0100
0000
0100
0000
,  // measure 54
0010
0001
0010
0001
0100
0000
0100
0000
,  // measure 55
1001
0101
1001
1010
,  // measure 56
0100
0001
0010
0000
0001
0010
0100
0000
,  // measure 57
1010
0010
0110
0100
,  // measure 58
0101
0000
0001
0000
0010
0100
1000
0000
,  // measure 59
1100
0100
0110
0010
,  // measure 60
0011
0000
0001
0000
1000
0100
2002
0000
,  // measure 61
0000
0000
0000
3003
;

//---------------dance-single - ----------------
#NOTES:
     dance-single:
     :
     Hard:
     13:
     0.577,0.623,0.160,0.080,0.357: // measure 1
1000
0001
1000
0001
0010
0000
0100
1000
,  // measure 2
0100
1000
0010
0100
0010
0100
0001
0010
,  // measure 3
0200
0000
0000
0310
0200
0000
0000
0310
,  // measure 4
0200
0000
0000
0000
1300
0010
0100
0000
,  // measure 5
0001
1000
0001
1000
0100
0000
0010
0001
,  // measure 6
0010
0001
0100
0010
0100
0010
1000
0100
,  // measure 7
0010
0000
0000
0010
0000
0000
0100
0000
0010
0000
0000
0010
0000
0000
0100
0000
,  // measure 8
0010
0000
0000
0010
0000
0000
0100
0000
0010
0000
0000
0000
0010
0000
0000
0000
,  // measure 9
1001
0000
0000
0001
0100
0000
0001
0000
1000
0000
0000
0100
1000
0000
0001
0000
,  // measure 10
0010
0100
1000
0001
0100
0001
1000
0000
,  // measure 11
0100
0010
0001
1000
0100
0000
0010
0100
,  // measure 12
1000
0100
0010
0000
0100
1000
0010
0100
,  // measure 13
0001
0000
0000
1000
0001
0000
0010
0000
0001
0000
0000
0010
0100
0000
1000
0000
,  // measure 14
0100
1000
0001
0100
0001
1000
0100
0000
,  // measure 15
0010
0000
0000
0010
0000
0000
0010
0000
0001
0000
0000
0001
0000
0000
0001
0000
,  // measure 16
0100
0000
0000
0100
0000
0000
0100
0000
0010
0000
1000
0000
0100
0000
0000
0000
,  // measure 17
1000
0001
0001
0001
0010
0000
0100
0010
,  // measure 18
0001
0001
0100
0100
0010
0010
1000
1000
,  // measure 19
0200
0000
0000
0000
0000
0000
0310
0001
0020
0000
0000
0000
0000
0000
0130
1000
,  // measure 20
0200
0000
0000
0000
1300
0100
0010
0001
,  // measure 21
1000
0000
0000
1000
0000
0000
1000
0000
0010
0000
0000
0010
0000
0000
0010
0000
,  // measure 22
0100
0000
0000
0100
0000
0000
0100
0000
0001
0000
0000
0001
0000
0000
0001
0000
,  // measure 23
1000
0100
0010
0001
1000
0010
0100
0001
,  // measure 24
1000
0100
0010
0001
1000
0000
0000
0000
,  // measure 25
1001
0000
0000
0001
1000
0000
0100
0000
1000
0000
0000
0100
0010
0000
0001
0000
,  // measure 26
0100
0010
0100
0001
0010
0000
0011
0000
,  // measure 27
0001
0010
1000
0010
0001
0000
0010
0100
,  // measure 28
1000
0010
0001
0010
1000
0001
0100
0000
,  // measure 29
1001
0000
0000
1000
0001
0000
0010
0000
0001
0000
0000
0010
0100
0000
1000
0000
,  // measure 30
0010
0100
0010
1000
0100
0000
1100
0000
,  // measure 31
0010
0000
0000
0010
0000
0000
0010
0000
0001
0000
0000
0001
0000
0000
0001
0000
,  // measure 32
1000
0000
0000
1000
0000
0000
1000
0000
0010
0000
0100
0000
0010
0000
0000
0000
,  // measure 33
1000
0000
0000
1000
0000
0000
1000
0000
0100
0000
0000
0000
0010
0000
0001
0000
,  // measure 34
1000
0000
0000
1000
0000
0000
1000
0000
0010
0000
0000
0000
0100
0000
0000
0000
,  // measure 35
1001
0000
0000
0001
0000
0000
0001
0000
0010
0000
0000
0000
0100
0000
1000
0000
,  // measure 36
0001
0000
0000
0001
0000
0000
0001
0000
0100
0000
0000
0000
0000
0000
0000
0000
,  // measure 37
0110
0000
0000
0010
0000
0000
0010
0000
1000
0000
0000
0000
0100
0000
0010
0000
,  // measure 38
0001
0000
0000
0001
0100
0000
0001
0000
1000
0000
0000
0000
1001
0000
0000
0000
,  // measure 39
0011
0000
0000
0010
0000
0000
0010
0000
0100
0000
0000
0000
1000
0000
0010
0000
,  // measure 40
0100
0000
0000
0100
0001
0000
0010
0000
0100
0000
0000
0000
0000
0000
0000
0000
,  // measure 41
1100
0000
0000
1100
0000
0000
0000
0000
0000
0010
0001
0010
0001
0010
0001
0010
,  // measure 42
0001
0010
0000
0000
0000
0000
0000
0000
0000
0001
1000
0001
1000
0001
1000
0001
,  // measure 43
1000
0100
0010
0001
1000
0010
0100
0001
,  // measure 44
1000
0100
1000
0100
1000
0000
0001
0000
0100
0001
0100
0001
0100
0000
0001
0000
,  // measure 45
1001
0000
0000
1001
0000
0000
0000
0000
0000
1000
0100
1000
0100
1000
0100
1000
,  // measure 46
0100
1000
0000
0000
0000
0000
0000
0000
0000
0001
1000
0001
1000
0001
1000
0001
,  // measure 47
1000
0010
0100
0001
1000
0100
0010
0001
,  // measure 48
1000
0010
1000
0010
1000
0000
0001
0000
0010
0001
0010
0001
0010
0000
0100
0000
,  // measure 49
2000
0000
0000
0000
,  // measure 50
3000
0000
0001
0001
,  // measure 51
1000
0100
1000
0100
1000
0000
0001
0000
0010
0000
0100
0000
0010
0000
0001
0000
,  // measure 52
0100
0001
0100
0001
0100
0000
0010
0000
1000
0000
0100
0000
1000
0000
0010
0000
,  // measure 53
0100
0010
0100
0010
0100
0000
0001
0000
0010
0000
0100
0000
0010
0000
0001
0000
,  // measure 54
1000
0010
1000
0010
1000
0000
0100
0000
0010
0000
0100
0000
1000
0000
0010
0000
,  // measure 55
0100
0001
0100
0001
0100
0000
0001
0000
1000
0000
0100
0000
0010
0000
0100
0000
,  // measure 56
1000
0001
1000
0001
1000
0000
0010
0000
0100
0000
0001
0000
0010
0000
0100
0000
,  // measure 57
1010
0000
0000
0010
0000
0000
0010
0000
1001
0000
0000
0001
0000
0000
0001
0000
,  // measure 58
0011
0000
0000
0010
0000
0000
0010
0000
0100
0000
1000
0000
0010
0000
0000
0000
,  // measure 59
0100
0001
0100
0001
0100
0000
0010
0000
1000
0001
1000
0001
1000
0000
0100
0000
,  // measure 60
0010
0001
0010
0001
0010
0000
0100
0000
1000
0000
1010
0000
0220
0000
0000
0000
,  // measure 61
0000
0000
0000
0330
;

//---------------dance-single - ----------------
#NOTES:
     dance-single:
     :
     Challenge:
     15:
     0.782,0.839,0.392,0.089,0.762: // measure 1
1000
0010
0100
0010
1000
0000
0001
0100
,  // measure 2
1000
0100
0001
0010
0100
0010
0001
1000
,  // measure 3
0020
0000
0000
1000
0000
0000
1030
0000
0002
0000
0000
0010
0000
0000
0013
0000
,  // measure 4
0100
0000
1000
0001
1000
0001
1000
0000
0100
0010
0001
0000
0010
0001
0100
0000
,  // measure 5
1001
0001
0010
0100
0010
0000
0001
0010
,  // measure 6
1000
0010
0001
1000
0001
1000
0100
0010
,  // measure 7
0011
0000
0000
0011
0000
0000
0011
0000
1001
0000
0000
1001
0000
0000
1001
0000
,  // measure 8
1100
0000
0000
1100
0000
0000
1100
0000
0010
0001
0100
0000
0001
0100
0001
0100
,  // measure 9
0010
0000
0000
1000
0100
0000
1000
0000
0001
0000
0000
0001
0100
0000
0001
0000
,  // measure 10
1000
0100
0010
0001
0010
0100
1000
0000
,  // measure 11
0001
1000
0001
1000
0010
0000
0100
0000
0002
0000
0000
0000
1003
0000
0100
0000
,  // measure 12
0010
0001
0010
0001
1000
0000
0010
0000
0100
0001
0100
0000
0001
1000
0001
1000
,  // measure 13
0100
0000
0000
0010
0001
0000
0100
0000
0010
0000
0000
0010
1000
0000
0100
0000
,  // measure 14
0010
0001
0100
0001
0010
0100
1000
0000
,  // measure 15
0001
1000
0001
1000
0100
0000
0010
0000
1001
0000
0000
1001
0000
0000
1001
0000
,  // measure 16
0001
0010
0001
0010
0100
0000
1000
0000
1010
0000
0100
0000
0101
0000
0000
0000
,  // measure 17
1001
0100
0100
0100
1000
0000
0100
0010
,  // measure 18
0001
0001
0100
0100
0010
0010
1000
1000
,  // measure 19
0200
0000
0000
0000
0000
0000
0310
0001
0200
0000
0000
0000
0000
0000
0310
1000
,  // measure 20
0200
0000
0000
0000
0000
0000
0000
0000
1300
0001
1000
0001
0010
0001
0010
0001
,  // measure 21
1000
0000
0000
1000
0010
0000
0100
0000
0010
0000
0000
0010
1000
0000
0001
0000
,  // measure 22
0010
0000
0000
0010
0100
0000
1000
0000
0010
0000
0000
0010
0100
0000
0001
0000
,  // measure 23
0010
0001
0010
0000
0100
0010
0100
0000
1000
0010
1000
0010
1000
0001
0010
0000
,  // measure 24
0100
1000
0100
0000
0010
0100
0010
0000
0001
0000
0010
0000
0100
0000
1000
0000
,  // measure 25
1001
0000
0000
0001
0100
0000
0001
0000
1000
0000
0000
1000
0100
0000
1000
0000
,  // measure 26
0010
0100
0001
0010
0100
0010
0001
0000
,  // measure 27
0100
0010
0100
0010
1000
0000
0100
0000
0010
0000
0000
0000
0100
0000
1000
0000
,  // measure 28
0001
0100
0001
0100
0010
0000
0100
0000
0001
1000
0001
1000
0010
1000
0010
1000
,  // measure 29
0001
0000
0000
0010
0001
0000
0010
0000
0100
0000
0000
0100
1000
0000
0001
0000
,  // measure 30
0100
0001
1000
0100
0010
0001
0100
0000
,  // measure 31
1010
0000
0000
1010
0000
0000
1010
0000
1001
0000
0000
1001
0000
0000
1001
0000
,  // measure 32
0101
0000
0000
0101
0000
0000
0101
0000
0010
0000
0100
0000
1001
0000
0000
0000
,  // measure 33
0001
0010
0000
0001
0010
0000
0100
0000
1000
0001
0000
1000
0001
0000
0010
0000
,  // measure 34
0100
1000
0000
0100
1000
0000
0001
0000
0100
0001
0000
0100
0001
0000
1000
0000
,  // measure 35
0100
0010
0000
0100
0010
0000
0001
0000
1000
0010
0000
1000
0010
0000
0100
0000
,  // measure 36
0001
0010
0000
0001
0010
0000
0100
0000
1000
0001
0000
1000
0001
0000
0100
0000
,  // measure 37
0020
0000
0000
1000
0000
0000
1030
0000
0001
0000
0000
0001
0010
0100
1000
0000
,  // measure 38
1000
0000
0001
0100
0010
0000
0100
0000
0110
0000
0000
0000
1010
0000
0000
0000
,  // measure 39
1002
0000
0000
1000
0000
0000
1003
0000
0001
0000
0000
1000
0100
0010
0001
0000
,  // measure 40
0001
0000
1000
0010
0100
0000
0010
0000
1000
0001
1000
0001
1000
0001
1000
0000
,  // measure 41
1100
0000
0000
1100
0000
0000
0000
0000
0000
0010
0001
0100
0010
1000
0010
0100
,  // measure 42
0001
0010
0000
0000
0000
0000
0000
0000
0000
0100
1000
0001
0010
0100
0010
0001
,  // measure 43
1000
0000
0001
0100
0010
0000
1000
0010
0100
0001
0100
0001
0010
0000
0100
1000
,  // measure 44
0001
0100
1000
0100
0001
0000
0010
0000
0001
0010
1000
0010
0001
0000
0100
0000
,  // measure 45
0101
0000
0000
0101
0000
0000
0000
0000
0000
0010
1000
0100
1000
0010
0100
0001
,  // measure 46
1000
0010
0000
0000
0000
0000
0000
0000
0000
1000
0001
0010
0100
0010
0001
1000
,  // measure 47
0010
0000
1000
0001
0010
0000
0001
0010
0100
0010
0001
1000
0010
0000
1000
0001
,  // measure 48
1000
0010
0001
0010
1000
0100
0010
0001
1000
0100
0001
0100
1000
0001
0010
0100
,  // measure 49
2000
0000
0100
0100
0100
0000
0001
0001
,  // measure 50
3001
0000
1000
0100
1000
0000
0010
0000
0100
0000
0010
0000
1000
0000
0000
0000
,  // measure 51
0001
1000
0010
1000
0001
0000
0010
0000
0100
0010
0001
0010
0100
0000
1000
0000
,  // measure 52
0010
1000
0100
1000
0010
0000
0100
0000
0001
1000
0100
0010
0001
0000
1000
0000
,  // measure 53
0001
0010
1000
0010
0001
0000
0010
0000
0100
0010
0001
0010
0100
0000
1000
0000
,  // measure 54
0001
0100
1000
0100
0001
0000
0100
0000
0001
0100
0010
0100
0001
1000
0100
0000
,  // measure 55
1000
0100
0001
0100
1000
0001
0100
0001
1000
0100
0010
0001
1000
0010
0100
0000
,  // measure 56
0001
0010
1000
0010
0001
0010
0100
0000
1000
0100
0001
0100
1000
0001
1000
0000
,  // measure 57
1100
0000
0000
1100
0000
0000
1100
0000
0110
0000
0000
0110
0000
0000
0110
0000
,  // measure 58
0011
0000
0000
0011
0000
0000
0011
0000
0100
0000
1000
0000
1001
0000
0000
0000
,  // measure 59
0001
0100
0010
0100
0001
0000
1000
0000
0100
0010
0001
0010
0100
0000
1000
0000
,  // measure 60
0010
1000
0001
1000
0010
0000
0100
0000
0001
0010
0100
0010
0002
0000
0000
0000
,  // measure 61
0000
0000
0000
0003
;

//---------------dance-single - ----------------
#NOTES:
     dance-single:
     :
     Beginner:
     2:
     0.102,0.160,0.089,0.000,0.000:
1000
0000
0000
0000
,
0100
0000
0000
0000
,
0010
0000
0010
0000
,
0010
0000
0000
0000
,
0001
0000
0000
0000
,
1000
0000
0000
0000
,
0100
0000
0100
0000
,
0100
0000
0000
0000
,
0010
0000
0010
0000
,
0010
0000
0000
0000
,
0001
0000
0001
0000
,
0001
0000
0000
0000
,
0100
0000
0100
0000
,
0100
0000
0000
0000
,
0110
0000
0000
0000
,
0110
0000
0000
0000
,
1001
0000
0000
0000
,
0001
0000
0000
0000
,
0100
0000
0000
0000
,
0010
0000
0000
0000
,
0100
0000
0000
0000
,
0100
0000
0000
0000
,
0001
0000
0000
0000
,
0001
0000
0000
0000
,
1000
0000
0000
0000
,
0100
0000
0000
0000
,
0010
0000
0010
0000
,
0010
0000
0000
0000
,
0001
0000
0000
0000
,
0100
0000
0000
0000
,
0010
0000
0010
0000
,
0010
0000
0000
0000
,
1001
0000
0000
0000
,
0000
0000
0000
0000
,
1000
0000
0000
0000
,
0001
0000
0000
0000
,
1000
0000
0000
0000
,
0001
0000
0000
0000
,
1000
0000
0000
0000
,
0001
0000
0000
0000
,
0110
0000
0000
0000
,
0000
0000
0000
0000
,
0010
0000
0010
0000
,
0010
0000
0000
0000
,
1001
0000
0000
0000
,
0000
0000
0000
0000
,
0100
0000
0100
0000
,
0100
0000
0000
0000
,
1001
0000
0000
0000
,
0000
0000
0000
0000
,
0001
0000
0010
0000
,
0001
0000
0010
0000
,
0100
0000
1000
0000
,
0100
0000
1000
0000
,
0001
0000
1000
0000
,
0001
0000
1000
0000
,
1001
0000
0000
0000
,
0000
0000
0000
0000
,
0110
0000
0000
0000
,
0000
0000
0000
1001
;
