#TITLE:ASKA;
#SUBTITLE:-invasion-;
#ARTIST:2MB;
#TITLETRANSLIT:;
#SUBTITLETRANSLIT:;
#ARTISTTRANSLIT:;
#CREDIT:DigiMindAxel;
#BANNER:ASKA -invasion-.png;
#BACKGROUND:ASKA -invasion--bg.png;
#LYRICSPATH:;
#CDTITLE:DigiMindAxel original simfile.png;
#MUSIC:ASKA -invasion-.ogg;
#METERTYPE:DDR X;
#OFFSET:-5.688;
#SAMPLESTART:19.460;
#SAMPLELENGTH:12.000;
#SELECTABLE:YES;
#DISPLAYBPM:*;
#BPMS:0.000=85.000,20.000=170.000,148.000=340.000,276.000=54.000;
#STOPS:;
#BGCHANGES:;

//---------------dance-single - ----------------
#NOTES:
     dance-single:
     :
     Easy:
     9:
     0.421,0.614,0.051,0.192,0.015:
0002
0100
0103
0000
,
2001
0100
3100
0000
,
0210
0010
0310
0000
,
1001
0000
0001
0000
1000
0100
0010
0001
,
0100
0000
0001
0000
1000
0001
1000
0000
0001
1000
0001
0000
1000
0001
1000
0000
,
0001
0000
0100
0001
0100
0000
0010
0000
,
1000
0100
0010
0100
,
1000
0000
0001
1000
0001
0000
0100
0000
,
0010
0100
0001
1000
,
0100
0000
1000
0100
1000
0000
0010
0000
,
0100
0001
1000
0100
,
1000
0000
0010
0100
0010
0000
1000
0000
,
0100
0010
0001
0100
,
0010
0000
0100
0001
0100
0000
0001
1000
,
0001
0010
0100
1000
,
0010
0000
0100
0001
0100
0000
0001
1000
,
0001
0010
0100
1000
,
0001
0000
1000
0100
1000
0000
0001
1000
,
0001
0010
0100
0010
,
0001
0000
0100
0010
0100
0000
0001
0100
,
0001
0010
0100
1000
,
0001
1000
0000
0000
1000
0000
0000
0000
,
0100
0010
0001
0000
0000
0000
0000
0000
,
1000
0001
0000
0000
0001
0000
0000
0000
,
0010
0100
1000
0000
0000
0000
0000
0000
,
0010
0100
0000
0000
0100
0000
0000
0000
,
0001
0100
0010
0000
0000
0000
0000
0000
,
1000
0001
0000
0000
0001
0000
0000
0000
,
1000
0100
0010
0000
0000
0000
0000
0000
,
0001
0100
0000
0000
0100
0000
0000
0000
,
0010
0100
0001
0000
0000
0000
0000
0000
,
1000
0100
0000
0000
0100
0000
0000
0000
,
0010
0100
1000
0000
0000
0000
0000
0000
,
0010
0100
0000
0000
0100
0000
0000
0000
,
0010
0100
0001
0000
0000
0000
0000
0000
,
0100
0001
0100
0000
0001
0000
1000
0100
,
1000
0000
0100
0000
0010
0100
0010
0100
,
1000
0001
2000
0000
,
3010
1000
0010
1000
,
0001
0100
0002
0000
,
0013
0100
0010
0100
,
1000
0010
0200
0000
,
0010
0000
0310
0000
,
1000
0100
0010
0001
,
0010
0100
1000
0001
,
0200
0000
0301
1000
,
0001
1000
0100
0010
,
0200
0000
1300
0001
,
1000
0001
0100
0001
,
2000
0000
3100
0010
,
0100
0010
0001
0000
,
0100
0001
1000
0001
,
0100
0001
1000
0100
,
0020
0000
0031
0100
,
0010
0100
0001
0100
,
0020
0000
1030
0001
,
0010
0001
1000
0001
,
0020
0000
0130
0010
,
0001
0010
0100
0000
,
1000
0010
0100
0001
,
0100
0010
1000
0010
,
0200
0000
0000
0001
,
0302
0000
1000
0000
,
2003
0000
0000
0100
,
3200
0000
0010
0000
,
0310
0001
1000
0000
,
0010
1000
0001
0000
,
0010
0100
1000
0001
,
0100
0010
0100
0001
,
2000
0000
0000
3001
1001
0000
0000
0000
,
0010
0010
0000
0000
2002
0000
0000
0000
,
0000
0000
0000
3003
0000
0000
0000
0000
;

//---------------dance-single - ----------------
#NOTES:
     dance-single:
     :
     Medium:
     13:
     0.629,0.975,0.364,0.455,0.116: // measure 1
1000
0000
0100
1000
0100
0000
0010
0100
0020
0000
0000
0000
0000
0000
0030
0000
,  // measure 2
1001
0000
1000
0001
1000
0000
0100
1000
0200
0000
0000
0000
0000
0000
0300
0000
,  // measure 3
1001
0001
1000
0000
0100
0000
0010
0100
0010
0000
0001
1000
0100
0010
0000
0000
,  // measure 4
0011
0000
0001
1000
0001
0000
1000
0100
1000
0000
1001
0000
0011
0000
1001
0000
,  // measure 5
1000
0100
1000
0001
0100
0010
0100
0001
0010
0100
1000
0001
0100
1000
0100
0001
,  // measure 6
0020
0000
0130
1000
0020
0000
0130
0001
,  // measure 7
2001
0000
0001
0000
3001
0000
1000
0010
,  // measure 8
0200
0000
0310
1000
0200
0000
0310
0001
,  // measure 9
2001
0000
0001
0000
3001
0000
1000
0010
,  // measure 10
0200
0000
0301
0010
0200
0000
1300
0100
,  // measure 11
0012
0000
0010
0000
0013
0000
0100
1000
,  // measure 12
0002
0000
0013
0100
2000
0000
3001
0100
,  // measure 13
1020
0000
1000
0000
1030
0001
0010
0001
,  // measure 14
2000
0000
3001
0010
0200
0000
0310
0001
,  // measure 15
2100
0000
0100
0000
3100
1000
0001
1000
,  // measure 16
0200
0000
0310
0001
2000
0000
3010
0100
,  // measure 17
1002
0000
1000
0000
1003
0001
0100
0001
,  // measure 18
0020
0000
0130
1000
0002
0000
0013
0100
,  // measure 19
1020
0000
1000
0000
1030
0001
0010
0001
,  // measure 20
0200
0000
0310
1000
0200
0000
0310
0001
,  // measure 21
0210
0000
0010
0000
0310
1000
0100
0010
,  // measure 22
0001
0011
0000
0000
0110
0000
0000
1000
,  // measure 23
0100
0010
0001
0000
0000
0000
0000
0010
,  // measure 24
0001
1000
0000
0000
0110
0000
0000
0001
,  // measure 25
0100
0010
1000
0000
0000
0000
0000
0001
,  // measure 26
1000
0100
0000
0000
1001
0000
1000
0100
,  // measure 27
0010
0001
0010
0000
0000
0000
0100
0000
,  // measure 28
1001
1000
0000
0000
0110
0000
0000
0001
,  // measure 29
0100
0010
1000
0000
1001
0000
0000
0001
,  // measure 30
0100
0010
0000
0000
1010
0000
0000
1000
,  // measure 31
0100
0010
0001
0000
0000
0000
0000
0010
,  // measure 32
0001
1000
0000
0000
0110
0000
0000
0010
,  // measure 33
0100
0001
1000
0000
0000
0000
0000
0000
,  // measure 34
1001
0001
0000
0000
1001
0000
1000
0100
,  // measure 35
0010
0001
0100
0000
0000
0000
0010
0000
,  // measure 36
0110
0000
0000
0100
0001
0000
0010
0000
0100
0000
0000
1000
0001
0000
0010
0000
,  // measure 37
0100
0100
0000
1000
0001
0010
1000
0010
,  // measure 38
0001
0100
1020
0000
,  // measure 39
1030
0100
1000
0001
,  // measure 40
0010
0100
0021
0000
,  // measure 41
0031
1000
0010
1000
,  // measure 42
0001
0100
1020
0000
,  // measure 43
1030
0001
1000
0010
,  // measure 44
0100
0010
0100
0000
0001
1000
0001
0000
,  // measure 45
0010
0100
1000
0010
,  // measure 46
0201
0000
0301
0010
,  // measure 47
0100
1000
0001
0010
,  // measure 48
2100
0000
3100
0010
,  // measure 49
0100
1000
0010
0100
,  // measure 50
0102
0000
0103
0010
,  // measure 51
1000
0001
1000
0000
0100
0000
0010
0001
,  // measure 52
0010
0100
1000
0001
,  // measure 53
0100
0010
0000
0100
0010
0000
1000
0000
,  // measure 54
0120
0000
0130
0001
,  // measure 55
1000
0100
0010
0100
,  // measure 56
2010
0000
3010
0100
,  // measure 57
0001
0010
0100
0010
,  // measure 58
1002
0000
1003
0001
,  // measure 59
0010
0000
0100
0000
1000
0001
1000
0000
,  // measure 60
0100
1000
0100
0000
0010
0000
0001
0000
,  // measure 61
1000
0010
0100
0010
,  // measure 62
1002
0000
0000
0000
0000
0000
0103
0001
,  // measure 63
0200
0000
0320
0000
,  // measure 64
2030
0000
0000
0000
0000
0000
3100
1000
,  // measure 65
0200
0000
2300
3010
,  // measure 66
0100
0000
0001
1000
0000
0001
1000
0000
,  // measure 67
0100
0000
0010
0001
0000
0010
0001
0000
,  // measure 68
1000
0001
1000
0000
0001
0100
0001
0000
,  // measure 69
1000
0010
1000
0000
0001
1000
0001
1000
,  // measure 70
0002
0000
0000
0010
0000
0000
0010
0000
0013
0000
0000
0000
0000
0000
0000
0000
,  // measure 71
0200
0000
0010
0000
0000
0310
0000
2000
0002
0000
0000
0000
0000
0000
0000
0000
,  // measure 72
0000
0000
0000
3003
0000
0000
0000
0000
;

//---------------dance-single - ----------------
#NOTES:
     dance-single:
     :
     Hard:
     16:
     0.838,1.000,0.627,0.132,0.450: // measure 1
0001
0000
0000
0000
0001
0000
0010
0000
0100
0000
0000
1000
0100
0000
1000
0000
0020
0000
0000
0000
0000
0000
0000
0000
0000
0000
0000
0000
0130
0000
0001
0000
,  // measure 2
1000
0000
0000
0000
1000
0000
0100
0000
0010
0000
0000
0001
0100
0000
0010
0000
0200
0000
0000
0000
0000
0000
0000
0000
0000
0000
0000
0000
0310
0000
1000
0000
,  // measure 3
0100
0000
0010
0000
0100
0000
1000
0000
0001
0000
0000
0100
0001
0000
1000
0000
0200
0000
0000
0000
0310
0000
0001
1000
0000
0002
0000
0000
0000
0000
0003
0000
,  // measure 4
1001
0000
0000
0000
1000
0000
0010
0000
0100
0000
0000
0001
1000
0000
0100
0000
1100
0000
0000
0000
1001
0000
0000
0000
0011
0000
0000
0000
1001
0000
0001
0000
,  // measure 5
0010
0000
0100
0000
1000
0000
0010
0000
0100
0001
0100
0001
0100
0001
0100
0001
0010
0100
0010
0100
0010
0100
0010
0100
1000
0010
1000
0010
0100
0001
0100
0001
,  // measure 6
1000
0000
0000
1000
0010
0000
0100
0000
0010
0000
0100
0001
0010
0000
0100
0000
,  // measure 7
1010
0000
0010
0000
0100
0000
0010
0000
1000
0000
0000
0010
0100
0000
0001
1000
,  // measure 8
0001
0000
0000
0001
0100
0000
0010
0000
0100
0000
0010
1000
0100
0000
0010
0000
,  // measure 9
1001
0000
1000
0000
0010
0000
1000
0000
0001
0000
0000
0010
0001
0000
0100
0010
,  // measure 10
0100
0000
0000
0010
1000
0000
0100
0000
0010
0000
0100
1000
0010
0000
0100
0000
,  // measure 11
1001
0000
0001
0000
0100
0000
0001
0000
1000
0000
0000
0100
1000
0000
0001
0010
,  // measure 12
0100
0000
0000
0100
0010
0000
0001
0000
0100
0000
0010
1000
0100
0000
0010
0000
,  // measure 13
1001
0000
1000
0000
0100
0000
1000
0001
0100
0000
0101
0000
1001
0000
1000
0100
,  // measure 14
0010
0000
0000
0010
0001
0000
1000
0000
0100
1000
0001
1000
0100
0000
0010
0000
,  // measure 15
0201
0000
0001
0000
0001
0000
0000
0000
0310
0000
0000
1000
0010
0000
0100
0001
,  // measure 16
0010
0000
0000
0010
0100
0000
1000
0000
0001
0100
0010
0100
0001
0000
1000
0000
,  // measure 17
2010
0000
0010
0000
0010
0000
0000
0000
3100
0000
0000
0010
0001
0000
0100
0010
,  // measure 18
1000
0000
0000
1000
0001
0000
0100
0000
0010
1000
0100
0010
0100
0000
1000
0000
,  // measure 19
2001
0000
0001
0000
0001
0000
0000
0000
3100
0000
0000
0010
0001
0000
0100
0010
,  // measure 20
1000
0000
0000
1000
0001
0000
0010
0000
0100
0010
0001
0010
0100
0000
0010
0000
,  // measure 21
1001
0000
0001
1000
0100
0000
0010
0000
0001
1000
0100
1000
0001
0000
1000
0000
,  // measure 22
1100
1100
0000
0000
1001
0000
0000
1000
,  // measure 23
1100
0010
0001
0000
0000
0000
0000
0100
,  // measure 24
0101
1001
0000
0000
1001
0000
0000
0001
,  // measure 25
0011
0100
1000
0000
0000
0000
0000
0010
,  // measure 26
1010
1001
0000
0000
1001
0000
0001
0010
,  // measure 27
1100
0010
0001
0000
0000
0000
0101
0000
,  // measure 28
0110
0000
0000
0000
1010
0000
0000
0010
,  // measure 29
0101
0010
1000
0000
1100
0000
0000
0010
,  // measure 30
0011
1001
0000
0000
1001
0000
0000
1000
,  // measure 31
1100
0010
0001
0000
0000
0000
0000
0100
,  // measure 32
1001
0000
0000
0000
0011
0000
0000
0100
,  // measure 33
1010
0100
0001
0000
0000
0000
0000
0000
,  // measure 34
1001
1001
0000
0000
0011
0000
0100
1000
,  // measure 35
0110
0001
0100
0000
0000
0000
0101
0000
,  // measure 36
1001
0000
1000
0010
1000
0000
0001
0000
0011
0000
0000
0100
1000
0000
0010
0000
,  // measure 37
0101
0000
0101
0000
0000
0000
0001
0000
1000
0100
1000
0100
0010
0001
0010
0001
,  // measure 38
0100
0000
0010
0100
0020
0000
1000
0000
,  // measure 39
1030
0000
0001
0010
0001
0100
0010
0000
,  // measure 40
0100
0000
0001
0010
0200
0000
0010
0000
,  // measure 41
0310
0000
0001
1000
0001
1000
0100
0000
,  // measure 42
0010
0000
0001
0100
0010
1000
0010
1000
,  // measure 43
0001
0010
0001
1000
,  // measure 44
0100
1000
0010
0100
0010
1000
0100
0000
,  // measure 45
0010
0001
1000
0100
,  // measure 46
0010
0001
0010
0001
0100
0010
1000
0100
,  // measure 47
0010
0000
0011
0000
0011
0000
0100
1000
,  // measure 48
0010
1010
1000
1001
,  // measure 49
0001
0100
0001
1000
0100
0010
0100
0000
,  // measure 50
1000
0000
1001
0000
0001
1000
0100
0000
,  // measure 51
0010
0100
1000
0001
0100
0000
0010
1000
,  // measure 52
0001
0010
0100
0000
0010
0000
0011
0000
,  // measure 53
0001
1000
0000
0100
1000
0010
0000
0100
,  // measure 54
0001
1000
0100
1000
0001
0100
0000
0001
,  // measure 55
1000
0000
0100
0000
1000
0100
0010
0000
,  // measure 56
0001
1000
0100
0010
0100
0000
1000
0000
,  // measure 57
0010
1000
0001
0000
1001
0000
1000
0100
,  // measure 58
0010
0000
0001
0100
0010
0100
0001
1000
,  // measure 59
0100
0000
1100
0000
0010
0001
1000
0000
,  // measure 60
0001
1000
0100
0010
0100
1000
0001
0000
,  // measure 61
0101
0000
0100
0010
1000
0000
0100
0010
,  // measure 62
0002
0000
0100
0000
0103
0000
0010
1000
,  // measure 63
0100
0010
0001
1000
0010
0000
1010
0000
,  // measure 64
0110
0000
0100
0001
0010
0000
0001
0010
,  // measure 65
0100
1000
0001
0000
0100
0001
1000
0100
,  // measure 66
0010
0001
1000
0010
0000
0100
0001
0010
,  // measure 67
0100
1000
0001
0100
0000
0001
1000
0100
,  // measure 68
0010
0100
1000
0010
0001
0010
1000
0100
,  // measure 69
1000
0001
1000
0010
0001
0010
1000
0010
,  // measure 70
0200
0000
0000
0000
0000
0000
0001
0000
0000
0000
0000
0000
0301
0000
0000
0000
1001
0000
0000
0000
0000
0000
0000
0000
0100
0000
1100
0000
0000
0000
1000
0001
,  // measure 71
1000
0000
0000
0010
0100
0000
0000
0000
0000
0000
0001
0000
0000
0000
1000
0000
2200
0000
0000
0000
0000
0000
0000
0000
0000
0000
0000
0000
0000
0000
0000
0000
,  // measure 72
0000
0000
0000
3300
0000
0000
0000
0000
;

//---------------dance-single - ----------------
#NOTES:
     dance-single:
     :
     Challenge:
     18:
     1.000,1.000,0.597,0.121,0.880:
1000
0000
0100
0000
0010
0000
0100
0000
1000
0000
0001
0100
0010
0000
0100
0000
0002
0000
0000
0000
1000
0000
1000
0000
1003
0000
0000
0000
0001
0000
0010
0000
,
1100
0000
1000
0000
0010
0000
0100
0000
0010
0000
1000
0010
1000
0000
0100
0000
0020
0000
0000
0000
0001
0000
0001
0000
0031
0000
0000
0000
1000
0000
0100
0000
,
0011
0000
0011
0000
0100
0000
1000
0000
0001
0000
0100
0010
0100
0000
0001
0000
1001
0000
0000
0000
1000
0000
0010
0100
0000
0000
0002
0000
0000
0000
0003
0000
,
1010
0000
0010
0000
0100
0000
0010
0000
1001
0000
0001
0010
0001
0000
1000
0000
1100
0000
0000
0000
0011
0000
0000
0000
1010
0000
0000
0000
0101
0000
0001
0000
,
1100
0000
1001
0000
0011
0000
1001
0000
1000
0001
0100
0001
1000
0010
0001
0010
1000
0100
0010
0001
0100
1000
0100
0001
0010
0100
0010
0001
1000
0010
0001
0010
,
1000
0000
0100
1000
0010
0000
0010
0100
0001
0000
0001
0010
0100
0000
1000
0000
,
0120
0000
0100
0000
0100
0000
0100
0000
0130
0000
0000
0001
0100
0000
0100
0010
,
0100
0000
0001
0010
0100
0000
0100
1000
0010
0000
0010
0100
0001
0000
1000
0000
,
0210
0000
0010
0000
0010
0000
0010
0000
0310
0000
0000
0001
0100
0000
0010
0100
,
0010
0000
1000
0100
0010
0000
0010
0001
1000
0000
1000
0010
0100
0000
0010
0000
,
0102
0000
0100
0000
0100
0000
0100
0000
0103
0000
0000
0010
1000
0000
0100
0010
,
0100
0000
1000
0001
0100
0000
0100
0001
0010
0000
0010
0100
1000
0000
0010
0000
,
0201
0000
0001
0000
0001
0000
0301
1000
0100
0000
0010
0001
1000
0100
0010
0001
,
1000
0000
0100
1000
0010
0100
0001
0000
1001
0000
1000
0100
0010
0001
0100
0000
,
1002
0000
1000
0000
1000
0000
0000
0000
0013
0000
0000
0100
1000
0000
0001
0100
,
0010
0000
0000
0010
1000
0000
0100
0000
0010
0001
1000
0001
0010
0000
0100
0000
,
1200
0000
1000
0000
1000
0000
0000
0000
0310
0000
0000
0001
0100
0000
0001
1000
,
0100
0000
0000
0100
0010
0000
0001
0000
1000
0100
0010
0100
1000
0000
0010
0000
,
0201
0000
0001
0000
0001
0000
0000
0000
0310
0000
0000
1000
0010
0000
1000
0100
,
0010
0000
0001
0100
0010
0100
0001
0000
0101
0000
0100
0001
1000
0100
0010
0000
,
0110
0000
0100
0010
0001
0000
1000
0000
0001
0100
1000
0100
0001
0010
0100
0000
,
1010
0000
0010
1000
0000
0000
0010
0100
0000
0000
0010
1000
0000
0000
0001
0010
,
0100
1000
0010
0100
0001
0000
0100
0001
0000
0000
0100
0010
0000
0000
0100
0001
,
1000
0000
0100
1000
0000
0000
0001
1000
0000
0000
0100
1000
0000
0000
0001
0100
,
0010
0100
0001
1000
0100
0000
0010
0001
0000
0000
1000
0001
0000
0000
0010
0001
,
0100
0000
0010
0100
0000
0000
0001
0100
0000
0000
0010
0100
0000
0000
0010
0100
,
0001
0010
0100
1000
0001
0000
1000
0001
0000
0000
0010
0001
0000
0000
1000
0001
,
0010
0000
0100
1000
0000
0000
0001
0100
0000
0000
0001
1000
0000
0000
0100
1000
,
0010
0100
0001
0010
0100
0000
1000
0001
1000
0000
0001
0100
0001
0000
1000
0010
,
0100
0000
0001
0010
0001
0000
0010
0100
1000
0000
0001
0010
0001
0000
0010
0100
,
1000
0001
0100
0010
0100
0000
0010
1000
0010
0000
0100
0010
0100
0000
0001
1000
,
0100
0000
0010
0001
0010
0000
0001
0010
0100
0000
1000
0010
1000
0000
0001
0100
,
0010
1000
0100
0010
0100
0000
1000
0010
1000
0000
0010
0100
0010
0000
0100
0001
,
0010
0000
0100
0010
0100
0000
1000
0010
0100
0000
0001
0100
0001
0000
1000
0100
,
0010
0001
0010
0100
1000
0000
0001
0100
0001
0000
1000
0001
1000
0000
0010
0100
,
0001
0000
0010
0100
1000
0000
1100
0000
1001
0000
0001
0010
0100
0000
1100
0000
,
0011
0000
0110
0000
0000
0000
1010
0000
0100
0001
0010
0100
1000
0010
0001
0010
,
1000
0000
0100
0010
0001
0000
0101
0000
,
0110
0000
0010
1000
0100
0001
0100
1000
,
0001
0000
0010
0100
1000
0000
1100
0000
,
1001
0000
0010
0001
1000
0100
0010
0001
,
1000
0000
0001
0010
1000
0010
0001
0100
,
0010
1010
0110
1001
,
0001
0100
1000
0100
0001
0010
0100
0000
,
1000
0100
1000
0000
0001
0010
0001
0000
,
1000
0010
0001
0010
1000
0100
0010
0100
,
1000
0000
1010
0000
0100
0001
0010
0100
,
0010
0000
0001
0100
0010
0000
0110
0000
,
0100
0001
0010
1000
0010
0001
0100
0000
,
0110
0000
0010
1000
0100
0010
0100
0000
,
1000
0010
0001
0010
1000
0000
0100
0010
,
0001
1000
0010
0000
1010
0000
1001
0000
,
0010
0100
0000
0100
0001
0010
0000
0010
,
0100
1000
0001
0100
0010
0001
0000
0010
,
0100
0000
1001
0000
1000
0010
0100
0000
,
0010
1000
0100
0010
0100
1000
0010
0000
,
0100
0001
0010
0000
0011
0000
0100
1000
,
0001
0000
0010
0100
0001
0100
0010
0001
,
1000
0000
1001
0000
0001
0010
0100
0000
,
1000
0100
0001
0100
1000
0100
0010
0000
,
0011
0000
0001
1000
0100
0010
0001
1000
,
0010
0000
0110
0000
0101
0000
0001
0010
,
1000
0010
0001
1000
0100
0000
1100
0000
,
1001
0000
0100
0010
1000
0000
0001
0100
,
1000
0100
0010
0000
1000
0001
0010
0100
,
0010
0001
1000
0010
0000
0010
0100
0001
,
0010
1000
0010
0001
0000
0001
1000
0100
,
0001
0100
1000
0001
0010
1000
0001
0010
,
0100
0001
1000
0100
0010
1000
0010
0001
,
1000
0000
0100
0000
0010
0000
0011
0000
0000
0000
0000
0000
1001
0000
0000
0000
1000
0000
0010
0000
0100
0000
0000
0000
0101
0000
1001
0000
0000
0000
1000
0100
,
1000
0000
0100
0010
0001
0000
0011
0000
0000
0000
0110
0000
0000
0000
1010
0000
2002
0000
0000
0000
0000
0000
0000
0000
0000
0000
0000
0000
0000
0000
0000
0000
,
0000
0000
0000
3003
0000
0000
0000
0000
;

//---------------dance-single - ----------------
#NOTES:
     dance-single:
     :
     Beginner:
     7:
     0.253,0.357,0.243,0.000,0.000:
0001
0000
0100
0000
,
0110
0010
0000
0000
,
1001
1000
0100
0000
,
1001
0001
1000
0001
,
0010
0100
1000
0010
,
0110
0000
0100
0000
,
1001
0000
0001
0000
,
1001
0000
1000
0000
,
0110
0000
0010
0100
,
0010
0000
1000
0010
,
0100
0000
0010
0000
,
1001
0000
0001
0000
,
1000
0100
1000
0000
,
0001
1000
0100
1000
,
0001
0000
0010
0000
,
0100
0010
0001
1000
,
0010
0000
0010
0000
,
0100
0010
0100
0001
,
1000
0000
1000
0000
,
0100
1000
0010
0100
,
0001
0000
0001
0000
,
1001
0000
0000
0000
,
0110
0000
0000
0000
,
1001
0000
0000
0000
,
0110
0000
0000
0000
,
1001
0000
0000
0000
,
0110
0000
0000
0000
,
1001
0000
0000
0000
,
0110
0000
0000
0000
,
1001
0000
0001
0000
,
1001
0000
0000
0000
,
1001
0000
1000
0000
,
1001
0000
0000
0000
,
0110
0000
0010
0000
,
0110
0000
0000
0000
,
0110
0000
0100
0000
,
0010
0000
1000
0000
,
0001
0000
1000
0000
,
0001
0000
0010
0000
,
0001
0000
0100
0000
,
0010
0000
0100
0000
,
0001
0000
0001
0000
,
1000
0000
1000
0000
,
0100
0000
0010
0000
,
0001
0000
1000
0000
,
0010
0000
0010
0000
,
0100
0000
0100
0000
,
0001
0000
0001
0000
,
1000
0000
1000
0000
,
0100
0000
0010
0000
,
0001
0000
1000
0000
,
0010
0000
0100
0000
,
0001
0000
1000
0000
,
0100
0000
0100
0000
,
1000
0000
0010
0000
,
0100
0000
0100
0000
,
0001
0000
0010
0000
,
0100
0000
0100
0000
,
0010
0000
0010
0000
,
0001
0000
0100
0000
,
0010
0000
1000
0000
,
0100
0000
1000
0000
,
0100
0000
0010
0000
,
0001
0000
0100
0000
,
0001
0000
1000
0000
,
0100
0000
0010
0000
,
0001
0000
1000
0000
,
0100
1000
0100
1000
,
0100
1000
0100
1000
,
0100
0000
0010
0000
,
0001
0000
1001
0000
;
