#TITLE:AREA 51;
#SUBTITLE:;
#ARTIST:96;
#TITLETRANSLIT:;
#SUBTITLETRANSLIT:;
#ARTISTTRANSLIT:;
#CREDIT:DigiMindAxel;
#BANNER:AREA 51.png;
#BACKGROUND:AREA 51-bg.png;
#LYRICSPATH:;
#CDTITLE:jubeat.png;
#MUSIC:AREA 51.ogg;
#METERTYPE:DDR X;
#OFFSET:-4.844;
#SAMPLESTART:23.767;
#SAMPLELENGTH:12.000;
#SELECTABLE:YES;
#BPMS:0.000=188.000;
#STOPS:;
#BGCHANGES:;

//---------------dance-single - ----------------
#NOTES:
     dance-single:
     :
     Easy:
     6:
     0.339,0.325,0.065,0.084,0.000:
0000
0000
0000
0000
0000
0000
0000
1001
,
0000
0000
0000
0000
0000
0000
0000
1001
,
0000
0000
0000
0000
0000
0000
0000
2001
,
0000
0000
0000
0000
0000
0000
0000
3002
,
0000
0000
0000
0000
0000
0000
0000
1003
,
0000
0000
0000
0000
0100
0000
0000
1000
,
0000
0000
0000
0000
0001
0000
0000
0100
,
0000
0000
0000
0000
0001
0000
0000
1000
,
0000
0000
0000
0000
0100
0000
0000
0010
,
0000
0000
0000
0000
0100
0000
0000
0010
,
0000
0000
0000
0000
0001
0000
0000
0010
,
0000
0000
0000
0000
0001
0000
0000
1000
,
0000
0000
0000
0000
0100
0000
0000
1000
,
0000
0001
1000
0001
,
2000
0000
0000
0000
3002
0000
0000
0103
,
0000
0010
0100
0001
,
0010
0000
0100
0000
0000
0000
0000
0010
,
0000
0001
0010
0001
,
1000
0000
0010
0000
0100
0000
0000
0010
,
0000
0100
0010
1000
,
0100
0000
0010
0000
0000
0000
0000
0001
,
0000
0100
0001
1000
,
0100
0000
0010
0000
0001
0000
0000
0100
,
0000
0010
0100
0010
,
1000
0000
0100
0000
0010
0000
0000
0100
,
0000
1000
0100
1000
,
0010
0000
0100
0000
0001
0000
0000
1000
,
0000
0001
1000
0100
,
1000
0000
0100
0000
0010
0000
0000
0001
,
0000
0100
0001
0100
,
0010
1000
0100
0010
,
0001
0001
1000
1000
,
0010
0000
0100
0001
,
1000
0100
1000
0100
,
0010
0000
0001
0000
0100
0000
0000
0010
,
0000
0100
0010
1000
,
0100
0010
0001
1000
,
0001
0010
0001
0010
,
0001
0000
0100
0000
0010
0000
0000
1000
,
0000
0001
1000
0100
,
1000
0001
0010
0100
,
1000
0100
1000
0010
,
0100
0000
0001
0000
0010
0000
0000
0001
,
0000
1000
0001
0010
,
0100
0000
1000
0000
0001
0000
0000
0100
,
0000
0001
0100
0001
,
1000
1000
0001
0001
,
0000
0010
0000
0000
0100
0000
0000
2000
,
0000
0000
0000
0000
0000
0000
0000
3001
,
0000
0010
0100
1000
,
0001
1000
0001
0010
,
0001
1000
0100
0010
,
0001
0000
1000
0000
0100
0000
0000
1000
,
0000
0001
1000
0010
,
0100
0010
0100
0001
,
0010
0100
0010
0100
,
1000
0000
0100
0000
0010
0000
0000
0001
,
0000
0100
0010
0100
,
0001
0010
0100
0010
,
0001
1000
0010
1000
,
0001
0000
0100
0000
0001
0000
0000
1000
,
0000
0100
1000
0100
,
0010
0001
1000
0001
,
1000
0010
0100
0010
,
1000
0000
0100
0000
0010
0000
0000
0001
,
0000
0010
0100
1000
,
0001
0100
0001
1000
,
0100
0010
0001
0010
,
0100
1000
0001
1000
,
0010
0100
0010
0100
,
0001
0010
0001
1000
,
0100
1000
0001
0100
,
0010
0000
0100
0000
0001
0000
0000
1001
,
0000
0000
0000
0000
0000
0000
0000
1001
,
0000
0000
0000
0000
0000
0000
0000
2002
,
0000
0000
0000
0000
,
0000
0000
0000
0000
0000
3003
0000
2002
,
0000
0000
0000
3003
0000
0000
0000
0000
;

//---------------dance-single - ----------------
#NOTES:
     dance-single:
     :
     Medium:
     11:
     0.607,0.542,0.542,0.262,0.028: // measure 1
0000
0000
0000
0000
0000
0000
0000
1001
,  // measure 2
0000
1001
0000
0000
0000
0000
0000
1001
,  // measure 3
0000
1001
0000
0000
0000
0000
0000
2001
,  // measure 4
0000
0001
0000
0001
0000
0001
0000
3020
,  // measure 5
0000
0100
0000
0100
0000
0130
0000
1001
,  // measure 6
0000
1001
0000
0001
0010
0001
0010
0001
,  // measure 7
0000
1001
0000
1000
0100
1000
0100
1000
,  // measure 8
0000
1001
0000
0001
0100
0001
0100
0001
,  // measure 9
0000
1001
0000
1000
0010
1000
0010
1000
,  // measure 10
0000
1001
0000
0001
0100
0010
0100
0010
,  // measure 11
0000
0110
0000
0010
1000
0100
1000
0100
,  // measure 12
0000
1100
0000
0010
0001
1000
0001
1000
,  // measure 13
0000
1001
0000
0001
0100
0010
0100
0010
,  // measure 14
0000
0110
0101
1010
,  // measure 15
1001
0000
0110
0000
1001
0000
0000
1001
,  // measure 16
0000
1000
0010
0000
0100
0000
0010
1000
,  // measure 17
0000
0001
0010
0001
0010
0100
0000
1001
,  // measure 18
0000
0000
0001
1000
0001
0000
1000
0100
,  // measure 19
1000
0000
0001
0000
0100
0010
0000
1001
,  // measure 20
0000
0001
0010
0000
0001
0000
0100
0010
,  // measure 21
0000
1000
0100
1000
0100
0010
0000
0001
,  // measure 22
0000
0000
0000
1000
0000
0000
0100
0000
0000
2000
0000
0000
0000
0000
0000
0000
0000
0000
3001
0000
0000
0000
0100
0000
,  // measure 23
0001
0000
0000
0000
0100
0000
0010
0000
0000
0000
0100
0000
0001
0000
0000
0000
0000
0000
0000
0000
0000
1001
0000
0000
,  // measure 24
0000
1000
0100
0000
1000
0000
0010
0100
,  // measure 25
0000
0001
0100
0000
0010
0000
0000
1001
,  // measure 26
0000
0000
1000
0001
1000
0000
0001
0010
,  // measure 27
0001
0000
0100
0000
0010
1000
0000
1001
,  // measure 28
0000
0001
0010
0000
0001
0000
1000
0010
,  // measure 29
0000
1000
0001
0000
0100
0000
0000
1001
,  // measure 30
0000
0000
0000
0001
0000
0000
0010
0000
0000
0001
0000
0000
0020
0000
0000
0000
0000
0000
0031
0000
0000
0000
0100
0000
,  // measure 31
0010
0000
0000
0000
0100
0000
0001
0000
0000
0000
0100
0000
0010
0000
0000
0000
0000
0000
0000
0000
0000
1001
0000
0000
,  // measure 32
0000
0000
0011
0000
0100
0000
1000
0020
,  // measure 33
0000
0000
0000
0000
0130
0001
1000
0200
,  // measure 34
0000
0000
1300
0000
0010
0001
0000
1000
,  // measure 35
0000
0010
0100
0010
1000
0010
0000
1002
,  // measure 36
0000
0000
0000
0000
0103
0001
1000
0200
,  // measure 37
0000
0000
1300
0000
0010
0001
0010
0200
,  // measure 38
0000
0000
0310
0000
0001
1000
0001
1000
,  // measure 39
0010
0000
1010
0000
1001
0000
0000
1002
,  // measure 40
0000
0000
0013
0000
0100
1000
0100
0020
,  // measure 41
0000
0000
0130
0000
1000
0010
1000
0002
,  // measure 42
0000
0000
0013
0000
0100
1000
0000
0001
,  // measure 43
0000
1000
0100
0010
0100
1000
0000
1002
,  // measure 44
0000
0000
0103
0000
0010
1000
0010
0200
,  // measure 45
0000
0000
0301
0000
1000
0100
0000
2001
,  // measure 46
0000
0010
0010
0010
,  // measure 47
3010
0000
0100
0001
0010
0001
0000
1001
,  // measure 48
0000
0100
0010
0000
0100
0010
0000
2002
,  // measure 49
0000
0000
0000
0000
0000
3003
0000
1001
,  // measure 50
0000
1000
0010
1000
0010
0100
0000
0001
,  // measure 51
0000
0001
0000
0100
0010
0100
0000
2001
,  // measure 52
0000
0000
3001
0100
0001
0100
0001
1000
,  // measure 53
0000
0100
0010
0200
0000
0000
0300
1001
,  // measure 54
0000
0000
1000
0001
1000
0000
0100
1000
,  // measure 55
0100
0000
0010
0001
0010
0000
0001
2000
,  // measure 56
0000
0000
3010
0100
0010
1000
0000
0001
,  // measure 57
0000
0001
0100
0020
0000
0000
0030
1001
,  // measure 58
0000
0000
1000
0100
1000
0000
0001
0010
,  // measure 59
0001
0000
0100
0010
1000
0001
0000
2001
,  // measure 60
0000
0000
3010
0000
0100
0001
0000
1000
,  // measure 61
0000
1000
0100
1000
0010
0100
0000
1002
,  // measure 62
0000
0000
0013
0001
0010
0000
0100
0010
,  // measure 63
0100
0000
1000
0010
0100
0001
0000
2001
,  // measure 64
0000
0000
3010
1000
0010
0000
0100
0010
,  // measure 65
0100
0000
0001
0010
0100
1000
0001
1000
,  // measure 66
0000
1001
0000
0001
0100
0001
0100
0010
,  // measure 67
0000
1001
0000
1000
0100
1000
0100
0010
,  // measure 68
0000
1001
0000
0001
0010
0001
0010
0100
,  // measure 69
0000
1001
0000
1000
0010
1000
0010
0100
,  // measure 70
0000
1001
0000
0001
1000
0001
1000
0100
,  // measure 71
0000
1001
0000
1000
0001
1000
0001
0010
,  // measure 72
0000
1001
0000
0001
0100
0001
0100
0010
,  // measure 73
0000
1001
0000
1000
0010
1000
0010
0110
,  // measure 74
0000
0110
0000
0000
0000
0000
0000
0110
,  // measure 75
0000
0110
0000
0000
0000
0000
0000
2002
,  // measure 76
0000
0000
0000
0000
,  // measure 77
0000
0000
0000
0000
0000
3003
0000
0202
,  // measure 78
0000
0000
0000
0303
0000
0000
0000
0000
;

//---------------dance-single - ----------------
#NOTES:
     dance-single:
     :
     Hard:
     14:
     0.818,0.723,0.486,0.486,0.234:
0000
0000
0000
0000
0000
0000
0000
1100
,
0000
1100
0000
0010
0001
0100
0010
0110
,
0000
0110
0000
0010
1000
0100
0010
0011
,
0000
0001
1000
0001
1000
0100
0010
0100
,
0010
0001
0100
0010
0100
0001
0100
0110
,
0000
0000
0100
0010
0100
0000
0010
0000
1000
0000
0100
0000
0010
0000
0001
0000
,
0000
0000
0100
0001
0100
0000
0001
0000
0010
0000
0100
0000
1000
0000
0010
0000
,
0000
0000
0100
0010
0100
0000
0001
0000
1000
0000
0010
0000
0100
0000
0010
0000
,
0000
0000
1000
0010
1000
0000
0001
0000
0010
0000
0100
0000
0010
0000
1001
0000
,
0000
0000
1000
0010
1000
0000
0100
0000
0001
0000
0100
0000
1000
0000
0010
0000
,
0000
0000
1000
0001
1000
0000
0010
0000
0001
0000
0010
0000
1000
0000
0001
0000
,
0000
0000
0010
0100
0010
0000
0001
0000
0010
0000
1000
0000
0010
0000
0001
0000
,
0000
0000
0100
0010
0100
0000
0001
0000
0100
0000
1000
0000
0100
0000
0002
0000
,
0000
1003
0100
1000
0001
1000
0100
1000
,
0001
0000
0100
0000
0001
0000
1000
0000
0100
0000
1000
0000
0001
0000
0010
0000
0100
0000
1000
0000
0000
1200
0000
0000
,
0000
1000
1300
0000
1002
0000
0100
0103
,
0000
0010
1000
0100
0010
0001
0000
0201
,
0000
0000
0310
0000
1000
0100
1000
0000
0001
1000
0001
0000
0010
0000
0100
0000
,
1000
0001
1000
0010
0001
0010
0000
2001
,
0000
0010
3010
0000
1002
0000
0010
0013
,
0000
0100
1000
0001
0010
0100
0000
1002
,
0000
0000
0000
0103
0000
0000
0010
0000
0000
2000
0000
0000
0000
0000
0000
0000
0000
0000
3001
0000
0100
0000
0001
0000
,
1000
0000
0100
0000
0001
0000
0100
0000
1000
0000
0010
0000
0200
0000
0000
0000
0000
0000
0300
0000
0000
0201
0000
0000
,
0000
0010
0310
0000
1002
0000
0100
0103
,
0000
0001
0010
1000
0010
0001
0000
2001
,
0000
0000
3001
0000
1000
0100
1000
0000
0001
1000
0001
0000
0100
0000
0010
0000
,
1000
0100
1000
0010
0001
0010
0000
2001
,
0000
0010
3010
0000
0210
0000
0001
0301
,
0000
1000
0010
0001
0010
1000
0000
1020
,
0000
0000
0000
0130
0000
0000
0001
0000
0000
0010
0000
0000
0200
0000
0000
0000
0000
0000
1300
0000
0001
0000
0010
0000
,
0100
0000
1000
0000
0001
0000
0010
0000
0001
0000
0100
0000
0020
0000
0000
0000
0000
0000
0030
0000
0000
1001
0000
0000
,
0000
0000
1000
0000
0010
0000
1000
0000
0001
0010
0100
0000
1000
0000
0020
0000
,
0000
0000
0100
0000
0130
0001
0010
1200
,
0000
0000
1300
0001
1000
0100
0001
0200
,
0000
1300
0001
0010
0100
0010
0000
1001
,
0000
0000
0001
0000
0100
0000
0001
0000
1000
0100
0010
0000
0100
0000
2000
0000
,
0000
0000
0001
0000
3001
0010
0100
1002
,
0000
0000
0000
0000
1003
0000
0100
0000
1000
0000
0001
0000
0100
0010
1000
0000
,
0100
0001
0100
1000
0001
0100
0000
1001
,
0000
0000
1000
0000
0100
0000
1000
0000
0001
0100
0010
0000
1000
0000
0020
0000
,
0000
0000
0130
0001
1000
0100
0010
1002
,
0000
0000
0103
0010
1000
1100
0000
1002
,
0000
1003
0010
0001
0010
1010
0000
1002
,
0000
0000
0000
0000
1003
0000
0100
0000
1000
0010
0100
0000
0001
0000
2000
0000
,
0000
0000
3010
0100
0001
0010
0100
1002
,
0000
0100
0100
0103
,
0001
0010
0100
0000
1000
1001
0000
0110
,
0000
1000
1100
0000
0010
0011
0000
0220
,
0000
0000
0000
0000
0000
0330
0000
1002
,
0000
0000
1003
0000
0010
0100
0010
0000
1000
0000
0001
0010
0100
0000
2000
0000
,
0000
0000
3001
0000
1000
0100
0010
0000
0001
0000
0100
0000
0000
0000
1002
0000
,
0000
0013
0100
0100
1000
1000
0010
2000
,
0000
3100
0010
0002
0000
0000
0003
2001
,
0000
3001
1000
1000
0100
0100
0010
0010
,
0001
0001
1000
1000
0100
0010
0001
0102
,
0000
1003
0100
0001
0100
1000
0000
1010
,
0000
0010
0100
0002
0000
0000
0003
2001
,
0000
3001
0100
0100
0010
0010
1000
1000
,
0010
0010
0100
0100
0001
0010
0100
1020
,
0000
0000
0130
0001
0010
0100
0000
1100
,
0000
1001
0001
0010
0100
0010
0000
0102
,
0000
1003
0001
0001
0100
0100
0010
0010
,
1000
1000
0100
0100
0010
0001
0100
0120
,
0000
0000
1030
1000
0001
0001
0100
0100
,
0010
1000
0010
0000
1000
0001
1000
0000
0001
0010
0001
0000
1000
0000
1001
0000
,
0000
0000
0001
0010
0001
0000
0100
0000
0010
0000
0001
0000
0010
0000
0200
0000
,
0000
0000
0301
1000
0001
0000
0010
0000
0100
0000
0001
0000
0100
0000
0020
0000
,
0000
0000
0031
0100
0001
0000
0010
0000
1000
0000
0010
0000
0001
0000
0200
0000
,
0000
0000
0310
0100
0010
0000
1000
0000
0010
0000
0001
0000
0010
0000
2000
0000
,
0000
0000
3100
0010
0100
0000
1000
0000
0010
0000
0001
0000
0010
0000
2000
0000
,
0000
0000
3001
0010
0001
0000
1000
0000
0010
0000
0001
0000
0010
0000
2000
0000
,
0000
0000
3100
0010
0100
0000
1000
0000
0010
0000
0100
0000
0001
0000
0020
0000
,
0000
0000
0031
1000
0001
0000
1000
0000
0100
0000
0010
0000
0001
0000
1001
0000
,
0000
1001
0000
1000
0100
0010
0001
0101
,
0000
0101
0000
0001
1000
0010
0100
0220
,
0000
0000
0000
0000
,
0000
0000
0000
0000
0000
0000
0000
0000
0000
0000
0330
0000
0001
1000
0002
0000
,
0000
0000
0000
0003
0000
0000
0000
0000
;

//---------------dance-single - ----------------
#NOTES:
     dance-single:
     :
     Beginner:
     3:
     0.159,0.180,0.019,0.000,0.000:
0000
0000
0000
0000
0000
0000
0000
1000
,
0000
0000
0000
0000
0000
0000
0000
1000
,
0000
0000
0000
0000
0000
0000
0000
1000
,
0000
0000
0000
0000
,
0000
0000
0000
0000
,
0001
0000
0000
0000
,
1000
0000
0000
0000
,
0010
0000
0000
0000
,
0100
0000
0000
0000
,
0010
0000
0000
0000
,
1000
0000
0000
0000
,
0001
0000
0000
0000
,
0010
0000
0000
0000
,
0001
0000
0001
0000
,
0001
0000
0000
0000
,
1000
0000
0100
0000
,
1000
0000
0000
0000
,
0001
0000
0010
0000
,
0001
0000
0000
0000
,
0100
0000
0010
0000
,
0100
0000
0000
0000
,
0010
0000
0100
0000
,
0010
0000
0000
0000
,
1000
0000
0001
0000
,
1000
0000
0000
0000
,
0001
0000
1000
0000
,
0001
0000
0000
0000
,
0010
0000
0001
0000
,
0010
0000
0000
0000
,
0100
0000
0010
0000
,
0100
0000
0000
0000
,
1000
0000
1000
0000
,
1000
0000
1000
0000
,
0001
0000
0001
0000
,
0001
0000
0001
0000
,
1000
0000
1000
0000
,
1000
0000
1000
0000
,
0001
0000
0001
0000
,
0001
0000
0000
0000
,
0010
0000
0010
0000
,
0010
0000
0010
0000
,
0100
0000
0100
0000
,
0100
0000
0100
0000
,
1000
0000
1000
0000
,
1000
0000
1000
0000
,
0001
0000
0001
0000
,
0001
0000
0001
0000
,
1001
0000
0000
0000
,
0000
0000
0000
0000
,
1000
0000
0010
0000
,
1000
0000
0010
0000
,
0100
0000
0001
0000
,
0100
0000
0001
0000
,
1000
0000
0001
0000
,
1000
0000
0001
0000
,
0010
0000
0100
0000
,
0010
0000
0100
0000
,
1000
0000
1000
0000
,
1000
0000
1000
0000
,
0001
0000
0001
0000
,
0001
0000
0001
0000
,
0100
0000
0100
0000
,
0100
0000
0100
0000
,
0010
0000
0010
0000
,
0010
0000
0000
0000
,
1000
0000
0001
0000
,
1000
0000
0000
0000
,
0100
0000
1000
0000
,
0100
0000
0000
0000
,
0010
0000
0100
0000
,
0010
0000
0000
0000
,
0001
0000
0010
0000
,
0001
0000
0000
0000
0000
0000
0000
1000
,
0000
0000
0000
0000
0000
0000
0000
1000
,
0000
0000
0000
0000
0000
0000
0000
1001
,
0000
0000
0000
0000
,
0000
0000
0000
0000
0000
0000
0000
0001
;
