#TITLE:新たなる誓い;
#SUBTITLE:(アコースティックVer);
#ARTIST:田村直美;
#TITLETRANSLIT:ARATANARU CHIKAI;
#SUBTITLETRANSLIT:(ACOUSTIC Ver);
#ARTISTTRANSLIT:NAOMI TAMURA;
#CREDIT:DigiMindAxel;
#BANNER:ARATANARU CHIKAI (ACOUSTIC Ver).png;
#BACKGROUND:ARATANARU CHIKAI (ACOUSTIC Ver)-bg.png;
#LYRICSPATH:ARATANARU CHIKAI (ACOUSTIC Ver).lrc;
#CDTITLE:DigiMindAxel original simfile.png;
#MUSIC:ARATANARU CHIKAI (ACOUSTIC Ver).ogg;
#METERTYPE:DDR X;
#OFFSET:-0.846;
#SAMPLESTART:58.710;
#SAMPLELENGTH:12.000;
#SELECTABLE:YES;
#BPMS:0.000=85.000;
#STOPS:;
#BGCHANGES:0.000=ARATANARU CHIKAI (ACOUSTIC Ver).avi=1.000=1=1=0,
99999=-nosongbg-=1.000=0=0=0 // don't automatically add -songbackground-
;

//---------------dance-single - ----------------
#NOTES:
     dance-single:
     :
     Beginner:
     2:
     0.104,0.109,0.091,0.000,0.000: // measure 1
0000
0000
0000
0000
,  // measure 2
0000
0000
0000
0000
,  // measure 3
0001
0000
1000
0000
,  // measure 4
0001
0000
1000
0000
,  // measure 5
1001
0000
0000
0000
,  // measure 6
1000
0000
0100
0000
,  // measure 7
1000
0000
0001
0000
,  // measure 8
0010
0000
0001
0000
,  // measure 9
1000
0010
1000
0000
,  // measure 10
1001
0000
0010
0000
,  // measure 11
0010
0000
0100
0000
,  // measure 12
0100
0000
0001
0000
,  // measure 13
0001
0000
1000
0000
,  // measure 14
1001
0000
0010
0000
,  // measure 15
0100
0000
0010
0000
,  // measure 16
1000
0000
0001
0000
,  // measure 17
1000
0000
0001
0000
,  // measure 18
1001
0000
0000
0000
,  // measure 19
1001
0000
0000
0000
,  // measure 20
0001
1000
0001
0000
,  // measure 21
0000
0000
0010
0001
,  // measure 22
0000
1000
0010
1000
,  // measure 23
0000
0001
1000
0001
,  // measure 24
0000
0100
0010
0100
,  // measure 25
0000
0001
1000
0001
,  // measure 26
0000
0010
0001
0010
,  // measure 27
0000
0100
1000
0100
,  // measure 28
0000
0010
0100
0010
,  // measure 29
0000
0001
1001
0000
,  // measure 30
0000
0000
0110
0000
,  // measure 31
0000
0000
0000
0000
1001
0000
0000
1001
;

//---------------dance-single - ----------------
#NOTES:
     dance-single:
     :
     Medium:
     7:
     0.258,0.265,0.202,0.101,0.010: // measure 1
0000
0000
0000
0000
,  // measure 2
0000
0000
0000
0000
1001
0000
0010
0100
,  // measure 3
0001
0000
1001
0000
0100
1000
0010
0100
,  // measure 4
0100
0010
0100
0000
0001
0010
0001
0000
,  // measure 5
1001
0000
0100
0000
0010
1000
0100
0000
,  // measure 6
1000
0000
0010
0000
0001
0000
0010
1000
,  // measure 7
0100
0010
0010
0000
0001
0010
0010
0200
,  // measure 8
0000
0000
0310
0001
2000
0000
0001
0000
,  // measure 9
3001
0000
1000
0000
0100
0100
1001
0000
,  // measure 10
0001
0100
1000
0100
,  // measure 11
0001
0010
0100
1001
,  // measure 12
1000
0010
0001
0010
,  // measure 13
1000
0100
0010
1001
,  // measure 14
0100
0000
0010
0000
1000
0100
1000
0000
,  // measure 15
0010
0000
0100
0000
0001
0010
0001
0100
,  // measure 16
0020
0000
0000
1030
0200
0000
2300
0000
,  // measure 17
3002
0000
0000
0003
1000
0000
0010
0000
,  // measure 18
0001
0010
1000
0000
0001
0000
0100
0000
,  // measure 19
1000
0100
0001
0000
0010
0000
0100
0000
,  // measure 20
1000
0001
1001
0010
,  // measure 21
0010
1000
0100
0010
0002
0000
0000
1003
,  // measure 22
0010
0100
0100
0000
0101
0000
1100
0000
,  // measure 23
0010
0100
0001
0010
0010
0001
1000
0000
,  // measure 24
0100
0000
0100
0000
1000
0000
0010
0100
0000
0000
0000
0000
0010
0000
0100
0000
,  // measure 25
0001
0000
0100
0010
0000
0000
0000
0000
1100
0000
0000
0000
0101
0000
0000
0000
,  // measure 26
1000
0100
1000
0010
0010
0100
0001
0010
,  // measure 27
0010
0001
1000
0000
0110
0000
1001
0010
,  // measure 28
0100
0001
0010
0010
0000
0001
0010
0100
,  // measure 29
2000
0000
0000
0000
3001
0000
0000
0011
,  // measure 30
0000
0000
1010
0000
1100
0000
0000
0101
,  // measure 31
0000
0000
0110
0000
1001
0000
0000
0220
,  // measure 32
0000
0000
0000
0000
,  // measure 33
0000
0000
0000
0330
;

//---------------dance-single - ----------------
#NOTES:
     dance-single:
     :
     Hard:
     8:
     0.343,0.331,0.162,0.081,0.227: // measure 1
0000
0000
0000
0000
,  // measure 2
0000
0000
0000
0000
0000
0000
0000
0000
1001
0000
0000
0000
1000
0100
0010
0001
,  // measure 3
0100
0001
0100
0000
0001
0100
1000
0100
,  // measure 4
0010
1000
0001
0000
0100
0010
0100
0001
,  // measure 5
0020
0000
0000
0000
0031
0000
0000
0010
0001
0000
0100
0000
0010
0000
0100
0000
,  // measure 6
0100
0000
0001
0000
0010
0000
0010
0000
0001
0000
1000
0100
0000
0000
0010
0100
,  // measure 7
0010
0100
0000
1000
0000
0000
0100
0010
0100
0010
0000
0001
0000
0000
0100
0010
,  // measure 8
0000
0000
0000
0000
1000
0001
1000
0000
1100
0000
0000
0011
0000
0000
0000
0000
,  // measure 9
1001
0000
0010
0000
0100
0000
1000
0000
0010
0100
0010
0100
0001
0000
0000
0000
,  // measure 10
0010
0010
0100
1000
0010
0100
0001
0010
,  // measure 11
0010
0100
1000
0010
0100
1000
0100
0000
,  // measure 12
0010
0000
0010
0000
1000
0000
0001
0000
0010
0000
0100
0000
1000
0000
0001
0100
,  // measure 13
0001
0000
1000
0010
1000
0010
0100
0000
0002
0000
0000
0000
1003
0000
0000
0000
,  // measure 14
0001
0000
0100
0000
0001
0100
0010
0100
,  // measure 15
0001
0000
0010
0001
0100
0001
0010
0001
,  // measure 16
1000
0000
0100
1000
0010
0000
0110
0000
,  // measure 17
1001
0000
0000
0000
0001
1000
0100
1000
,  // measure 18
0001
0000
0100
0000
0001
1000
0100
1000
,  // measure 19
0001
0000
0010
0000
0100
1000
0010
0100
,  // measure 20
0001
0000
0000
0000
0010
0000
0010
0000
1001
0000
0000
0000
1000
0000
0100
1000
,  // measure 21
0100
1000
0100
0000
0010
0000
0001
0000
2000
0000
0000
0000
3010
0000
0100
0001
,  // measure 22
0100
0001
0000
1000
0000
0000
0100
0000
0010
0000
0010
0000
0001
0000
0001
0000
,  // measure 23
1000
0000
0010
0100
0000
0000
0001
0010
0001
0010
0000
0100
0000
0000
1000
0010
,  // measure 24
1000
0010
0000
0100
0000
0000
0001
1000
0000
0000
0000
0000
0010
0100
0010
0000
,  // measure 25
1000
0000
0010
0200
0000
0000
0300
0000
2001
0000
0000
0000
3001
0000
1000
0010
,  // measure 26
1000
0010
0000
0100
0000
0000
0001
0000
0010
0000
0010
0000
0100
0000
0100
0000
,  // measure 27
1000
0000
0010
0100
0000
0000
0001
0010
0001
0010
0000
0100
0000
0000
1000
0100
,  // measure 28
1000
0100
0000
0010
0000
0000
0001
1000
0000
0000
0010
0100
0010
0000
0100
0000
,  // measure 29
0002
0000
1003
0000
0011
0000
0000
0110
,  // measure 30
0000
0000
1100
0000
1010
0000
0000
0110
,  // measure 31
0000
0000
0101
0000
1001
0100
0100
2002
,  // measure 32
0000
0000
0000
0000
,  // measure 33
0000
0000
0000
3003
;

//---------------dance-single - ----------------
#NOTES:
     dance-single:
     :
     Easy:
     5:
     0.208,0.232,0.222,0.081,0.000: // measure 1
0000
0000
0000
0000
,  // measure 2
0000
0000
0000
0000
,  // measure 3
1001
0001
0010
0100
,  // measure 4
1000
0100
0010
0001
,  // measure 5
2000
0000
3001
0001
,  // measure 6
0010
0001
0100
1000
,  // measure 7
0010
1001
0100
1001
,  // measure 8
0010
0100
0002
0000
,  // measure 9
1003
0000
0100
0000
0010
0001
1001
0000
,  // measure 10
1000
0100
0001
0100
,  // measure 11
1000
0010
0001
1001
,  // measure 12
0001
0100
1000
0100
,  // measure 13
0001
0010
0100
1001
,  // measure 14
0010
0100
0010
0100
,  // measure 15
0001
0100
1000
0100
,  // measure 16
0001
1000
1001
0010
,  // measure 17
1001
0000
0200
0000
,  // measure 18
0310
1000
0002
0000
,  // measure 19
1003
0010
0200
0000
,  // measure 20
0310
0000
1000
0001
2000
0000
0000
0000
,  // measure 21
0000
0000
3001
0010
,  // measure 22
0001
0100
0001
0000
0100
0000
0010
0000
,  // measure 23
1000
0100
1000
0000
0010
0000
1001
0000
,  // measure 24
0100
0000
1001
0000
0010
0000
0001
0010
,  // measure 25
0100
1000
0010
0000
0100
0000
1001
0000
,  // measure 26
0010
0000
1001
0000
1000
0100
0010
0001
,  // measure 27
0100
0010
0100
1001
,  // measure 28
0010
0000
1001
0000
0100
0001
0010
0100
,  // measure 29
1000
0000
0000
0000
1001
0000
0000
1001
,  // measure 30
0000
0000
1001
0000
0110
0000
0000
0110
,  // measure 31
0000
0000
0110
0000
1001
0000
0000
2002
,  // measure 32
0000
0000
0000
0000
,  // measure 33
0000
0000
0000
3003
;

//---------------dance-single - ----------------
#NOTES:
     dance-single:
     :
     Challenge:
     12:
     0.502,0.463,0.313,0.182,0.556: // measure 1
0000
0000
0000
0000
,  // measure 2
0000
0000
0000
0000
0000
0000
0000
0000
1000
0001
0000
0001
1000
0100
0010
0001
,  // measure 3
1000
0000
0010
0000
0110
0000
0000
0000
0100
0001
0100
0001
1000
0100
1000
0100
,  // measure 4
0010
0000
0001
0100
0000
0010
1000
0000
0001
0100
0000
0010
0000
0100
0001
0000
,  // measure 5
2001
0000
0000
0000
3010
0000
0100
0001
0010
0100
1000
0010
0000
0000
1000
0000
,  // measure 6
1100
0000
0010
0000
0011
0000
0100
0000
1100
0000
0010
0100
0000
0000
0001
0010
,  // measure 7
0100
1000
0000
1100
0000
0000
1000
0100
0010
0001
0000
0011
0000
0000
0100
0010
,  // measure 8
0000
0000
0000
0000
1000
0010
0100
0000
1002
0000
0000
0020
0000
0000
0033
0000
,  // measure 9
2001
0000
0001
0000
0100
0000
3100
0000
0010
0001
0100
0010
1001
0000
0000
0000
,  // measure 10
1000
0100
1000
0100
0010
0001
1000
0000
0010
0000
0010
0000
0110
0000
0100
0001
,  // measure 11
0100
0001
1000
0100
0000
0010
0001
1000
0001
1000
0100
0010
0001
0000
0000
0000
,  // measure 12
0010
0001
0010
0001
1000
0000
0010
0100
0010
0000
0010
0000
0110
0000
0100
0001
,  // measure 13
0100
0001
0010
1000
0010
0001
0010
0100
2000
0000
0000
0000
3010
0000
0000
0000
,  // measure 14
1000
0000
0001
0010
0001
0000
1000
0000
0010
0000
0100
0010
0100
0000
0001
0000
,  // measure 15
0010
0000
0100
0010
0100
0000
1000
0000
0001
0000
0100
0001
0100
0000
0010
0000
,  // measure 16
1000
0000
0001
0010
0001
0000
0010
0000
0100
0000
1000
0001
1000
0000
0010
0000
,  // measure 17
0100
0000
0001
0100
0001
0000
1000
0000
0100
0000
0010
0100
0010
0000
0001
0000
,  // measure 18
0100
0000
0010
0100
0010
0100
0010
0000
1000
0000
0100
1000
0100
1000
0100
0000
,  // measure 19
0010
0000
0001
0100
0001
0100
0001
0000
1000
0000
0100
1000
0100
1000
0100
0000
,  // measure 20
0010
0000
0001
1000
0001
1000
0001
0000
0201
0000
0000
0000
0310
0000
1000
0100
,  // measure 21
0010
0001
1000
0010
0100
0010
1000
0000
1002
0000
0000
0000
0013
0000
0100
1000
,  // measure 22
0010
0100
0000
0101
0000
0000
0001
1000
0100
0000
1000
0100
1000
0000
0001
0010
,  // measure 23
0001
1000
0010
0100
0000
0000
0001
0100
0010
1000
0000
1010
0000
0000
1000
0010
,  // measure 24
0100
0001
0000
0101
0000
0000
0100
0010
0000
0000
0000
0000
1000
0100
0001
0100
,  // measure 25
1000
0001
0010
0100
1000
0001
0100
0000
1002
0000
0000
0000
0013
0000
0100
1000
,  // measure 26
0010
0100
0000
0101
0000
0000
0010
1000
0100
0000
0010
0100
0010
0000
0001
0100
,  // measure 27
0010
1000
0100
0010
0001
0000
0010
0001
0100
0010
0000
1010
0000
0000
0010
1000
,  // measure 28
0001
0010
0000
0011
0000
0000
0100
0010
0000
0000
1000
0100
0001
0100
1000
0001
,  // measure 29
0010
0100
0010
0100
1000
0100
0010
0001
0202
0000
0003
0000
0310
0000
2020
0000
,  // measure 30
3000
0130
1001
0000
2200
3000
0310
0022
,  // measure 31
0003
0130
1001
0000
0110
1001
1001
0220
,  // measure 32
0000
0000
0000
0000
,  // measure 33
0000
0000
0000
0330
;
