#TITLE:ALTONA;
#SUBTITLE:;
#ARTIST:SOUND HOLIC Vs. SWING HOLIC;
#TITLETRANSLIT:;
#SUBTITLETRANSLIT:;
#ARTISTTRANSLIT:;
#CREDIT:DigiMindAxel;
#BANNER:ALTONA.png;
#BACKGROUND:ALTONA-bg.png;
#LYRICSPATH:;
#CDTITLE:SOUND VOLTEX.png;
#MUSIC:ALTONA.ogg;
#METERTYPE:DDR X;
#OFFSET:-7.476;
#SAMPLESTART:52.227;
#SAMPLELENGTH:12.000;
#SELECTABLE:YES;
#BPMS:0.000=158.000;
#STOPS:;
#BGCHANGES:;

//---------------dance-single - ----------------
#NOTES:
     dance-single:
     :
     Easy:
     5:
     0.262,0.306,0.159,0.344,0.000:
2000
0000
0000
0000
,
0200
0000
0000
3300
,
0020
0000
0000
0000
,
0002
0000
0000
0033
,
0001
1000
0001
0000
,
0100
0010
0100
0000
,
0001
1000
0001
0000
,
2002
0000
0000
3003
,
1000
0100
1000
0000
,
0010
0100
0010
0000
,
0100
0001
0100
0000
,
2002
0000
0000
3003
,
1000
1000
1000
0000
,
0020
0000
0130
0000
,
0001
0001
0001
0000
,
0020
0000
0130
0000
,
1000
0010
1000
0000
,
0010
0100
0010
0000
,
0100
0001
0100
0000
,
0001
0010
0100
1000
,
2002
0000
3003
0000
,
0220
0000
0330
0000
,
2002
0000
3003
0000
,
0220
0000
0330
0000
,
2002
0000
3003
0000
,
2002
0000
3003
0000
,
0220
0000
0330
0000
,
0110
0000
2001
0000
,
3200
0000
0320
0000
,
0032
0000
1003
0100
,
1000
0000
0001
0100
,
0001
0000
1000
0001
,
1000
0100
0010
0000
,
0000
0000
0001
0100
,
0001
0000
1000
0001
,
1000
0000
0100
1000
,
0100
0000
2002
0000
,
3003
0000
0001
0100
,
0001
0000
0100
0010
,
0100
0000
0010
1000
,
0010
0000
2002
0000
,
3003
0000
1000
0100
,
1000
0000
0001
1000
,
0001
0000
0010
0001
,
0010
0000
2002
0000
,
3003
0000
0001
0000
,
0000
0000
0100
0000
,
0000
0000
0010
0000
,
1000
0000
0100
0000
,
0010
0000
0001
1000
,
0001
0000
0100
0010
,
0100
0010
1000
0000
,
0100
0000
0010
0001
,
0010
0001
1000
0000
,
0000
0000
1000
0000
,
0000
0000
0001
0000
,
0000
0000
0001
0000
,
0000
0000
0100
0000
,
0010
0000
0100
0000
,
0010
0000
1000
0000
,
0001
0000
1001
0000
,
0000
0000
1000
0100
,
1000
0000
0100
0010
,
0100
0000
0010
0001
,
0010
0001
0100
0010
,
0100
0000
0010
1000
,
0010
0000
0100
0010
,
0100
0000
0001
0100
,
0001
1000
0100
0000
,
0000
0000
2002
0000
,
0000
3003
0220
0000
,
0000
0330
2002
0000
,
0000
3003
0120
0000
,
0000
0130
0000
0000
0000
0000
0000
0000
;

//---------------dance-single - ----------------
#NOTES:
     dance-single:
     :
     Medium:
     10:
     0.465,0.490,0.310,0.243,0.126:
0001
1000
0000
0000
0000
0000
0000
0000
,
0100
0010
0001
0100
,
0010
1000
0000
0000
0000
0000
0000
0000
,
0000
1001
0000
1001
0000
0001
1000
0100
,
0010
0000
0011
0000
0100
1000
0001
0000
,
0010
0000
0011
0000
0100
1000
0001
0000
,
1001
0000
0110
0000
1000
0100
0010
0000
,
0101
0000
0000
0001
0000
0000
0001
0000
0000
1000
0000
0000
0000
0000
0000
0000
,
1000
0100
0010
0000
0101
0000
0110
0000
,
0010
1000
0100
0000
0011
0000
1001
0000
,
0001
0010
0100
0000
1100
0000
0011
0000
,
1001
0000
0000
1000
0000
0000
1000
0000
0000
0100
0000
0000
0000
0000
0000
0000
,
0020
0000
0001
0000
0031
1000
0010
0000
,
0200
0000
0000
0000
0310
1000
0010
0000
,
0200
0000
0010
0000
0310
0000
1000
0100
,
0020
0000
0000
0000
0031
1000
0100
0000
,
0010
0100
0010
0000
0001
0100
0010
0000
,
2000
0000
0001
0000
3001
0000
1000
0010
,
1000
0000
1001
0000
0001
0010
0001
0000
,
2001
3200
0320
0032
,
0103
0000
0000
0100
0000
0000
0100
0000
0000
0000
0000
0000
0000
0000
0000
0000
,
0001
0000
0000
0001
0000
0000
0001
0000
0000
0000
0000
0000
0000
0000
0000
0000
,
1000
0000
0000
1000
0000
0000
1000
0000
0000
0000
0000
0000
0000
0000
0000
0000
,
0100
0000
0000
0100
0000
0000
0100
0000
0020
0000
0000
0000
0032
0000
0000
0000
,
1003
0000
0000
1000
0000
0000
1000
0000
0000
0000
0010
0000
0100
0000
0000
0000
,
0001
0000
0000
0001
0000
0000
0001
0000
0000
0000
0010
0000
0100
0000
0000
0000
,
1000
0000
0000
1000
0000
0000
1000
0000
0000
0000
0001
0000
0100
0000
0000
0000
,
0010
0000
0000
0010
0000
0000
0010
0000
0200
0000
0000
0000
0302
0000
0000
0000
,
2003
3020
0032
0023
,
2030
0000
3000
0000
1001
0000
0001
0100
,
0010
1000
0100
0000
0010
0000
0100
1000
,
0010
0100
0001
0000
0010
0000
0100
0010
,
0001
1000
0100
0000
0011
0000
0000
0011
,
0000
0000
0000
0000
1001
0000
1000
0100
,
0010
0001
1000
0000
0010
0000
0100
0001
,
0010
0100
1000
0000
0100
0000
0010
0100
,
1000
0001
0100
0000
1010
0000
0000
1010
,
0000
0000
0000
0000
1001
0000
1000
0100
,
0010
0100
1000
0000
0010
0000
0100
0001
,
0010
0001
0100
0000
0010
0000
1000
0100
,
0010
0001
0100
0000
0110
0000
0000
0110
,
0000
0000
0000
0000
1001
0000
0001
1000
,
0010
0100
0001
0000
0010
0000
0100
0010
,
0001
1000
0010
0000
0100
0000
0001
0010
,
0100
1000
0010
0000
0110
0000
0000
0220
,
0000
0330
1001
0000
,
0000
0000
0001
0000
0000
0010
0000
0000
0100
0000
0000
0000
0000
0000
0000
0000
,
0000
0000
1000
0000
0000
0010
0000
0000
0100
0000
0000
0001
0000
0000
0100
0000
,
0000
0001
0000
0000
1000
0000
0000
0000
0100
0000
0000
0010
0000
0000
0001
0000
,
0000
0000
0021
0001
,
0001
0000
0031
0000
1000
0010
0100
0010
,
1000
0001
0010
0000
0200
0000
1000
0000
,
1000
0000
0000
0000
1300
0000
0000
0000
0001
0000
0000
0010
0000
0000
0100
0000
,
0000
1000
0000
0000
0100
0000
0000
0000
0011
0000
0000
0000
0000
0000
0000
0000
,
0000
0000
0010
0000
0000
0001
0000
0000
0100
0000
0000
0000
0000
0000
0000
0000
,
0000
0000
0010
0000
0000
1000
0000
0000
0100
0000
0000
0000
0000
0000
0000
0000
,
0000
0000
1000
0000
0000
1000
0000
0000
0100
0000
0000
0010
0000
0000
0001
0000
,
0000
0000
2000
0010
,
3010
0000
0100
0000
0000
0001
0000
0000
0020
0000
0000
0000
0100
0000
0000
0000
,
0130
0000
1000
0000
0000
0001
0000
0000
0200
0000
0000
0000
0010
0000
0000
0000
,
0310
0000
1000
0000
0000
0100
0000
0000
0010
0000
0000
0010
0000
0000
0010
0000
,
0000
0000
0002
0100
,
0100
0000
0103
0010
1000
0010
1000
0000
,
0001
0010
0100
1000
0001
0000
0100
0000
,
0010
1000
0100
0000
1001
0000
0000
1001
,
0000
0001
0200
0010
,
0010
0000
0310
0000
1000
0100
0010
0000
,
0100
1000
0100
0000
1001
0000
0001
0000
,
0100
0010
1000
0000
1010
0000
0000
2020
,
0000
0000
3030
0000
0010
0100
0000
0000
,
0000
0000
0001
1000
,
0100
0000
0010
0000
0001
0100
0000
0000
,
0000
0000
0000
0000
0000
0000
0000
0000
0000
1001
0000
0000
0001
0000
0000
1000
,
0000
0010
0100
0000
0000
0000
0000
0000
0000
0000
0000
0000
0000
0000
0000
0000
;

//---------------dance-single - ----------------
#NOTES:
     dance-single:
     :
     Hard:
     14:
     0.697,0.644,0.637,0.335,0.511: // measure 1
0010
0100
0010
0000
0010
0000
0010
0000
,  // measure 2
1000
0001
1000
0000
0010
0000
0000
0000
0010
0000
0000
0000
0010
0000
0000
0000
,  // measure 3
0100
0010
0100
0000
0100
0000
0100
0000
,  // measure 4
0000
0000
1001
0000
0000
0000
1001
0000
0000
0001
0100
0000
0010
0000
1000
0000
,  // measure 5
0100
0000
0010
0000
0000
0001
0000
0000
0001
0000
0000
0100
0000
0000
0010
0000
,  // measure 6
1000
0000
0100
0000
0000
0100
0000
0000
1000
0000
0000
0001
0000
0000
0010
0000
,  // measure 7
1100
0000
0100
0000
0000
1000
0000
0000
0010
0000
0000
0100
0000
0000
0001
0000
,  // measure 8
0011
0000
0000
1100
0000
0000
1001
0000
0000
1000
0001
0000
0010
0000
0100
0000
,  // measure 9
1000
0000
0010
0000
0000
0010
0000
0000
0100
0000
0000
0001
0000
0000
0010
0000
,  // measure 10
0100
0000
1000
0000
0000
1000
0000
0000
0010
0000
0000
0100
0000
0000
0001
0000
,  // measure 11
0010
0000
0100
0000
0000
0100
0000
0000
0010
0000
0000
0001
0000
0000
0100
0000
,  // measure 12
1010
0000
0000
1010
0000
0000
0110
0000
0000
0110
0000
0000
0000
0000
0001
1000
,  // measure 13
0001
0000
0010
0000
0100
0000
1000
0010
0000
1000
0010
0000
0100
0000
0001
1000
,  // measure 14
0000
0000
0010
0000
0100
0000
0010
0000
1000
0000
0100
0000
0010
0000
0001
0100
,  // measure 15
0001
0000
1000
0000
0100
0000
1000
0001
0000
1000
0001
0000
0100
0000
0010
0100
,  // measure 16
0000
0001
1000
0100
0010
0100
1000
0000
,  // measure 17
1001
0000
0001
0000
0100
0000
0001
1000
0000
0001
1000
0000
0001
0000
0100
0010
,  // measure 18
0000
0000
1000
0000
0001
0000
0010
0000
0100
0000
0010
0000
0001
0000
0100
0010
,  // measure 19
0100
0000
0010
0000
1000
0000
0001
0100
0000
0001
0100
0000
0010
0000
0000
0000
,  // measure 20
1000
0001
1000
0000
0100
1000
0100
0000
0010
0001
0000
0010
0001
0000
1000
0000
,  // measure 21
1001
0000
0000
0110
0000
0000
2002
0000
0000
0000
0000
0000
3003
0000
0000
0000
,  // measure 22
1100
0000
0000
0011
0000
0000
2002
0000
0000
0000
0000
0000
3003
0000
0000
0000
,  // measure 23
0101
0000
0000
1010
0000
0000
2002
0000
0000
0000
0000
0000
3003
0000
0000
0000
,  // measure 24
0110
0000
0000
0000
0000
0000
0000
0000
0000
1001
0000
0000
0000
0000
0000
0000
0000
0000
0110
0000
0000
0000
0000
0000
1000
0000
0000
0000
0100
0000
0000
0000
0010
0000
0000
0000
0001
0000
0000
0000
1000
0000
0000
0000
0010
0000
0000
0000
,  // measure 25
0100
0000
0000
0101
0000
0000
2020
0000
0000
0000
0000
0000
3030
0000
0000
0000
,  // measure 26
1010
0000
0000
0110
0000
0000
2002
0000
0000
0000
0000
0000
3003
0000
0000
0000
,  // measure 27
0110
0000
0000
0011
0000
0000
2200
0000
0000
0000
0000
0000
3300
0000
0000
0000
,  // measure 28
0110
0000
0000
0000
0000
0000
0000
0000
0000
1001
0000
0000
0000
0000
0000
0000
0000
0000
0110
0000
0000
0000
0000
0000
0001
0000
0000
0000
0010
0000
0000
0000
0100
0000
0000
0000
1000
0000
0000
0000
0001
0000
0000
0000
0100
0000
0000
0000
,  // measure 29
0001
1000
0100
0010
0001
1000
0020
0000
0000
0230
0000
0000
,  // measure 30
0320
0000
0000
0000
0030
0000
0000
0000
1001
0000
1000
0000
0010
0100
0010
0100
,  // measure 31
0010
0000
1000
0000
0100
0000
0010
0000
0001
0000
1000
0000
0010
0100
0010
0100
,  // measure 32
0010
0000
1000
0000
0100
0000
0010
0000
0001
0000
1000
0000
0010
0000
0100
0001
,  // measure 33
0000
0100
0001
0000
0000
1000
0000
0000
1100
0000
0000
0110
0000
0000
0022
0000
,  // measure 34
0000
0000
0000
0000
0033
0000
0000
0000
1001
0000
1000
0000
0010
0100
0010
0100
,  // measure 35
0010
0000
0100
0000
0001
0000
0010
0000
0100
0000
1000
0000
0010
0100
0010
0100
,  // measure 36
0010
0000
1000
0000
0100
0000
0001
0000
0100
0000
1000
0000
0001
0000
0100
0001
,  // measure 37
0000
0100
0001
0000
0000
1000
0000
0000
1100
0000
0000
0110
0000
0000
0022
0000
,  // measure 38
0000
0000
0000
0000
0033
0000
0000
0000
1001
0000
1000
0000
0001
0100
0010
0100
,  // measure 39
0001
0000
1000
0000
0100
0000
0010
0000
0100
0000
1000
0000
0001
0100
0010
0100
,  // measure 40
0001
0000
1000
0000
0100
0000
0001
0000
0100
0000
1000
0000
0001
0000
0010
0001
,  // measure 41
0000
0010
0001
0000
0000
0100
0000
0000
1010
0000
0000
0110
0000
0000
0202
0000
,  // measure 42
0000
0000
0000
0000
0303
0000
0000
0000
1001
0000
0001
0000
0010
0100
1000
0100
,  // measure 43
0010
0000
0001
0000
0100
0000
0010
0000
1000
0000
0100
0000
0010
0100
1000
0100
,  // measure 44
0010
0000
0001
0000
0100
0000
1000
0000
0100
0000
0001
0000
0010
0000
0100
1000
,  // measure 45
0000
0100
1000
0000
0000
0010
0000
0000
1001
0000
0000
0110
0000
0000
2002
0000
,  // measure 46
0000
3003
0200
0000
,  // measure 47
0000
0000
0010
0000
0000
0310
0000
0000
2000
0000
0000
0000
0000
0000
0000
0000
,  // measure 48
0000
0000
0001
0000
0000
3001
0000
0000
1000
0000
0000
1100
0000
0000
0100
0000
,  // measure 49
0000
0110
0000
0000
0010
0000
0001
0000
1000
0000
0000
1010
0000
0000
0202
0000
,  // measure 50
0000
0303
1002
0100
,  // measure 51
1000
0000
0103
0010
1000
0010
0001
0010
,  // measure 52
1000
0001
0100
0010
2000
0000
0010
0000
,  // measure 53
0100
0000
0000
0000
3010
0000
0000
0000
0101
0000
0000
0001
0000
0000
1001
0000
,  // measure 54
0000
1000
0000
0000
1100
0000
0000
0000
1001
0000
0000
0000
0000
0000
0000
0000
,  // measure 55
0000
0001
0200
0000
0000
0010
0000
0000
0310
0000
0000
0000
0000
0000
0000
0000
,  // measure 56
0000
1000
0200
0000
0000
1000
0000
0000
1300
0000
0000
0000
0000
0000
0000
0000
,  // measure 57
0000
0010
0002
0000
0000
0010
0000
0000
0013
0000
0000
0110
0000
0000
1100
0000
,  // measure 58
0000
0000
0000
0000
0000
0000
0010
0100
0010
0000
1000
0000
0100
0000
1000
0000
,  // measure 59
0010
0000
0200
0000
0000
0001
0000
0000
0301
0000
1000
0000
0100
0000
1000
0000
,  // measure 60
0001
0000
0020
0000
0000
0100
0000
0000
0130
0000
1000
0000
0001
0000
0100
0000
,  // measure 61
0001
0000
1000
0000
0000
1100
0000
0000
1001
0000
0000
0110
0000
0000
2002
0000
,  // measure 62
0000
0000
0000
0000
3003
0000
0000
0000
1100
0000
0000
0100
0010
0000
0000
0010
,  // measure 63
0001
0000
0000
0001
1000
0000
0010
0000
0100
0000
0010
0000
1000
0000
0010
0000
,  // measure 64
0100
0001
0100
1000
0100
0001
1000
0000
,  // measure 65
0100
0000
0010
0000
0001
0000
1000
0000
1010
0000
0000
0101
0000
0000
2002
0000
,  // measure 66
0000
0000
0000
0000
3003
0000
0001
1000
0001
0000
0000
0001
0010
0000
0000
0010
,  // measure 67
0100
0000
0000
0100
1000
0000
0000
1000
0010
0000
0100
0000
0001
0000
1000
0000
,  // measure 68
0100
0010
0100
1000
1010
0000
0100
0001
,  // measure 69
0010
0000
0100
0000
0010
0000
0001
0000
1001
0000
0000
1100
0000
0000
0022
0000
,  // measure 70
0000
0000
0033
0000
0001
1000
0100
0000
,  // measure 71
0100
0000
0000
0000
0100
0000
0000
0000
1000
0001
1000
0000
0100
0000
0000
0000
,  // measure 72
0100
0000
0000
0000
0100
0000
1000
0001
1000
0000
0010
0000
0100
0000
0000
0000
,  // measure 73
0100
0000
0000
0000
0100
0000
0000
0000
0000
1001
0000
0000
0110
0000
0000
1001
,  // measure 74
0000
0100
0010
0000
0000
0000
0000
0000
0000
0000
0000
0000
0000
0000
0000
0000
;

//---------------dance-single - ----------------
#NOTES:
     dance-single:
     :
     Challenge:
     17:
     0.940,0.827,0.478,0.117,1.000:
1010
0000
0010
0000
1000
0001
0000
1000
0000
0001
1000
0000
0010
0100
0010
0000
,
0100
0001
0100
0000
0001
1000
0000
0001
0000
1000
0001
0000
0010
0001
0010
0000
,
1100
0000
0100
0000
1000
0001
0000
1000
0000
0001
1000
0000
0100
0010
0100
0000
,
1000
0000
0010
0100
0000
0000
0010
0100
0000
0010
0100
0001
0010
0100
1000
0001
,
1000
0000
0010
0000
0100
0001
0000
1000
0100
0000
0010
0001
0000
1000
0010
0000
,
0100
0000
0001
0000
0010
0100
0000
1000
0010
0000
0100
0001
0000
0010
0100
0000
,
1001
0000
1000
0000
0010
0100
0000
0001
0010
0000
0100
1000
0000
0010
0100
0000
,
1001
0000
0000
0110
0000
0000
1001
0000
0000
1000
0001
0010
0100
1000
0001
0100
,
0001
0000
1000
0000
0010
0100
0000
0100
0001
0000
0100
0010
0000
0010
1000
0000
,
0010
0000
0100
0000
0001
1000
0000
1000
0100
0000
0010
0001
0000
0001
0100
0000
,
0010
0000
1000
0000
0100
0010
0000
0010
0001
0000
0100
0010
0000
0010
1000
0000
,
1001
0000
0000
0110
0000
0000
1001
0000
0000
2002
0000
0000
3003
0000
0010
0100
,
0010
0000
1000
0000
0100
0000
0010
0100
0000
0010
0100
0000
1000
0000
0010
0200
,
0000
0000
0001
0000
0001
0000
0001
0000
0001
0000
0301
0000
1000
0000
0010
0100
,
0010
0000
0100
0000
0001
0000
0010
0100
0000
0010
0100
0000
1000
0000
0010
0200
,
0000
0000
0001
0000
0001
0000
0301
0000
1000
0100
0010
0001
0000
1000
0010
0100
,
0010
0000
0100
0000
0001
0000
1000
0100
0000
1000
0100
0000
0010
0000
0001
0200
,
0000
0000
0001
0000
0001
0000
0001
0000
0001
0000
0301
0000
1000
0000
0010
0100
,
0001
0000
1000
0000
0001
0000
0010
0100
0000
0010
0100
0000
1000
0000
0010
0100
,
0000
0010
0100
0010
1000
0100
0010
0001
1000
0001
0100
0001
1000
0100
0010
0001
,
1000
0000
0000
1001
0000
0000
1001
0000
0000
0001
1000
0001
0100
0000
0010
1000
,
0001
0000
0000
1001
0000
0000
1001
0000
0000
1000
0001
1000
0010
1000
0001
0000
,
1001
0000
0000
1001
0000
0000
1001
0000
0000
0001
1000
0001
0010
0000
0100
1000
,
0001
0000
0000
0000
0000
0000
0000
0000
0000
1001
0000
0000
0000
0000
0000
0000
0000
0000
1001
0000
0000
0000
0000
0000
0001
0000
0000
0000
0100
0000
0000
0000
1000
0000
0000
0000
0001
0000
0000
0000
0010
0000
0000
0000
1000
0000
0000
0000
,
1001
0000
0000
0011
0000
0000
1100
0000
0000
1000
0010
0100
0010
1000
0010
0000
,
0101
0000
0000
0110
0000
0000
1010
0000
0000
1000
0001
0010
0001
1000
0001
0000
,
1100
0000
0000
0110
0000
0000
0011
0000
0000
0001
1000
0010
1000
0001
0010
0000
,
1001
0000
0000
0000
0000
0000
0000
0000
0000
0110
0000
0000
0000
0000
0000
0000
0000
0000
1001
0000
0000
0000
0000
0000
1000
0000
0000
0000
0100
0000
0000
0000
0001
0000
0000
0000
1000
0000
0000
0000
0010
0000
0000
0000
0001
0000
0000
0000
,
1000
0010
0100
1000
0100
0010
1000
0001
0010
0100
1000
0001
,
0020
0000
0000
0000
0030
0000
0000
0000
0001
0100
0001
0000
1000
0100
0010
0100
,
1000
0000
0001
0100
0000
0001
0100
0000
0010
0000
1000
0000
0001
0010
0100
0010
,
0001
0000
0010
0100
0000
0010
0100
0000
1000
0000
0001
0000
0100
0001
0100
0001
,
0000
1000
0100
0000
0010
0001
0000
0100
0010
0000
1000
0001
0000
0000
2001
0000
,
0000
0000
3010
0100
0000
0010
0000
0000
1000
0010
1000
0000
0010
0100
0001
0100
,
0010
0000
1000
0100
0000
1000
0100
0000
0010
0000
0100
0000
1000
0001
0100
0001
,
1000
0000
0100
0010
0000
0100
0010
0000
1001
0000
1000
0000
0010
0000
0100
0001
,
0000
0001
0010
0000
0100
1000
0000
0001
0100
0000
0001
1000
0000
0100
1000
0000
,
0001
0010
0100
1000
0001
0100
0010
0000
0100
0001
0100
0000
0010
1000
0100
1000
,
0010
0000
0100
0001
0000
1000
0100
0000
0010
0000
0100
0000
1000
0001
0100
0001
,
1000
0000
0100
0010
0000
0001
0100
0000
1001
0000
1000
0000
0001
0000
0100
0010
,
0000
0010
1000
0000
0001
0100
0000
0001
1000
0000
0100
0010
0000
0000
0201
0000
,
0000
0000
0310
0100
0000
0001
0000
0000
0010
0001
0010
0000
0100
1000
0001
1000
,
0100
0000
0010
0001
0000
1000
0010
0000
0100
0000
0001
0000
1000
0010
0100
0010
,
1000
0000
0100
0010
0000
0001
0100
0000
1001
0000
0001
0000
0100
0000
0010
1000
,
0000
1000
0100
0000
0010
0001
0000
0001
0100
0000
0100
0010
0000
0010
1000
0000
,
0000
0001
0100
0001
1000
0100
1000
0100
0010
0001
0000
0001
0100
0000
0100
0010
,
0000
0010
1000
0000
1000
0001
1000
0001
1000
0010
0000
0010
0100
0000
0100
0001
,
0000
0001
0010
0000
0010
0100
0010
0100
0010
1000
0000
0001
0010
0000
0100
1000
,
0000
0001
0100
0000
0010
1000
0100
0010
0001
1000
0010
1000
0001
0010
0100
1000
,
0020
0000
0230
0000
0301
1000
0100
0010
,
0100
0000
1000
0000
0001
0000
0100
0001
0100
0001
1000
0100
1000
0100
0010
0001
,
0010
0001
1000
0010
1000
0010
0100
0001
1000
0000
0100
0000
0010
0100
0010
0000
,
0001
0000
0100
0000
0010
0100
0010
0000
1000
0100
0000
0100
0010
0000
0010
0001
,
0000
0001
1000
0000
1001
0000
0000
0000
0110
0000
0000
0000
0000
0000
0000
0000
,
0000
0000
0010
0100
0000
1000
0010
0000
0100
0000
0000
0000
0000
0000
0000
0000
,
0000
0000
0001
1000
0000
0100
0010
0000
0001
0000
0000
0000
0000
0000
0000
0000
,
0000
0000
0100
0001
0000
0100
0001
0000
1001
0000
0000
1100
0000
0000
0011
0000
,
0000
0000
0000
0000
0000
0000
0001
1000
0001
0000
0100
0000
0010
1000
0010
1000
,
0010
0000
1000
0001
0000
0001
0010
0000
0100
0000
1000
0000
0001
0100
0001
0100
,
0001
0000
1000
0100
0000
0100
0010
0000
0001
0000
0100
0000
0010
0000
1000
0010
,
0000
1000
0010
0000
0000
0110
0000
0000
0011
0000
0000
1100
0000
0000
0220
0000
,
0000
0000
0330
0000
1000
0100
0001
0100
,
1000
0000
0100
0010
0100
0010
0001
0100
0001
0000
1000
0100
0010
0000
0001
0000
,
0100
0010
0100
0010
1000
0100
1000
0100
0010
0000
0001
0100
0010
0000
0100
0000
,
0001
0000
1000
0100
0000
0100
0010
0000
0101
0000
0000
0110
0000
0000
2020
0000
,
0000
0000
0000
0000
3030
0000
0010
0100
0010
0000
1000
0000
0100
0000
0001
0000
,
0100
0000
1000
0010
0100
0010
1000
0000
0001
0000
0100
0000
1000
0000
0100
0000
,
0001
0000
0010
0100
1000
0100
0010
0000
1001
0000
0000
0000
0001
0000
0100
0000
,
0001
0000
1000
0100
0000
0100
0010
0000
0101
0000
0000
0110
0000
0000
1010
0000
,
0000
1000
0010
0100
0010
1000
0010
0100
0010
0000
0110
0000
1000
0001
0000
1000
,
0000
0001
0100
0000
0010
1000
0010
0000
0100
0001
0010
0000
0100
1000
0000
0001
,
0000
1000
0100
0010
0100
1000
0001
0100
0001
0000
0101
0000
0100
0010
0000
1000
,
0000
0010
0100
0000
0001
1000
0001
0000
0000
0011
0000
0000
1001
0000
0000
1100
,
0000
0010
0100
0000
0000
0000
0000
0000
0000
0000
0000
0000
0000
0000
0000
0000
;

//---------------dance-single - ----------------
#NOTES:
     dance-single:
     :
     Beginner:
     3:
     0.117,0.184,0.075,0.000,0.000:
1000
0000
0000
0000
,
0000
0000
0000
0000
,
1000
0000
0000
0000
,
0000
0000
0000
0000
,
0001
0000
0000
0000
,
0100
0000
0000
0000
,
0010
0000
0000
0000
,
0100
0000
0000
0000
,
0001
0000
0000
0000
,
1000
0000
0000
0000
,
0100
0000
0000
0000
,
0010
0000
0000
0000
,
0001
0000
0000
0000
,
0100
0000
0000
0000
,
0010
0000
0000
0000
,
1000
0000
0000
0000
,
0001
0000
0000
0000
,
0010
0000
0000
0000
,
0100
0000
0000
0000
,
1000
0000
0000
0000
,
1001
0000
0000
0000
,
1001
0000
0000
0000
,
1001
0000
0000
0000
,
1001
0000
0000
0000
,
1000
0000
0100
0000
,
1000
0000
0000
0000
,
0001
0000
0010
0000
,
0001
0000
0000
0000
,
1000
0000
0000
0000
,
0010
0000
0100
0000
,
0010
0000
0100
0000
,
0010
0000
0100
0000
,
0010
0000
1000
0000
,
0000
0000
0010
0000
,
0100
0000
0010
0000
,
0100
0000
0010
0000
,
0100
0000
0001
0000
,
0000
0000
1000
0000
,
0001
0000
1000
0000
,
0001
0000
1000
0000
,
0001
0000
0010
0000
,
0000
0000
0001
0000
,
1000
0000
0001
0000
,
1000
0000
0001
0000
,
1000
0000
0100
0000
,
0000
0000
1000
0000
,
0000
0000
0001
0000
,
0000
0000
1000
0000
,
0000
0000
0100
0000
,
0000
0000
0010
0000
,
0000
0000
0010
0000
,
0000
0000
0001
0000
,
0000
0000
0001
0000
,
0000
0000
1001
0000
,
0000
0000
1000
0000
,
0000
0000
1000
0000
,
0000
0000
0000
0000
,
0000
0000
0001
0000
,
0000
0000
0001
0000
,
0000
0000
0001
0000
,
0000
0000
1001
0000
,
0000
0000
1000
0000
,
0100
0000
1000
0000
,
0100
0000
0010
0000
,
0000
0000
0100
0000
,
0000
0000
0010
0000
,
0001
0000
0010
0000
,
0001
0000
0100
0000
,
0000
0000
0010
0000
,
0000
0000
1001
0000
,
0000
0000
0000
0000
,
0000
0000
1001
0000
,
0000
0000
0001
0000
,
0000
1001
0000
0000
0000
0000
0000
0000
;
