#VERSION:0.83;
#TITLE:ALL THE THINGS SHE SAID;
#SUBTITLE:;
#ARTIST:t.A.T.u.;
#TITLETRANSLIT:;
#SUBTITLETRANSLIT:;
#ARTISTTRANSLIT:;
#GENRE:;
#ORIGIN:;
#CREDIT:DigiMindAxel;
#BANNER:ALL THE THINGS SHE SAID.png;
#BACKGROUND:ALL THE THINGS SHE SAID-bg.png;
#PREVIEWVID:;
#JACKET:ALL THE THINGS SHE SAID-jacket.png;
#CDIMAGE:;
#DISCIMAGE:;
#LYRICSPATH:ALL THE THINGS SHE SAID.lrc;
#CDTITLE:DigiMindAxel original simfile.png;
#MUSIC:ALL THE THINGS SHE SAID.ogg;
#OFFSET:1.074000;
#SAMPLESTART:57.560001;
#SAMPLELENGTH:15.200000;
#SELECTABLE:YES;
#BPMS:0.000=90.000;
#STOPS:;
#DELAYS:;
#WARPS:;
#TIMESIGNATURES:0.000=4=4;
#TICKCOUNTS:0.000=4;
#COMBOS:0.000=1;
#SPEEDS:0.000=1.000=0.000=0;
#SCROLLS:0.000=1.000;
#FAKES:;
#LABELS:0.000=Song Start;
#BGCHANGES:0.000=ALL THE THINGS SHE SAID.avi=1.000=1=0=0=StretchNoLoop==CrossFade==,
99999=-nosongbg-=1.000=0=0=0 // don't automatically add -songbackground-
;
#KEYSOUNDS:;
#ATTACKS:
;

//---------------dance-single - ----------------
#NOTEDATA:;
#CHARTNAME:;
#STEPSTYPE:dance-single;
#DESCRIPTION:;
#CHARTSTYLE:;
#DIFFICULTY:Beginner;
#METER:2;
#RADARVALUES:0.108884,0.179658,0.054442,0.000000,0.000000,70.000000,65.000000,5.000000,0.000000,0.000000,0.000000,0.000000,0.000000,0.000000,0.108884,0.179658,0.054442,0.000000,0.000000,70.000000,65.000000,5.000000,0.000000,0.000000,0.000000,0.000000,0.000000,0.000000;
#CREDIT:;
#NOTES:
// measure 0
0000
0000
0000
0000
,  // measure 1
0000
0000
0000
0000
,  // measure 2
0000
0000
0000
0000
,  // measure 3
0000
0000
0000
0000
,  // measure 4
0000
0000
0000
0000
,  // measure 5
1000
0010
0100
0100
,  // measure 6
0010
0100
0010
0000
,  // measure 7
1000
0010
0100
0100
,  // measure 8
0010
0100
0001
0000
,  // measure 9
1000
0000
0000
0000
,  // measure 10
0001
0000
0000
0000
,  // measure 11
0010
0000
0100
0000
,  // measure 12
1000
0010
0010
0110
,  // measure 13
0001
0000
0000
0000
,  // measure 14
1000
0000
0000
0000
,  // measure 15
0001
0000
0000
0000
,  // measure 16
0010
0000
0000
0000
,  // measure 17
0100
0000
0000
0000
,  // measure 18
0010
0000
0000
0000
,  // measure 19
0001
0000
0000
0000
,  // measure 20
0100
0000
0000
0000
,  // measure 21
0010
0010
0010
0110
,  // measure 22
0001
0010
0010
0100
,  // measure 23
0010
0001
0100
0110
,  // measure 24
1000
0010
0100
0010
,  // measure 25
1000
0001
1001
0000
,  // measure 26
0010
0001
0010
0100
,  // measure 27
1000
0000
0001
0001
,  // measure 28
1000
0010
0100
0001
,  // measure 29
0010
0100
1000
1000
,  // measure 30
1001
0000
0000
0000
;

//---------------dance-single - ----------------
#NOTEDATA:;
#CHARTNAME:;
#STEPSTYPE:dance-single;
#DESCRIPTION:;
#CHARTSTYLE:;
#DIFFICULTY:Easy;
#METER:4;
#RADARVALUES:0.200657,0.274387,0.261321,0.054442,0.000000,129.000000,105.000000,24.000000,5.000000,0.000000,0.000000,0.000000,0.000000,0.000000,0.200657,0.274387,0.261321,0.054442,0.000000,129.000000,105.000000,24.000000,5.000000,0.000000,0.000000,0.000000,0.000000,0.000000;
#CREDIT:;
#NOTES:
// measure 0
0000
0000
0000
0000
,  // measure 1
0000
0000
0000
0000
,  // measure 2
0000
0000
0000
0000
,  // measure 3
0000
0000
0000
0000
,  // measure 4
0000
0000
1000
0001
,  // measure 5
1000
0000
0110
0000
1001
0000
0010
0100
,  // measure 6
0010
0100
0100
0110
,  // measure 7
0001
0000
0110
0000
1001
0000
0100
0010
,  // measure 8
0100
0010
0010
0110
,  // measure 9
1000
0001
0010
0200
,  // measure 10
0000
0000
0000
0000
,  // measure 11
1300
0001
1000
0010
,  // measure 12
0100
0010
0110
0110
,  // measure 13
1001
0000
1000
0010
,  // measure 14
0100
0001
0010
0001
,  // measure 15
1000
0100
0010
0001
,  // measure 16
1000
1000
0001
0001
,  // measure 17
1000
0100
0010
0000
,  // measure 18
0001
0010
0100
0000
,  // measure 19
1000
0001
0010
0100
,  // measure 20
1000
0001
0100
0010
,  // measure 21
1000
0110
1001
1001
,  // measure 22
0001
0000
0110
0000
1001
0000
0010
0100
,  // measure 23
0010
0100
0010
0000
0100
0000
0110
0000
,  // measure 24
1000
0000
0110
0000
1001
0000
0010
0100
,  // measure 25
0010
0100
0010
0000
0100
0000
0110
0000
,  // measure 26
0001
0110
1000
0110
,  // measure 27
0001
0010
1001
1001
,  // measure 28
1000
0110
0001
0110
,  // measure 29
1000
0001
1000
0001
,  // measure 30
2000
0000
0000
3020
0000
0000
0230
0000
,  // measure 31
0000
0302
0000
0000
0003
0000
0000
0000
;

//---------------dance-single - ----------------
#NOTEDATA:;
#CHARTNAME:;
#STEPSTYPE:dance-single;
#DESCRIPTION:;
#CHARTSTYLE:;
#DIFFICULTY:Medium;
#METER:7;
#RADARVALUES:0.312652,0.375785,0.163326,0.108884,0.195991,201.000000,186.000000,15.000000,10.000000,0.000000,0.000000,0.000000,0.000000,0.000000,0.312652,0.375785,0.163326,0.108884,0.195991,201.000000,186.000000,15.000000,10.000000,0.000000,0.000000,0.000000,0.000000,0.000000;
#CREDIT:;
#NOTES:
// measure 0
0000
0000
0000
0000
,  // measure 1
0000
0000
0000
0000
,  // measure 2
0000
0000
0000
0000
,  // measure 3
0000
0000
0000
0000
,  // measure 4
0000
0000
0100
0101
,  // measure 5
1001
0010
0100
1000
0001
0010
0100
0100
,  // measure 6
0010
0100
0100
0010
1001
0010
0100
0000
,  // measure 7
1000
0100
0010
0001
1000
0100
0010
0010
,  // measure 8
0100
0010
0010
0100
0001
0010
1100
0000
,  // measure 9
1002
0000
2003
0000
3020
0000
0130
0020
,  // measure 10
0000
0000
0130
0001
,  // measure 11
0010
0000
0100
1000
0001
0000
0010
0000
,  // measure 12
0100
1010
0110
0101
,  // measure 13
1001
0000
0000
0000
0000
0000
0000
0001
0100
0001
0100
0010
0000
0000
0000
1000
,  // measure 14
0010
1000
0010
0100
0000
0000
0000
0000
0001
1000
0001
1000
0000
0000
0000
0000
,  // measure 15
0010
0000
1000
0010
0000
0000
0000
0100
0010
0100
0010
0100
0000
0000
0000
0001
,  // measure 16
1000
0001
1000
0001
0000
0000
0010
0100
0010
0100
1000
0100
0000
0000
1000
0001
,  // measure 17
1000
0000
0100
0000
0010
0000
0000
0000
0001
0100
0001
1000
0000
0000
0001
1000
,  // measure 18
0001
0000
0010
0000
0100
0000
1000
0001
1000
0001
0010
0100
0000
0000
1000
0100
,  // measure 19
1000
0000
0000
0001
0000
0000
1000
0001
1000
0000
0000
0100
0000
0000
0000
0000
,  // measure 20
1000
0001
1000
0001
0000
0000
0000
0100
0010
0100
0010
0100
0000
0000
0000
0000
,  // measure 21
0001
0000
0000
0000
1001
0000
0000
0100
0010
0000
0000
1000
0001
0000
0001
0000
,  // measure 22
1001
0100
0010
0001
1000
0100
0010
0010
,  // measure 23
0100
0010
0010
0100
1000
0010
1001
0000
,  // measure 24
0001
0010
0100
1000
0001
0010
0100
0100
,  // measure 25
0010
0100
0100
0010
0001
0100
1001
0000
,  // measure 26
2010
0000
3002
0000
0203
0000
0310
1000
,  // measure 27
0002
1003
0010
0101
,  // measure 28
0020
0130
0002
1003
,  // measure 29
0001
0000
0010
0000
1000
0010
0001
0000
,  // measure 30
1000
0010
0100
0001
1000
0010
0100
0001
,  // measure 31
1000
0010
0100
0001
0000
0000
0000
0000
;

//---------------dance-single - ----------------
#NOTEDATA:;
#CHARTNAME:;
#STEPSTYPE:dance-single;
#DESCRIPTION:;
#CHARTSTYLE:;
#DIFFICULTY:Hard;
#METER:11;
#RADARVALUES:0.482200,0.580759,0.315763,0.119772,0.587973,310.000000,281.000000,29.000000,11.000000,0.000000,0.000000,0.000000,0.000000,0.000000,0.482200,0.580759,0.315763,0.119772,0.587973,310.000000,281.000000,29.000000,11.000000,0.000000,0.000000,0.000000,0.000000,0.000000;
#CREDIT:;
#NOTES:
// measure 0
0000
0000
0000
0000
,  // measure 1
0000
0000
0000
0000
,  // measure 2
0000
0000
0000
0000
,  // measure 3
0000
0000
0000
0000
,  // measure 4
0000
0000
0000
0000
0000
0000
0000
0010
0001
1000
0000
0001
0100
0000
0110
0000
,  // measure 5
0001
0010
1000
0010
0001
0000
0001
0010
1000
0010
0001
0000
0010
0100
1000
0100
,  // measure 6
0010
0000
0010
0100
1000
0100
0010
0000
0001
0100
1000
0010
0001
0000
0000
0000
,  // measure 7
1000
0100
0001
0100
1000
0000
1000
0100
0001
0100
1000
0000
0010
0100
0001
0100
,  // measure 8
0010
0000
0010
0100
0001
0100
0010
0000
1000
0100
0001
0010
1000
0000
0001
0000
,  // measure 9
0202
0003
0020
0300
2000
0030
0001
3002
,  // measure 10
0000
1003
0001
0002
0000
1003
0001
0001
,  // measure 11
0100
0000
0001
1000
0000
0001
1000
0000
0100
0000
0010
0001
0000
0010
0001
0000
,  // measure 12
1000
0000
0000
0000
1001
0000
0000
0100
1000
0000
0000
0010
0001
0000
1000
0000
,  // measure 13
1002
0000
0000
0000
0013
0000
0000
0100
0010
0001
0010
0100
0000
0000
0000
1000
,  // measure 14
0001
0100
0001
1000
0000
0000
0000
0000
0001
0010
0100
1000
0000
0000
0000
0000
,  // measure 15
0001
0100
0010
1000
0000
0000
0000
0100
0010
0001
1000
0010
0000
0000
1000
0100
,  // measure 16
0010
0100
1000
0001
0000
0000
0100
0001
0010
0001
0100
0010
0000
0000
1000
0100
,  // measure 17
0001
0100
1000
0001
0010
0000
0000
0000
0001
0010
0100
1000
0000
0000
0001
0100
,  // measure 18
1000
0100
0001
0010
0100
0000
1000
0100
0010
0001
1000
0010
0000
0000
0100
0001
,  // measure 19
0010
0200
0000
0310
0000
0000
0001
1000
0010
0200
0000
0310
0000
0000
0000
0000
,  // measure 20
1000
0100
0001
0100
0000
0000
0000
1000
0010
0001
0010
1000
0000
0000
0000
0000
,  // measure 21
0001
0100
1000
0100
0001
0000
0000
0010
0100
1000
0100
0001
0100
1000
1001
0000
,  // measure 22
0001
0010
1000
0010
0011
0000
0001
0010
1000
0010
0011
0000
0100
1000
0010
0100
,  // measure 23
0101
0000
0100
1000
0010
0100
0101
0000
0001
0010
1000
0100
0011
0000
0000
0000
,  // measure 24
1000
0010
0001
0010
1010
0000
1000
0010
0001
0010
1010
0000
0100
0001
0010
0100
,  // measure 25
1100
0000
0100
0001
0010
0100
1100
0000
1000
0010
0001
0100
1100
0000
0000
0000
,  // measure 26
1001
0010
1100
0010
1001
0010
1100
0012
,  // measure 27
0000
0000
1003
0000
0110
0000
0001
0010
1100
0000
0001
0010
1100
0000
0000
0000
,  // measure 28
1001
0100
0011
0100
1001
0100
0011
2100
,  // measure 29
0000
0000
3001
0000
0101
0000
1000
0000
0001
0000
0100
0010
1000
0010
0100
0000
,  // measure 30
0001
0010
1000
0010
0001
0000
0001
0010
1000
0010
0001
0000
1000
0010
0001
0010
,  // measure 31
1000
0000
1000
0010
0001
0010
1000
0000
0000
0000
0000
0000
0000
0000
0000
0000
;
