#TITLE:아침형 인간;
#SUBTITLE:;
#ARTIST:ND Lee;
#TITLETRANSLIT:ACHIMHYEONG INGAN;
#SUBTITLETRANSLIT:;
#ARTISTTRANSLIT:;
#CREDIT:DigiMindAxel;
#BANNER:ACHIMHYEONG INGAN.png;
#BACKGROUND:ACHIMHYEONG INGAN-bg.png;
#LYRICSPATH:;
#CDTITLE:DJMAX.png;
#MUSIC:ACHIMHYEONG INGAN.ogg;
#METERTYPE:DDR X;
#OFFSET:-0.824;
#SAMPLESTART:58.960;
#SAMPLELENGTH:12.000;
#SELECTABLE:YES;
#BPMS:0.000=150.000;
#STOPS:;
#BGCHANGES:-2.000=ACHIMHYEONG INGAN.avi=1.000=1=1=0,
99999=-nosongbg-=1.000=0=0=0 // don't automatically add -songbackground-
;

//---------------dance-single - ----------------
#NOTES:
     dance-single:
     :
     Easy:
     5:
     0.252,0.306,0.060,0.090,0.000: // measure 1
0000
0000
0000
0000
,  // measure 2
0000
0000
0000
0000
,  // measure 3
0000
0000
0000
0000
,  // measure 4
0000
0000
0000
0000
,  // measure 5
1000
0001
0000
0001
,  // measure 6
0000
1000
0000
1000
,  // measure 7
0000
0010
0000
0010
,  // measure 8
0000
1000
0000
1000
,  // measure 9
0000
0001
0000
0001
,  // measure 10
0000
0100
0000
0100
,  // measure 11
0000
0010
0000
0010
,  // measure 12
0000
1000
0100
0010
,  // measure 13
0001
1000
0000
0000
,  // measure 14
0000
1000
0000
0000
,  // measure 15
0000
0001
0000
0000
,  // measure 16
0000
0001
0000
0000
,  // measure 17
0000
1000
0000
0000
,  // measure 18
0000
1000
0000
0000
,  // measure 19
0000
0001
0000
0001
,  // measure 20
1000
0100
0010
0001
,  // measure 21
1000
0100
0000
0100
,  // measure 22
0000
0010
0000
0010
,  // measure 23
0000
0001
0000
0001
,  // measure 24
0000
1000
0000
1000
,  // measure 25
0000
0001
0000
0001
,  // measure 26
0000
0010
0000
0010
,  // measure 27
0000
0100
0000
0100
,  // measure 28
1000
0100
0010
0001
,  // measure 29
1000
0100
1000
0100
,  // measure 30
1000
0100
0000
1000
,  // measure 31
1000
0010
0100
0001
,  // measure 32
2000
0000
0001
0000
,  // measure 33
3001
0010
0001
0010
,  // measure 34
0001
0010
0000
0001
,  // measure 35
0001
0100
0010
1000
,  // measure 36
0001
0001
0001
0001
,  // measure 37
1001
0000
0000
0000
,  // measure 38
0001
0001
1000
0100
,  // measure 39
0000
1000
1000
1000
,  // measure 40
0001
0010
0001
0010
,  // measure 41
0001
0000
0010
0100
,  // measure 42
1000
0001
1000
0001
,  // measure 43
1000
0000
0010
0100
,  // measure 44
0010
0000
1000
0100
,  // measure 45
1000
0001
0010
0100
,  // measure 46
1000
1000
0001
0010
,  // measure 47
0001
0000
0001
0001
,  // measure 48
1000
0100
1000
0100
,  // measure 49
1000
0000
0100
0010
,  // measure 50
0001
1000
0001
1000
,  // measure 51
0001
0010
0100
0010
,  // measure 52
0100
1000
0100
0000
,  // measure 53
1000
1000
1000
1000
,  // measure 54
2002
0000
0000
0000
,  // measure 55
3003
0000
1001
0000
,  // measure 56
0220
0000
0000
0330
,  // measure 57
0001
1000
0001
0010
,  // measure 58
0001
0000
1000
0100
,  // measure 59
0010
0001
1000
0001
,  // measure 60
0010
0000
0001
0010
,  // measure 61
0100
1000
0100
1000
,  // measure 62
0010
1000
0100
0010
,  // measure 63
0001
0000
0100
0000
,  // measure 64
0001
0000
0010
0100
,  // measure 65
1000
0001
1000
0100
,  // measure 66
1000
0000
0100
0010
,  // measure 67
0001
1000
0001
0010
,  // measure 68
0001
0000
0010
0100
,  // measure 69
1000
0000
0010
0000
,  // measure 70
0100
0001
0010
0001
,  // measure 71
0010
0000
0100
0000
,  // measure 72
1000
0100
0010
0001
,  // measure 73
2002
0000
0000
0000
,  // measure 74
3003
0000
1001
0000
,  // measure 75
0220
0000
0000
0330
,  // measure 76
1000
0100
1000
0100
,  // measure 77
1000
0010
0100
0001
,  // measure 78
0001
0010
0001
0010
,  // measure 79
0001
0100
0010
1000
,  // measure 80
0002
0000
0000
0000
,  // measure 81
0000
1003
0000
0010
0000
0100
0000
2002
,  // measure 82
0000
0000
0000
0000
0000
0000
0000
3003
;

//---------------dance-single - ----------------
#NOTES:
     dance-single:
     :
     Hard:
     12:
     0.582,0.550,0.351,0.112,0.090:
0000
0000
0000
0000
,
0000
0000
0000
0000
,
0000
0000
0000
0000
,
0000
0000
0000
0000
,
1000
0010
0100
0001
0000
1000
0100
1000
,
0000
0100
0001
0100
1000
0001
1000
0010
,
1000
0100
0010
0001
0000
1000
0010
1000
,
0000
0010
0001
0010
1000
0100
0010
0100
,
1000
0010
0100
0001
0000
1000
0010
1000
,
0000
0010
0001
0010
1000
0100
0010
0001
,
0100
0010
1000
0100
0000
1000
0100
1000
,
0000
0000
0100
0000
0001
0000
0100
0000
1000
0000
0001
0000
1000
0001
1000
0001
,
1000
0000
0010
0000
0001
0010
1000
0000
,
0100
0000
0010
0000
0001
0010
0100
1000
,
0001
0000
0100
0000
1000
0100
0001
0000
,
0010
0100
1000
0000
0010
0100
0010
0000
,
1001
0000
0001
0000
1000
0100
0010
0100
,
1000
0000
0010
0000
0100
0001
0010
0100
,
0000
0000
1000
0010
0100
0010
1000
0001
,
0000
0000
1000
0000
0001
0000
0010
0000
0100
0000
1000
0000
0001
1000
0001
1000
,
0001
0000
0010
0000
1000
0010
0001
0000
,
0010
0000
0100
0000
1000
0010
0100
0001
,
1000
0000
0010
0000
0001
0010
1000
0000
,
0100
0010
0100
0010
0001
0100
0001
0000
,
1001
0000
1000
0000
0010
0100
0000
0001
,
0000
1000
0000
1000
0000
0100
0010
0001
,
1000
0000
0001
0010
0001
1000
0100
0010
,
0000
0000
0100
0000
0010
0000
0001
0000
0100
0000
0010
0000
1000
0001
1000
0001
,
1000
0100
0010
0001
0000
1000
0100
0010
,
0000
0100
0010
0001
0000
1000
0010
0100
,
0001
0000
1001
0000
0001
0010
0100
1000
,
0020
0000
1000
2030
0000
0000
3001
0000
,
1000
0001
0010
0100
0000
0010
0100
1000
,
0000
0001
0010
0100
0000
0010
0100
1000
,
0010
0000
1010
0000
1000
0100
0010
0001
,
1000
0000
0010
0000
0100
0000
0010
0000
1000
0000
0001
0000
0010
0001
0010
0000
,
1001
0000
0000
0000
,
1001
0000
1001
0000
1000
0010
0100
0001
,
1000
0000
0001
0001
0100
0010
1000
0001
,
1001
0000
1001
0000
1000
0100
0010
0001
,
1000
0000
0001
0001
0010
0100
1000
0001
,
1001
1100
1001
1100
,
1001
0000
1000
1000
0001
0010
0100
1000
,
0001
0100
0000
1002
0000
1000
1000
1000
,
0000
0000
1003
0000
0010
0000
0100
0000
0010
0000
1000
0000
0001
1000
0001
1000
,
0001
0000
1001
0000
1000
0100
0010
0001
,
1000
0000
0001
0001
1000
0100
0010
0001
,
1001
0000
1001
0000
1000
0010
0100
0001
,
1000
0000
0001
0001
0100
0010
1000
0001
,
1001
0000
1000
0100
0010
0100
0000
2010
,
0000
3001
0010
0100
0010
0001
1000
0200
,
0000
1300
0000
0020
0000
0130
0000
0002
,
0000
0000
1003
0000
0100
0000
0010
0000
0100
0000
1000
0000
0001
1000
0001
1000
,
0001
0000
0000
0000
0000
0000
0100
0000
0101
0000
0000
0101
0000
0000
0000
0000
,
1001
0000
1001
0000
,
1000
0000
0000
0100
0000
0000
0001
0000
0000
0100
0000
0000
1000
0000
0000
0000
,
1001
0000
1001
0000
0001
0100
0010
0100
,
0001
0000
1000
1000
0100
0001
0100
1000
,
1001
0000
1001
0000
0001
0010
0100
0010
,
0001
0000
1000
1000
0010
0001
0010
1000
,
1001
0000
0001
0100
0010
1000
0100
0010
,
0000
0101
0000
0001
1000
0100
0010
0001
,
0000
1001
0000
1200
0000
1000
1000
1000
,
0000
0000
1300
0000
0010
0000
0100
0000
0010
0000
1000
0000
0001
1000
0001
1000
,
0001
0000
1001
0000
1000
0100
0001
0100
,
1000
0000
0001
0001
0100
1000
0100
0001
,
1001
0000
1001
0000
0001
0100
1000
0100
,
0001
0000
1000
1000
0100
0001
0100
2000
,
0000
3100
0010
0001
0100
0001
0000
2000
,
0000
3100
0010
0001
0100
0001
1000
0200
,
0000
1300
0000
0020
0000
0130
0000
0002
,
0000
0000
1003
0000
0010
0000
0100
0000
0010
0000
1000
0000
0001
1000
0001
1000
,
0001
0000
0000
0000
0000
0000
0010
0000
0011
0000
0000
0011
0000
0000
0000
0000
,
1001
0000
1001
0000
,
1000
0000
0000
0010
0000
0000
0100
0000
0001
0000
0010
0000
0100
0000
1000
0000
,
0001
0100
0010
1000
0000
0001
0010
0001
,
0000
0010
1000
0010
0001
1000
0001
0010
,
0100
1000
0010
0100
0000
0001
0100
0001
,
0000
0000
0100
0000
1000
0000
0100
0000
0001
0000
0010
0000
0100
0010
0100
0010
,
0100
0000
0000
0000
1100
0000
0000
0000
0011
0000
0000
0011
0000
0000
0000
0000
,
0000
0000
0110
0000
0000
0000
0110
0000
0000
0000
0100
0010
0100
0000
2002
0000
,
0000
0000
0000
0000
3003
0000
1001
1001
;

//---------------dance-single - ----------------
#NOTES:
     dance-single:
     :
     Medium:
     8:
     0.472,0.489,0.426,0.120,0.004: // measure 1
0000
0000
0000
0000
,  // measure 2
0000
0000
0000
0000
,  // measure 3
0000
0000
0000
0000
,  // measure 4
0000
0000
0000
0000
,  // measure 5
0001
1001
1000
1001
,  // measure 6
0001
0010
0001
0010
0100
1000
0100
1000
,  // measure 7
0001
1001
1000
1001
,  // measure 8
0001
0010
0001
0010
0100
1000
0100
1000
,  // measure 9
0001
1001
0001
1001
,  // measure 10
1000
0100
1000
0100
0010
0001
0010
0001
,  // measure 11
1000
1001
0001
1001
,  // measure 12
1000
0100
1000
0100
0010
0001
0010
0000
,  // measure 13
1001
0010
0100
1000
,  // measure 14
0020
1000
1030
0001
,  // measure 15
1000
0000
0100
0000
0010
0000
0001
1000
,  // measure 16
0001
0200
0001
0301
,  // measure 17
1001
0001
1000
1000
,  // measure 18
0020
0100
0130
0001
,  // measure 19
1000
0000
0001
0010
0001
0000
1000
0001
,  // measure 20
0000
1000
0010
0000
0010
0000
0010
0000
,  // measure 21
2001
0001
3001
0010
,  // measure 22
0100
1000
0001
0010
,  // measure 23
0002
1000
1003
0100
,  // measure 24
0010
0001
1000
0100
,  // measure 25
2001
0001
3001
0010
,  // measure 26
0200
0010
0310
1000
,  // measure 27
0002
1000
1003
0100
,  // measure 28
0020
0100
0100
0130
,  // measure 29
0001
1000
0100
1000
0000
0100
1000
0100
,  // measure 30
0000
1000
0100
1000
0000
0001
0010
0000
,  // measure 31
0100
0000
0010
0000
0001
1000
0001
0000
,  // measure 32
0020
0100
0130
1001
,  // measure 33
1000
0001
0010
0001
0000
0010
0001
0010
,  // measure 34
0000
0001
0010
0001
0000
1000
0100
0000
,  // measure 35
0010
0000
0100
0000
1000
0001
1000
0000
,  // measure 36
0020
0100
0100
0130
,  // measure 37
1001
0000
0000
0000
,  // measure 38
1001
1001
0001
0010
,  // measure 39
0100
0000
1000
0001
1000
0000
0001
0000
,  // measure 40
1001
1001
1000
0100
,  // measure 41
0010
0000
0001
1000
0001
0000
1000
0000
,  // measure 42
0120
0100
0100
0130
,  // measure 43
1001
0000
0001
0010
0001
0000
1000
0010
,  // measure 44
0000
0010
0000
0110
0000
1000
0000
0001
,  // measure 45
0000
0100
0010
0100
0010
0100
0010
0000
,  // measure 46
1001
1001
0100
0010
,  // measure 47
0001
0000
1000
0100
1000
0000
0001
0000
,  // measure 48
1001
1001
0010
0100
,  // measure 49
1000
0000
0001
0010
0001
0000
1000
0000
,  // measure 50
1001
0000
0001
0000
0100
0010
0000
0100
,  // measure 51
0000
0010
0100
0000
0001
0000
1000
0010
,  // measure 52
0000
0100
0000
0001
0000
1000
0000
0010
,  // measure 53
0000
0100
0010
0100
0010
0100
0010
0000
,  // measure 54
1001
0000
0110
0000
,  // measure 55
1001
0000
1001
0000
,  // measure 56
0110
0000
0000
0001
0010
0100
1000
0001
,  // measure 57
2000
0000
3001
0000
0010
0000
0100
1000
,  // measure 58
0100
0000
1000
0001
1000
0000
0001
0000
,  // measure 59
0101
0000
0001
0000
1000
0100
1000
0000
,  // measure 60
0001
0000
0010
0001
0010
0000
0100
0000
,  // measure 61
2001
0001
0001
3001
,  // measure 62
1001
0000
1000
0010
1000
0000
0001
0100
,  // measure 63
0000
0100
0000
1001
0000
0001
0000
0100
,  // measure 64
0000
0010
0100
0010
0100
0010
0100
0000
,  // measure 65
1001
0000
1001
0000
0001
0010
0001
0000
,  // measure 66
1000
0000
0010
1000
0001
0000
0001
0000
,  // measure 67
1001
0000
1001
0000
1000
0100
1000
0000
,  // measure 68
0001
0000
0100
0001
1000
0000
1000
0000
,  // measure 69
1001
0000
0011
0000
0100
0000
1000
0010
,  // measure 70
1000
0000
0001
1000
0010
0000
0010
0000
,  // measure 71
1001
0000
1100
0000
0010
0001
0010
0000
,  // measure 72
0001
1000
0010
0100
0010
0100
0010
0000
,  // measure 73
1001
0000
0110
0000
,  // measure 74
1001
0000
1001
0000
,  // measure 75
0110
0000
0000
1000
0100
0010
0001
1000
,  // measure 76
0001
1001
1000
1001
,  // measure 77
0001
0010
0001
0010
0100
1000
0100
1000
,  // measure 78
0001
1001
1000
1001
,  // measure 79
1000
0100
1000
0100
0010
0001
0010
0001
,  // measure 80
1000
0000
0000
0000
1001
0000
0000
0000
0010
0000
0000
0010
0000
0000
0000
0000
,  // measure 81
0000
0110
0000
0110
0000
1001
0000
2002
,  // measure 82
0000
0000
0000
0000
3003
0000
0001
0001
;

//---------------dance-single - ----------------
#NOTES:
     dance-single:
     :
     Beginner:
     1:
     0.055,0.122,0.052,0.000,0.000: // measure 1
0000
0000
0000
0000
,  // measure 2
0000
0000
0000
0000
,  // measure 3
0000
0000
0000
0000
,  // measure 4
0000
0000
0000
0000
,  // measure 5
0001
0000
0000
0000
,  // measure 6
0000
0000
0000
0000
,  // measure 7
1000
0000
0000
0000
,  // measure 8
0000
0000
0000
0000
,  // measure 9
0001
0000
0000
0000
,  // measure 10
0000
0000
0000
0000
,  // measure 11
1000
0000
0000
0000
,  // measure 12
0000
0000
0000
0000
,  // measure 13
0001
0000
0000
0000
,  // measure 14
0000
0000
0000
0000
,  // measure 15
0010
0000
0000
0000
,  // measure 16
0000
0000
0000
0000
,  // measure 17
0001
0000
0000
0000
,  // measure 18
0000
0000
0000
0000
,  // measure 19
1000
0000
0000
0000
,  // measure 20
0100
0000
0000
0000
,  // measure 21
1000
0000
0000
0000
,  // measure 22
0000
0000
0000
0000
,  // measure 23
1000
0000
0000
0000
,  // measure 24
0000
0000
0000
0000
,  // measure 25
0001
0000
0000
0000
,  // measure 26
0000
0000
0000
0000
,  // measure 27
0001
0000
0000
0000
,  // measure 28
1000
0000
0000
0000
,  // measure 29
1001
0000
0000
0000
,  // measure 30
0000
0000
0000
0000
,  // measure 31
1000
0000
0000
0000
,  // measure 32
0001
0000
0000
0000
,  // measure 33
1001
0000
0000
0000
,  // measure 34
0000
0000
0000
0000
,  // measure 35
0001
0000
0000
0000
,  // measure 36
1000
0000
0000
0000
,  // measure 37
1001
0000
0000
0000
,  // measure 38
0010
0000
0000
0000
,  // measure 39
0000
0000
0000
0000
,  // measure 40
0010
0000
0000
0000
,  // measure 41
0000
0000
0000
0000
,  // measure 42
0100
0000
0000
0000
,  // measure 43
0000
0000
0000
0000
,  // measure 44
0100
0000
0000
0000
,  // measure 45
0000
0000
0000
0000
,  // measure 46
0010
0000
0000
0000
,  // measure 47
0000
0000
0000
0000
,  // measure 48
0010
0000
0000
0000
,  // measure 49
0000
0000
0000
0000
,  // measure 50
0100
0000
0000
0000
,  // measure 51
0000
0000
0000
0000
,  // measure 52
0100
0000
0000
0000
,  // measure 53
0000
0000
0000
0000
,  // measure 54
0010
0000
0000
0000
,  // measure 55
0000
0000
0000
0000
,  // measure 56
1001
0000
0000
0000
,  // measure 57
1000
0000
0000
0000
,  // measure 58
0000
0000
0000
0000
,  // measure 59
0001
0000
0000
0000
,  // measure 60
0000
0000
0000
0000
,  // measure 61
1000
0000
0000
0000
,  // measure 62
0000
0000
0000
0000
,  // measure 63
0001
0000
0000
0000
,  // measure 64
0000
0000
0000
0000
,  // measure 65
1000
0000
0000
0000
,  // measure 66
0000
0000
0000
0000
,  // measure 67
0010
0000
0000
0000
,  // measure 68
0000
0000
0000
0000
,  // measure 69
0100
0000
0000
0000
,  // measure 70
0000
0000
0000
0000
,  // measure 71
0010
0000
0000
0000
,  // measure 72
0000
0000
0000
0000
,  // measure 73
0110
0000
0000
0000
,  // measure 74
0000
0000
0000
0000
,  // measure 75
1001
0000
0000
0000
,  // measure 76
0001
0000
0000
0000
,  // measure 77
0000
0000
0000
0000
,  // measure 78
1000
0000
0000
0000
,  // measure 79
0000
0000
0000
0000
,  // measure 80
0001
0000
0000
0000
,  // measure 81
0000
0000
0000
0000
,  // measure 82
0000
0000
0000
1001
;
