#VERSION:0.83;
#TITLE:1・2・3;
#SUBTITLE:;
#ARTIST:After the Rain(そらる×まふまふ);
#TITLETRANSLIT:1-2-3;
#SUBTITLETRANSLIT:;
#ARTISTTRANSLIT:After the Rain(SORARUxMAFUMAFU);
#GENRE:;
#ORIGIN:;
#CREDIT:DigiMindAxel;
#BANNER:1-2-3.png;
#BACKGROUND:1-2-3-bg.png;
#PREVIEWVID:;
#JACKET:1-2-3-jacket.png;
#CDIMAGE:;
#DISCIMAGE:;
#LYRICSPATH:1-2-3.lrc;
#CDTITLE:DigiMindAxel original simfile.png;
#MUSIC:1-2-3.ogg;
#OFFSET:-0.110000;
#SAMPLESTART:38.587002;
#SAMPLELENGTH:12.000000;
#SELECTABLE:YES;
#BPMS:0.000=182.000,
88.000=91.000,
94.000=182.000;
#STOPS:;
#DELAYS:;
#WARPS:;
#TIMESIGNATURES:0.000=4=4;
#TICKCOUNTS:0.000=4;
#COMBOS:0.000=1;
#SPEEDS:0.000=1.000=0.000=0;
#SCROLLS:0.000=1.000;
#FAKES:;
#LABELS:0.000=Song Start;
#BGCHANGES:2.000=1-2-3.avi=1.000=1=0=0=StretchNoLoop==CrossFade==,
99999=-nosongbg-=1.000=0=0=0 // don't automatically add -songbackground-
;
#KEYSOUNDS:;
#ATTACKS:
;

//---------------dance-single - ----------------
#NOTEDATA:;
#CHARTNAME:;
#STEPSTYPE:dance-single;
#DESCRIPTION:;
#CHARTSTYLE:;
#DIFFICULTY:Easy;
#METER:5;
#RADARVALUES:0.229482,0.325039,0.078088,0.044621,0.000000,144.000000,137.000000,7.000000,4.000000,0.000000,0.000000,0.000000,0.000000,0.000000,0.229482,0.325039,0.078088,0.044621,0.000000,144.000000,137.000000,7.000000,4.000000,0.000000,0.000000,0.000000,0.000000,0.000000;
#CREDIT:;
#NOTES:
// measure 0
0000
0000
0000
0000
,  // measure 1
0000
0000
0000
0000
,  // measure 2
0000
0000
0000
0000
,  // measure 3
0000
0000
0000
0000
,  // measure 4
0000
1000
0000
0000
0001
0000
0000
1000
,  // measure 5
0000
0000
1001
0000
,  // measure 6
0001
0000
0001
0000
,  // measure 7
0100
0000
0100
0000
,  // measure 8
0001
0000
0001
0000
,  // measure 9
1000
0000
1000
0000
,  // measure 10
0001
0000
0001
0000
,  // measure 11
0010
0000
0010
0000
,  // measure 12
0100
0000
1000
0000
,  // measure 13
0100
0000
0000
0000
,  // measure 14
1000
0001
1000
0000
,  // measure 15
0010
0000
0010
0000
,  // measure 16
0100
0010
0100
0000
,  // measure 17
0001
0000
0001
0000
,  // measure 18
0010
0100
0010
0000
,  // measure 19
0001
0000
0001
0000
,  // measure 20
0010
0000
0100
0000
,  // measure 21
1000
0001
1000
0000
,  // measure 22
0200
0000
0000
0320
,  // measure 23
0000
0030
0000
1001
,  // measure 24
0000
1001
0000
0001
,  // measure 25
1000
0001
0000
0010
,  // measure 26
0000
0100
0000
1000
,  // measure 27
0100
0010
0000
0001
,  // measure 28
0001
0001
0000
0010
,  // measure 29
0000
0100
0000
1000
,  // measure 30
1000
1000
0000
0100
,  // measure 31
0000
0010
0000
0001
,  // measure 32
0000
0100
0000
0010
,  // measure 33
0000
0100
0000
0001
,  // measure 34
1000
0001
0000
1000
,  // measure 35
0001
1000
0000
0100
,  // measure 36
0000
0010
0000
0100
,  // measure 37
0000
0010
0000
0001
,  // measure 38
0000
0100
0000
0001
,  // measure 39
0000
0100
0000
0010
,  // measure 40
0100
0010
0000
1000
,  // measure 41
0001
1000
0000
1001
,  // measure 42
0000
1001
0000
1001
,  // measure 43
0000
0000
0000
0000
,  // measure 44
0000
0010
0000
0100
,  // measure 45
0010
0100
0000
0001
,  // measure 46
0000
1000
0100
1000
,  // measure 47
0000
0010
0000
0100
,  // measure 48
0000
0100
0000
0001
,  // measure 49
0000
0001
0000
0010
,  // measure 50
0000
0100
0000
1000
,  // measure 51
0001
1000
0000
0100
,  // measure 52
1000
0100
0000
0010
,  // measure 53
0000
0001
0000
0100
,  // measure 54
0010
0100
0000
0001
,  // measure 55
0000
0010
0000
0001
,  // measure 56
0000
0001
0000
1000
,  // measure 57
0000
1000
0000
0001
,  // measure 58
1000
0001
0000
0100
,  // measure 59
0010
0100
0001
1000
,  // measure 60
0000
1000
0000
1000
,  // measure 61
0000
1000
0100
0010
,  // measure 62
0000
0010
0000
0010
,  // measure 63
0000
0010
0000
2002
,  // measure 64
0000
0000
0000
3003
;

//---------------dance-single - ----------------
#NOTEDATA:;
#CHARTNAME:;
#STEPSTYPE:dance-single;
#DESCRIPTION:;
#CHARTSTYLE:;
#DIFFICULTY:Medium;
#METER:10;
#RADARVALUES:0.487649,0.578963,0.345816,0.267729,0.000000,306.000000,275.000000,31.000000,24.000000,0.000000,0.000000,0.000000,0.000000,0.000000,0.487649,0.578963,0.345816,0.267729,0.000000,306.000000,275.000000,31.000000,24.000000,0.000000,0.000000,0.000000,0.000000,0.000000;
#CREDIT:;
#NOTES:
// measure 0
0000
0000
0000
0000
,  // measure 1
0000
0000
0000
0000
,  // measure 2
0000
0000
0000
0000
,  // measure 3
0000
0000
0000
0000
,  // measure 4
0000
0001
0100
0000
0001
0100
0000
0001
,  // measure 5
0000
1000
0000
0001
1000
0000
0000
0000
,  // measure 6
0100
1000
0100
1000
,  // measure 7
0010
0100
0010
0100
,  // measure 8
0001
1000
0001
1000
,  // measure 9
0001
0100
0001
0100
,  // measure 10
0010
1000
0010
1000
,  // measure 11
0100
0010
0100
0010
,  // measure 12
0001
0010
0001
0010
,  // measure 13
0200
0000
2300
0000
3100
1000
0100
1000
,  // measure 14
0010
0100
0001
0000
,  // measure 15
0100
0010
0100
0000
0001
0000
1001
0000
,  // measure 16
0100
0010
0001
0000
,  // measure 17
1000
0100
1000
0000
0001
0000
0101
0000
,  // measure 18
0010
0000
1000
0100
1000
0000
0001
0000
,  // measure 19
0100
0010
0100
0000
0001
1000
0001
0000
,  // measure 20
0100
0000
0001
1000
0000
0100
1000
0100
,  // measure 21
0000
1000
0001
0000
0020
0000
0230
0000
,  // measure 22
2300
0000
0001
3001
1000
0100
0020
0000
,  // measure 23
0001
0002
0000
0000
0033
0000
2002
0000
,  // measure 24
3003
0220
0330
2001
,  // measure 25
3200
0320
0032
1003
,  // measure 26
0001
0100
0001
0000
1000
0100
0000
1000
,  // measure 27
0001
1000
0001
0000
0000
0000
1001
0000
,  // measure 28
1001
0000
1001
0000
1000
0100
0000
1000
,  // measure 29
0010
0100
0000
0010
0010
0000
1001
0000
,  // measure 30
1001
0000
1001
0000
0001
0010
0000
0100
,  // measure 31
1000
0001
0000
0010
0010
0000
0100
0000
,  // measure 32
1000
0001
1000
0100
,  // measure 33
0001
0000
0010
0000
1000
0001
0000
1000
,  // measure 34
0010
0000
1000
0000
0001
0010
0000
0001
,  // measure 35
0010
0000
0001
0010
0100
0000
1001
0000
,  // measure 36
1000
0001
0000
1000
0100
0000
0001
0000
,  // measure 37
0100
0000
1000
0010
1000
0000
0010
0000
,  // measure 38
0100
0001
0000
1000
0100
0000
0001
0000
,  // measure 39
0100
0000
1000
0000
0001
0000
0100
0001
,  // measure 40
0100
0001
1000
0000
0100
0000
0011
0000
,  // measure 41
0011
1100
1100
0220
,  // measure 42
0330
2002
3003
0220
,  // measure 43
0330
2002
0000
0000
0000
0000
3003
0000
,  // measure 44
1001
0000
1000
0001
0010
0000
0100
0000
,  // measure 45
1000
0000
0000
0001
0001
0000
0110
0000
,  // measure 46
0100
0010
1000
0000
0100
0000
0010
0000
,  // measure 47
0001
0000
0000
1000
1000
0000
1100
0000
,  // measure 48
0010
0000
0001
0100
0001
0100
0010
0000
,  // measure 49
1000
0000
0100
0000
0010
0001
0010
0001
,  // measure 50
1000
0000
0010
0000
0100
0001
0000
1000
,  // measure 51
0100
0000
0010
0100
0010
0000
0101
0000
,  // measure 52
0100
0110
1010
0010
,  // measure 53
0110
0000
1000
0000
0001
0010
0100
0000
,  // measure 54
1000
0100
0010
0000
0001
1000
0001
0000
,  // measure 55
0010
0000
0100
0000
0010
0000
0001
1000
,  // measure 56
0001
1000
0100
0000
0010
0000
0001
0100
,  // measure 57
0001
0100
0010
0000
0100
0000
0001
1000
,  // measure 58
0001
1000
0100
0000
0010
0000
0001
1000
,  // measure 59
0010
1000
0000
0001
1000
0000
1001
0000
,  // measure 60
0000
1000
0001
0100
,  // measure 61
0001
0000
0100
0001
0010
0000
1001
0000
,  // measure 62
0000
0001
1000
1100
,  // measure 63
0000
1001
0000
0000
0001
0100
0002
0000
,  // measure 64
0000
0000
0003
0000
0000
0000
1000
1000
;

//---------------dance-single - ----------------
#NOTEDATA:;
#CHARTNAME:;
#STEPSTYPE:dance-single;
#DESCRIPTION:;
#CHARTSTYLE:;
#DIFFICULTY:Hard;
#METER:13;
#RADARVALUES:0.624700,0.687519,0.267729,0.267729,0.066932,392.000000,368.000000,24.000000,24.000000,0.000000,0.000000,0.000000,0.000000,0.000000,0.624700,0.687519,0.267729,0.267729,0.066932,392.000000,368.000000,24.000000,24.000000,0.000000,0.000000,0.000000,0.000000,0.000000;
#CREDIT:;
#NOTES:
// measure 0
0000
0000
0000
0000
,  // measure 1
0000
0000
0000
0000
,  // measure 2
0000
0000
0000
0000
,  // measure 3
0000
0000
0000
0000
,  // measure 4
0000
1000
1000
0000
0001
0001
0000
0100
,  // measure 5
0000
0100
0000
0100
1001
0000
0000
0000
,  // measure 6
1001
0001
0100
0010
,  // measure 7
1000
0100
0001
0010
,  // measure 8
1000
0100
1000
0100
,  // measure 9
1000
0010
0001
0100
,  // measure 10
1000
0100
1000
0010
,  // measure 11
0100
0001
0100
0010
,  // measure 12
0001
0010
0100
0001
,  // measure 13
1000
0001
1000
0001
0010
0100
1000
0000
,  // measure 14
1010
0000
0010
0100
0010
1000
0000
1000
,  // measure 15
0010
1000
0010
1000
0001
0010
0100
1000
,  // measure 16
0000
0001
0100
0001
0100
0010
0000
0010
,  // measure 17
0100
0001
0100
0001
1000
0100
0010
0001
,  // measure 18
0000
1000
0100
1000
0100
0010
0000
0010
,  // measure 19
0100
1000
0100
1000
0010
0100
0001
1000
,  // measure 20
0001
0010
0100
2000
0000
3001
0100
0002
,  // measure 21
0000
0000
0000
0013
0000
0000
0200
0000
0000
0000
0000
0000
1300
0000
0001
0000
0010
0000
0001
0000
0010
0000
0100
0000
,  // measure 22
2000
0010
3010
0200
0001
0301
0200
0010
,  // measure 23
0310
2002
0000
0000
3003
0000
1000
0010
,  // measure 24
0100
0000
0001
0000
1000
0100
1000
0000
0001
0010
0001
0000
1000
0000
0000
0000
,  // measure 25
1001
0000
0011
0000
1100
0000
1000
0010
,  // measure 26
0100
0001
0010
0100
1000
0001
0000
0100
,  // measure 27
0010
0100
0220
0000
0330
0000
1000
0000
,  // measure 28
1100
0000
1010
0000
1000
0001
0010
0100
,  // measure 29
1000
0002
0000
0100
0103
0000
0001
0000
,  // measure 30
0101
0000
0011
0000
0001
1000
0100
0010
,  // measure 31
0100
2000
0000
0010
3010
0000
1001
0000
,  // measure 32
1000
0000
0001
0100
0010
2000
0000
0000
,  // measure 33
0100
0000
3100
0000
0010
0001
0010
0001
,  // measure 34
1000
0000
0010
0100
0001
0020
0000
0130
,  // measure 35
1000
0000
0001
0000
0100
0010
0100
0000
0010
0000
0000
0000
1000
0000
0010
0000
,  // measure 36
1000
0010
0100
0001
0100
0001
0010
0100
,  // measure 37
1000
0000
0010
0100
0001
0010
0001
0010
,  // measure 38
0100
1000
0100
1000
0001
0100
0010
1000
,  // measure 39
0100
0010
0001
1001
,  // measure 40
1000
0010
0100
1000
0100
0010
1000
0000
,  // measure 41
1001
0000
0000
0000
0101
0000
0000
0000
1010
0000
0000
0000
1000
0001
1000
0001
,  // measure 42
1000
0000
0000
0000
0010
0100
0010
0100
0010
0000
0000
0000
1000
0000
0100
0000
,  // measure 43
0020
0002
0000
0000
0033
0000
1001
0000
,  // measure 44
0100
0010
0100
0001
0010
1000
0010
0001
,  // measure 45
0100
0020
0000
0100
0130
0000
1001
0000
,  // measure 46
0010
0100
0010
1000
0010
0100
1000
0100
,  // measure 47
0010
2000
0000
0010
3010
0000
1001
0000
,  // measure 48
0010
0000
0100
1000
0001
0100
1000
0100
,  // measure 49
0010
0000
1000
0000
0001
0100
1000
0100
,  // measure 50
0001
0010
0100
0000
1000
0020
0000
0130
,  // measure 51
0001
0010
0001
0000
1000
0000
0100
0000
0010
0000
0000
0000
0001
0000
1000
0000
,  // measure 52
0100
0001
0000
1000
0100
0010
1000
0001
,  // measure 53
0100
0010
0000
1000
0010
0001
1000
0010
,  // measure 54
0100
1000
0001
0010
0100
0010
0001
0000
,  // measure 55
0100
0000
0010
1000
0001
0100
1000
0100
,  // measure 56
0010
1000
0001
0000
1000
0010
0001
0010
,  // measure 57
0100
0001
1000
0000
0010
0100
0001
0100
,  // measure 58
1000
0001
0010
1000
0001
1000
0100
0010
,  // measure 59
0100
1000
0000
0000
0010
0000
2002
0000
,  // measure 60
3003
1000
0010
1000
0001
0010
0001
1000
,  // measure 61
0010
0100
0000
0000
0010
0000
2002
0000
,  // measure 62
3003
0001
0010
0001
1000
0010
1000
0001
,  // measure 63
0010
0100
0000
0000
1000
0010
0200
0000
,  // measure 64
0000
0000
0300
0000
0000
0000
0110
0110
;

//---------------dance-single - ----------------
#NOTEDATA:;
#CHARTNAME:;
#STEPSTYPE:dance-single;
#DESCRIPTION:;
#CHARTSTYLE:;
#DIFFICULTY:Beginner;
#METER:3;
#RADARVALUES:0.130677,0.177789,0.078088,0.000000,0.000000,82.000000,75.000000,7.000000,0.000000,0.000000,0.000000,0.000000,0.000000,0.000000,0.130677,0.177789,0.078088,0.000000,0.000000,82.000000,75.000000,7.000000,0.000000,0.000000,0.000000,0.000000,0.000000,0.000000;
#CREDIT:;
#NOTES:
// measure 0
0000
0000
0000
0000
,  // measure 1
0000
0000
0000
0000
,  // measure 2
0000
0000
0000
0000
,  // measure 3
0000
0000
0000
0000
,  // measure 4
0000
0000
0000
0000
,  // measure 5
0000
0000
0000
0000
,  // measure 6
1000
0000
0000
0000
,  // measure 7
0001
0000
0000
0000
,  // measure 8
1000
0000
0000
0000
,  // measure 9
0001
0000
0000
0000
,  // measure 10
0010
0000
0000
0000
,  // measure 11
0001
0000
0000
0000
,  // measure 12
0010
0000
0000
0000
,  // measure 13
0001
0000
0000
0000
,  // measure 14
0100
0000
0100
0000
,  // measure 15
0100
0000
0000
0000
,  // measure 16
0010
0000
0010
0000
,  // measure 17
0010
0000
0000
0000
,  // measure 18
0100
0000
0100
0000
,  // measure 19
0100
0000
0000
0000
,  // measure 20
0001
0000
0000
0000
,  // measure 21
1000
0000
0000
0000
,  // measure 22
1001
0000
0000
0000
,  // measure 23
0000
0000
0000
1001
,  // measure 24
0000
0000
0000
1000
,  // measure 25
0000
0001
0000
1000
,  // measure 26
0000
0000
0000
0000
,  // measure 27
0000
0000
0000
1001
,  // measure 28
0000
0000
0000
0001
,  // measure 29
0000
0000
0000
1001
,  // measure 30
0000
0000
0000
1000
,  // measure 31
0000
0000
0000
0001
,  // measure 32
0000
0000
0100
0000
,  // measure 33
0001
0000
1000
0000
,  // measure 34
0000
0001
0000
0010
,  // measure 35
0000
0001
0000
1000
,  // measure 36
0000
1000
0000
1000
,  // measure 37
0000
0000
0000
0001
,  // measure 38
0000
0001
0000
0001
,  // measure 39
0000
0000
0000
0100
,  // measure 40
0000
0010
0000
0100
,  // measure 41
0000
0001
0000
1000
,  // measure 42
0000
0100
0000
1000
,  // measure 43
0000
0000
0000
0000
,  // measure 44
0001
0000
1000
0000
,  // measure 45
0001
0000
0000
0010
,  // measure 46
0000
0001
0000
0010
,  // measure 47
0000
0000
0000
0100
,  // measure 48
0000
1000
0000
0100
,  // measure 49
0000
0000
0000
0010
,  // measure 50
0000
0100
0000
0010
,  // measure 51
0000
0000
0000
0001
,  // measure 52
0000
0100
0000
0001
,  // measure 53
0000
0000
0000
1000
,  // measure 54
0000
0001
0000
1000
,  // measure 55
0000
0000
0000
0100
,  // measure 56
0000
0100
0000
0100
,  // measure 57
0000
0000
0000
0010
,  // measure 58
0000
0010
0000
0010
,  // measure 59
0000
0000
0000
1001
,  // measure 60
0000
0000
0000
0000
,  // measure 61
0000
0000
0000
1001
,  // measure 62
0000
0000
0000
0000
,  // measure 63
0000
0000
0000
0110
;
