#TITLE:[A]ddiction;
#SUBTITLE:;
#ARTIST:EVO+;
#TITLETRANSLIT:;
#SUBTITLETRANSLIT:;
#ARTISTTRANSLIT:;
#CREDIT:DigiMindAxel;
#BANNER:[A]ddiction.png;
#BACKGROUND:[A]ddiction-bg.png;
#LYRICSPATH:[A]ddiction.lrc;
#CDTITLE:DigiMindAxel original simfile.png;
#MUSIC:[A]ddiction.ogg;
#METERTYPE:DDR X;
#OFFSET:-0.044;
#SAMPLESTART:41.705;
#SAMPLELENGTH:12.000;
#SELECTABLE:YES;
#BPMS:0.000=164.000;
#STOPS:260.000=0.36585365
;
#BGCHANGES:-4.000=[A]ddiction.avi=1.000=1=1=0,
99999=-nosongbg-=1.000=0=0=0 // don't automatically add -songbackground-
;

//---------------dance-single - ----------------
#NOTES:
     dance-single:
     :
     Easy:
     6:
     0.262,0.302,0.221,0.090,0.000: // measure 1
0000
0000
0000
0000
,  // measure 2
0000
0000
0000
0000
,  // measure 3
0000
0000
0000
0000
,  // measure 4
0000
0000
0000
0000
,  // measure 5
0000
0000
0000
0000
,  // measure 6
1001
0000
1000
0000
,  // measure 7
0001
0000
1000
0000
,  // measure 8
0100
0000
1000
0000
,  // measure 9
0100
0000
0010
0000
,  // measure 10
1001
0000
1000
0000
,  // measure 11
0001
0000
1000
0000
,  // measure 12
0001
0000
0100
0000
,  // measure 13
0010
0010
0010
0000
,  // measure 14
1001
0000
1000
0001
,  // measure 15
0010
0000
0100
0000
,  // measure 16
1000
0001
1000
0001
,  // measure 17
0010
0000
0100
0000
,  // measure 18
1000
0010
1000
0000
,  // measure 19
0001
0100
0001
0000
,  // measure 20
1000
0001
1000
0001
,  // measure 21
0010
0000
0100
0000
,  // measure 22
2001
0000
0000
0000
,  // measure 23
3002
0000
0000
0000
,  // measure 24
2003
0000
0000
0000
,  // measure 25
3002
0000
0000
0000
,  // measure 26
0023
0000
0000
0000
,  // measure 27
0230
0000
0000
0000
,  // measure 28
2300
0000
0000
0000
,  // measure 29
3010
0000
0000
0000
,  // measure 30
1001
0000
1000
0000
,  // measure 31
0001
0010
0100
0000
,  // measure 32
1001
0000
1000
0000
,  // measure 33
0100
0010
0001
0000
,  // measure 34
1001
0000
0010
0010
,  // measure 35
0110
0000
0100
0100
,  // measure 36
0110
0000
1001
0000
,  // measure 37
0001
1000
0100
0010
,  // measure 38
1001
0000
1000
0000
,  // measure 39
0001
0010
0100
0000
,  // measure 40
1001
0000
0001
0000
,  // measure 41
1000
0010
0100
0000
,  // measure 42
1001
0000
0010
0010
,  // measure 43
0110
0000
0100
0100
,  // measure 44
0110
0000
1000
0001
,  // measure 45
1000
0100
1000
0100
,  // measure 46
0010
0000
0000
0000
,  // measure 47
0000
0000
0000
0000
0000
0000
0000
0010
,  // measure 48
0000
0000
0000
0000
,  // measure 49
0010
0010
0010
0010
,  // measure 50
0001
1000
0001
1000
,  // measure 51
0100
1000
0100
1000
,  // measure 52
0010
0100
0010
0100
,  // measure 53
0001
0010
0100
0000
,  // measure 54
0010
0001
0010
0001
,  // measure 55
0100
0010
0100
0010
,  // measure 56
1000
0100
1000
0100
,  // measure 57
1000
0010
0100
0000
,  // measure 58
1001
0000
0000
0000
,  // measure 59
0001
0000
0000
0000
,  // measure 60
0001
0000
0000
0000
,  // measure 61
0001
0000
0000
0000
,  // measure 62
1000
0000
0000
0000
,  // measure 63
1000
0000
0000
0000
,  // measure 64
1000
0000
0000
0000
,  // measure 65
2002
0000
0000
0000
,  // measure 66
3003
0000
0000
1001
,  // measure 67
0000
0001
0000
1000
,  // measure 68
0100
0010
0000
1001
,  // measure 69
0000
1000
0000
0001
,  // measure 70
0010
0100
0000
1001
,  // measure 71
0000
0001
1000
1001
,  // measure 72
0000
1000
0001
1001
,  // measure 73
0000
0010
0000
0100
,  // measure 74
0010
0100
1000
0110
,  // measure 75
0000
0010
0000
0100
,  // measure 76
0001
0010
0100
1001
,  // measure 77
0000
0001
0000
0001
,  // measure 78
1000
0001
0100
0110
,  // measure 79
0000
0010
0100
0110
,  // measure 80
0000
0001
1000
0100
,  // measure 81
1000
0100
0010
0001
,  // measure 82
0100
0001
0100
2002
,  // measure 83
0000
3003
0000
0000
0000
0000
0000
0000
;

//---------------dance-single - ----------------
#NOTES:
     dance-single:
     :
     Medium:
     9:
     0.469,0.503,0.450,0.041,0.004: // measure 1
0000
0000
0000
0000
,  // measure 2
0000
0000
0000
0000
,  // measure 3
0000
0000
0000
0000
,  // measure 4
0000
0000
0000
0000
,  // measure 5
0000
0000
0000
0000
,  // measure 6
0011
0100
1000
0100
,  // measure 7
1000
0001
1000
0001
,  // measure 8
0100
0010
0100
0010
,  // measure 9
0100
0002
1003
0000
,  // measure 10
0101
0010
0100
0001
,  // measure 11
0100
0010
0100
0010
,  // measure 12
1000
0100
1000
0010
,  // measure 13
0100
0001
0100
0001
0100
0000
0100
0000
,  // measure 14
1001
0001
0010
0100
,  // measure 15
1000
0100
0010
0001
0000
0000
0000
0000
,  // measure 16
1000
0001
0100
0010
,  // measure 17
1000
0010
0100
0001
0000
0000
0000
0000
,  // measure 18
1100
0010
0001
1000
,  // measure 19
0010
0100
0001
0100
0000
0000
0001
0000
,  // measure 20
0100
0000
0010
0100
0010
0000
0100
0000
,  // measure 21
0001
0000
0000
0010
0000
0000
0100
0000
0000
0000
0000
0000
1100
0000
0000
0000
,  // measure 22
1001
0000
0000
0001
0000
0000
0010
0000
,  // measure 23
0100
0000
0000
0100
0000
0000
1000
0000
,  // measure 24
0010
0000
0000
0010
0000
0000
0100
0000
,  // measure 25
0001
0000
0000
0001
0000
0000
0010
0000
,  // measure 26
0100
0000
0000
0100
0000
0000
1000
0000
,  // measure 27
0100
0000
0000
0100
0000
0000
0010
0000
,  // measure 28
0001
0010
0100
1000
,  // measure 29
0020
0000
0000
0000
0130
0010
0100
0000
,  // measure 30
1001
0000
0001
0010
0001
0000
1000
0100
,  // measure 31
1000
0000
0001
0010
0001
0100
0010
0000
,  // measure 32
1001
0000
1000
0010
1000
0000
0001
0100
,  // measure 33
0001
0000
1000
0010
1000
0100
0010
0000
,  // measure 34
1001
0000
0001
0010
0001
0000
0110
0000
,  // measure 35
1001
0000
1000
0100
1000
0000
0110
0000
,  // measure 36
1001
0000
0001
0100
0001
0000
0100
0010
,  // measure 37
0100
0000
0001
0000
0010
0100
1000
0000
,  // measure 38
1100
0000
0010
0100
0010
0000
0001
0010
,  // measure 39
0001
0000
0100
0010
1000
0010
0100
0000
,  // measure 40
1001
0000
0001
0010
0001
0000
0100
0010
,  // measure 41
0100
0000
0001
0010
0100
0010
0001
0000
,  // measure 42
0011
0000
0100
0010
0100
0000
1100
0000
,  // measure 43
1001
0000
0010
0100
0010
0000
0011
0000
,  // measure 44
1001
1000
0100
0010
,  // measure 45
0001
1000
0001
1000
0100
0010
0001
0000
,  // measure 46
1001
0000
0000
0000
,  // measure 47
0000
0000
0000
0000
0000
0000
0000
1000
,  // measure 48
0000
0000
0000
0000
,  // measure 49
0010
0100
0010
0100
0010
0100
0010
0000
,  // measure 50
1001
1100
0010
0011
,  // measure 51
0100
1100
0010
0011
,  // measure 52
0100
1010
0010
0101
,  // measure 53
0100
1010
0110
0101
,  // measure 54
1001
1100
0010
0011
,  // measure 55
0100
1100
0010
0011
,  // measure 56
0100
1010
0010
0101
,  // measure 57
0100
1010
0110
0101
,  // measure 58
1001
0000
0000
1000
0000
0000
1000
0000
,  // measure 59
0100
0000
0000
0100
0000
0000
0100
0000
,  // measure 60
0010
0000
0000
0010
0000
0000
0010
0000
,  // measure 61
0001
0000
0000
0001
0000
0000
0001
0000
,  // measure 62
0100
0000
0000
0100
0000
0000
0100
0000
,  // measure 63
0010
0000
0000
0010
0000
0000
0010
0000
,  // measure 64
1000
0100
0001
0100
,  // measure 65
2000
0000
0000
0000
,  // measure 66
3000
0000
0000
0011
,  // measure 67
0010
0001
0010
0000
0100
0010
0100
0000
,  // measure 68
1000
0010
0100
0010
1000
0000
1001
0000
,  // measure 69
1000
0100
1000
0000
0010
0100
0010
0000
,  // measure 70
1000
0100
0010
0100
1000
0000
1100
0000
,  // measure 71
0010
0001
0100
0010
0100
0000
0110
0000
,  // measure 72
0010
1000
0100
0010
0100
0000
0110
0000
,  // measure 73
0010
0100
0010
0000
0100
0001
0100
0000
,  // measure 74
0001
0010
0100
1000
0100
0000
1001
0000
,  // measure 75
1000
0010
1000
0000
0001
1000
0001
0000
,  // measure 76
0100
0001
0010
0001
0100
0000
0101
0000
,  // measure 77
0010
0100
0010
0000
1000
0010
1000
0000
,  // measure 78
0001
0010
0100
0010
0001
0000
0011
0000
,  // measure 79
0100
0010
0100
0010
1000
0000
1010
0000
,  // measure 80
0010
0100
0010
0100
0001
0000
0101
0000
,  // measure 81
0100
0110
0010
1010
,  // measure 82
1000
0100
0010
0001
0100
0000
0220
0000
,  // measure 83
0000
0330
0000
0000
0000
0000
0000
0000
;

//---------------dance-single - ----------------
#NOTES:
     dance-single:
     :
     Hard:
     11:
     0.587,0.571,0.433,0.196,0.004: // measure 1
0000
0000
0000
0000
,  // measure 2
0000
0000
0000
0000
,  // measure 3
0000
0000
0000
0000
,  // measure 4
0000
0000
0000
0000
,  // measure 5
0000
0000
0000
0000
,  // measure 6
1001
0000
0001
0100
0000
0001
1000
0000
,  // measure 7
0100
0000
0010
0001
0000
0100
0010
0000
,  // measure 8
1000
0000
0100
1000
0000
0001
1000
0000
,  // measure 9
0001
0200
0320
0030
,  // measure 10
1001
0000
1000
0001
0000
0010
0001
0000
,  // measure 11
0010
0000
0100
1000
0000
0001
0100
0000
,  // measure 12
0010
0000
1000
0100
0000
0010
0100
1000
,  // measure 13
0010
0100
0010
0100
0110
0000
0110
0000
,  // measure 14
1001
0000
0001
0010
0001
1000
0001
0010
,  // measure 15
0001
1000
0100
0010
0000
0000
0001
0000
,  // measure 16
1000
0010
1000
0001
1000
0010
1000
0001
,  // measure 17
1000
0010
0100
0001
0000
0000
1000
0000
,  // measure 18
0110
0000
0001
0010
0000
0100
0010
0000
,  // measure 19
0001
0100
0010
1000
0000
0000
0001
0000
,  // measure 20
0010
0001
0100
0010
1000
0100
0010
0001
,  // measure 21
0100
0000
0000
0100
0000
0000
0100
0000
0000
0000
0010
0000
0100
0000
0000
0000
,  // measure 22
1002
0000
0000
1000
0000
0000
1003
0000
,  // measure 23
0200
0000
0000
1000
0000
0000
1300
0000
,  // measure 24
0020
0000
0000
0100
0000
0000
0130
0000
,  // measure 25
0002
0000
0000
0013
0001
0010
0001
0000
,  // measure 26
0200
0000
0000
0010
0000
0000
0310
0000
,  // measure 27
1000
0010
0000
0010
0000
1000
0010
0000
,  // measure 28
0200
0302
0023
0230
,  // measure 29
2300
0000
0000
0000
3010
0100
0110
0000
,  // measure 30
1001
0000
0001
0010
0001
0010
0100
1000
,  // measure 31
0010
0100
0010
1000
0100
0001
0100
0000
,  // measure 32
1001
0000
1000
0010
1000
0010
0100
0001
,  // measure 33
0010
0100
1000
0001
0100
1000
0100
0000
,  // measure 34
1001
0000
1000
0001
0010
0100
1100
0000
,  // measure 35
1001
0000
0001
1000
0100
0010
0011
0000
,  // measure 36
1001
0000
1000
0010
0100
0010
1000
0001
,  // measure 37
0010
0100
0010
0000
0100
0010
0110
0000
,  // measure 38
1001
0000
0001
0010
0001
0010
0100
1000
,  // measure 39
0100
1000
0001
0100
1000
0100
0001
0000
,  // measure 40
1001
0000
1000
0100
1000
0100
0010
0001
,  // measure 41
0010
0001
1000
0100
0001
0100
1000
0000
,  // measure 42
1001
0000
0001
0010
0100
0010
0011
0000
,  // measure 43
1001
0000
1000
0100
0010
0100
1100
0000
,  // measure 44
1001
0000
0001
0100
0010
1000
0001
0010
,  // measure 45
0100
0010
0100
0010
0001
1000
0010
0000
,  // measure 46
1001
0000
0000
1000
1000
0000
0000
0001
,  // measure 47
0001
0000
0000
0000
0000
0000
0000
1000
,  // measure 48
0000
0000
0000
0000
,  // measure 49
0010
0100
0010
0100
0010
0100
0110
0000
,  // measure 50
1001
0000
1000
0010
0001
0010
1000
0000
,  // measure 51
0100
1000
0001
0100
1000
0100
0001
0000
,  // measure 52
0010
0100
1000
0001
0010
0001
0010
0001
,  // measure 53
1000
0100
0001
0100
1000
0010
0100
0000
,  // measure 54
1001
0000
1000
0100
0001
0100
1000
0000
,  // measure 55
0100
1000
0010
0100
0001
0010
0100
0000
,  // measure 56
1000
0010
0001
0010
1000
0100
0001
0100
,  // measure 57
1000
0101
0110
1010
,  // measure 58
0201
0000
0000
0001
0000
0000
0301
0000
,  // measure 59
2000
0000
0000
0100
0000
0000
3100
0000
,  // measure 60
0020
0000
0000
0100
0000
0000
0130
0000
,  // measure 61
2000
0000
0000
3010
1000
0010
1000
0000
,  // measure 62
0002
0000
0000
0010
0000
0000
0013
0000
,  // measure 63
0100
1000
0000
1000
0000
0100
1000
0000
,  // measure 64
0200
2300
3020
0230
,  // measure 65
0302
0000
0000
0000
,  // measure 66
0003
0100
0010
0100
0110
0000
1001
0000
,  // measure 67
1000
0001
0100
1000
0100
0001
1000
0010
,  // measure 68
0100
0000
0001
1000
1100
0000
1001
0000
,  // measure 69
0001
1000
0010
0001
0010
1000
0001
0010
,  // measure 70
0100
0000
0010
0001
0101
0000
1001
0000
,  // measure 71
1000
0010
0100
0001
0011
0000
1001
0000
,  // measure 72
0001
0010
0100
1000
1010
0000
1001
0000
,  // measure 73
0001
0100
1000
0100
0001
0010
0001
0100
,  // measure 74
0010
0000
0100
0010
1010
0000
1001
0000
,  // measure 75
0001
1000
0010
0001
0010
0100
0001
1000
,  // measure 76
0010
0000
1000
0010
0110
0000
1001
0000
,  // measure 77
1000
0001
0100
1000
0100
0010
1000
0001
,  // measure 78
0010
0000
0100
0010
0011
0000
1001
0000
,  // measure 79
0001
0100
0010
1000
1100
0000
1001
0000
,  // measure 80
1000
0100
0010
0001
0101
0000
1001
0000
,  // measure 81
0001
0010
1000
0010
0001
1000
0010
0100
,  // measure 82
1000
0100
0010
1000
1001
0000
0220
0000
,  // measure 83
0000
0330
0000
0000
0000
0000
0000
0000
;

//---------------dance-single - ----------------
#NOTES:
     dance-single:
     :
     Challenge:
     14:
     0.736,0.772,0.654,0.106,0.253: // measure 1
0000
0000
0000
0000
,  // measure 2
0000
0000
0000
0000
,  // measure 3
0000
0000
0000
0000
,  // measure 4
0000
0000
0000
0000
,  // measure 5
0000
0000
0000
0000
,  // measure 6
1001
0000
1000
0001
0000
0010
0100
1000
,  // measure 7
0001
0000
1000
0001
0000
0010
0100
1000
,  // measure 8
0010
0100
0010
1000
0000
0001
1000
0100
,  // measure 9
0010
0102
2003
3100
,  // measure 10
1001
0000
0001
1000
0000
0010
0100
0001
,  // measure 11
0010
0000
0001
1000
0000
0010
0100
0001
,  // measure 12
0010
0100
1000
0010
0000
1000
0001
0100
,  // measure 13
0010
0010
0010
0010
0110
0000
0101
0000
,  // measure 14
1001
0000
0001
0100
0001
0000
1000
0000
0010
0000
0001
0000
0010
0000
1000
0000
,  // measure 15
0100
0010
0001
1001
0000
1000
0010
1000
,  // measure 16
0001
0000
0010
0001
0010
0000
0001
0000
0100
0000
1000
0000
0100
0000
0001
0000
,  // measure 17
1000
0100
0010
0011
0000
0100
1000
0010
,  // measure 18
1001
0010
0100
2000
0000
3001
1000
0001
,  // measure 19
0010
0000
0100
0000
1000
0000
0002
0000
0000
0000
0103
0010
0100
0000
0010
0000
,  // measure 20
1000
0100
0001
1000
0010
0001
1000
0010
,  // measure 21
0100
0000
0001
0100
0001
0000
2000
0000
0000
0000
3100
0000
0010
0000
0001
0000
,  // measure 22
0110
0000
0000
0101
0000
0000
0110
0000
,  // measure 23
1001
0000
0000
1100
0000
0000
1100
0000
,  // measure 24
1001
0000
0000
0011
0000
0000
0011
0000
,  // measure 25
1001
0000
0000
1000
0010
0010
0010
0000
,  // measure 26
1001
0000
1000
0001
1000
0000
1000
0000
,  // measure 27
0010
0100
0000
0100
0000
0010
0100
0000
,  // measure 28
1001
0011
0110
1100
,  // measure 29
1002
0000
0000
0000
0103
0100
0110
0000
,  // measure 30
1001
0000
0000
0000
1000
0000
0001
0000
0010
0000
0001
0000
1000
0000
0010
0100
,  // measure 31
0001
0000
1000
0100
1000
0000
0001
0000
0010
0000
0100
0000
1100
0000
0000
0000
,  // measure 32
1001
0000
0000
0000
0001
0000
1000
0000
0010
0000
1000
0000
0001
0000
0010
0100
,  // measure 33
1000
0000
0010
0100
0010
0000
1000
0000
0010
0000
0100
0000
0101
0000
0000
0000
,  // measure 34
1001
0000
1000
0100
0010
0001
0011
0000
,  // measure 35
1001
0000
0000
0000
1000
0000
0100
0000
0010
0000
0001
0100
0001
0000
0100
0000
,  // measure 36
1001
0000
1000
0001
0010
0001
1000
0100
,  // measure 37
0010
0000
0001
0100
0001
0000
0000
0000
0010
0000
0010
0000
0110
0000
0000
0000
,  // measure 38
1001
0000
0000
0000
0001
0000
1000
0000
0100
0000
1000
0000
0001
0000
0010
0100
,  // measure 39
1000
0000
0001
0100
0001
0000
1000
0000
0100
0000
0010
0000
0110
0000
0000
0000
,  // measure 40
1001
0000
0000
0000
1000
0000
0001
0000
0010
0000
0001
0000
1000
0000
0010
0100
,  // measure 41
0001
0000
0100
0010
0100
0000
0001
0000
0010
0000
0100
0000
0110
0000
0000
0000
,  // measure 42
1001
0000
0001
0010
0100
1000
1100
0000
,  // measure 43
1001
0000
0000
0000
0001
0000
0010
0000
0100
0000
1000
0010
1000
0000
0010
0000
,  // measure 44
1001
0000
1000
0010
0100
0010
1000
0001
,  // measure 45
1000
0000
0010
0100
0010
0000
0100
0001
0100
0000
0010
1000
0100
0000
0010
0000
,  // measure 46
1001
0000
2000
0010
3010
0000
2000
0010
,  // measure 47
3010
0000
0100
0000
0100
0000
0100
0001
,  // measure 48
0010
0010
0010
0010
,  // measure 49
0001
0000
1000
0100
0010
0000
0001
0010
0001
0000
1000
0100
1000
0000
0001
0000
,  // measure 50
1001
0000
1000
0010
1000
0000
0001
1000
0001
0000
0010
0000
0100
0000
1000
0000
,  // measure 51
0001
0000
0100
0010
0100
0000
0001
0000
1000
0100
1000
0100
1000
0000
0010
0000
,  // measure 52
0100
0000
0001
1000
0001
0000
1000
0100
1000
0000
0100
0000
0001
0000
0100
0000
,  // measure 53
1000
0100
0000
1000
0100
0000
0010
0000
0001
0100
0001
0000
1000
0000
0100
0000
,  // measure 54
1001
0001
0100
0001
1000
0100
0010
0001
,  // measure 55
1000
0000
0010
1000
0010
0000
1000
0000
0100
0000
0010
0100
0010
0000
0001
0010
,  // measure 56
0001
0000
0100
0010
0000
0100
0010
0000
1000
0000
0001
0010
0000
0001
0010
0000
,  // measure 57
0100
1000
0100
1000
0001
0100
0010
0100
0001
0010
0100
1000
,  // measure 58
0001
0000
0000
0101
0000
0000
0101
0000
,  // measure 59
1001
0000
0000
1100
0000
0000
1100
0000
,  // measure 60
0110
0000
0000
0011
0000
0000
0011
0000
,  // measure 61
1001
0000
0000
1000
0010
0010
0010
0000
,  // measure 62
1001
0000
0001
0010
0001
0000
0001
0000
,  // measure 63
0010
0100
0000
0100
0000
0010
0100
0000
,  // measure 64
1001
1010
0110
0101
,  // measure 65
2002
0000
0000
0000
,  // measure 66
3003
0010
0100
0100
0110
0000
1001
0000
,  // measure 67
1000
0000
0010
0100
0010
0000
1000
0000
0100
0000
0010
0000
0001
0000
0010
0100
,  // measure 68
0010
0001
1000
0010
1010
0000
1001
0000
,  // measure 69
0001
0000
1000
0000
0010
0000
1000
0000
0001
0000
0010
0100
1000
0000
0001
0010
,  // measure 70
0001
0000
1000
0000
0010
0000
0100
0010
0100
0000
0001
0000
1001
0000
0000
0000
,  // measure 71
1000
0100
0010
0001
0011
0000
1001
0000
,  // measure 72
1000
0000
0100
0000
0010
0000
0001
0100
0001
0000
0100
0000
2001
0000
0001
0000
,  // measure 73
3002
0000
0100
0000
0103
0000
0010
0000
1000
0000
0100
0000
0010
0000
0001
1000
,  // measure 74
0001
0000
0100
0100
0110
0000
1001
0000
,  // measure 75
0001
0000
0010
0100
1000
0000
0010
0100
0010
0000
1000
0000
0010
0000
0100
0001
,  // measure 76
0010
0100
1000
0010
1010
0000
1001
0000
,  // measure 77
1000
0000
1000
0000
0010
0000
0010
0000
0100
0000
0001
0100
0010
0000
1000
0001
,  // measure 78
1000
0100
0010
0001
0011
0000
1001
0000
,  // measure 79
1000
0010
0100
0001
0101
0000
1001
0000
,  // measure 80
1000
0000
0010
0000
0100
0000
0001
0010
0001
0000
0100
0000
1001
0000
0000
0000
,  // measure 81
0001
0000
0100
0000
1000
0000
0100
0000
0001
0000
0010
0100
1000
0000
0001
0100
,  // measure 82
0001
0000
1000
0001
1000
0000
0100
0000
0011
0000
0000
0000
0210
0000
0000
0000
,  // measure 83
0000
0310
0000
0000
0000
0000
0000
0000
;

//---------------dance-single - ----------------
#NOTES:
     dance-single:
     :
     Beginner:
     3:
     0.141,0.267,0.147,0.000,0.000: // measure 1
0000
0000
0000
0000
,  // measure 2
0000
0000
0000
0000
,  // measure 3
0000
0000
0000
0000
,  // measure 4
0000
0000
0000
0000
,  // measure 5
0000
0000
0000
0000
,  // measure 6
1001
0000
0000
0000
,  // measure 7
1000
0000
0000
0000
,  // measure 8
0100
0000
0000
0000
,  // measure 9
0010
0000
0000
0000
,  // measure 10
1001
0000
0000
0000
,  // measure 11
0001
0000
0000
0000
,  // measure 12
0010
0000
0000
0000
,  // measure 13
0100
0000
0000
0000
,  // measure 14
1001
0000
0001
0000
,  // measure 15
0001
0000
0000
0000
,  // measure 16
1000
0000
1000
0000
,  // measure 17
1000
0000
0000
0000
,  // measure 18
0110
0000
0000
0000
,  // measure 19
0100
0000
0000
0000
,  // measure 20
0010
0000
0000
0000
,  // measure 21
0100
0000
0000
0000
,  // measure 22
1001
0000
0000
0000
,  // measure 23
0000
0000
0000
0000
,  // measure 24
0000
0000
0000
0000
,  // measure 25
0000
0000
0000
0000
,  // measure 26
0001
0000
0000
0000
,  // measure 27
1000
0000
0000
0000
,  // measure 28
0001
0000
0000
0000
,  // measure 29
1001
0000
0000
0000
,  // measure 30
1000
0000
1000
0000
,  // measure 31
1000
0000
0000
0000
,  // measure 32
0010
0000
0010
0000
,  // measure 33
0010
0000
0000
0000
,  // measure 34
0110
0000
0100
0000
,  // measure 35
0110
0000
0100
0000
,  // measure 36
1001
0000
0001
0000
,  // measure 37
1001
0000
0000
0000
,  // measure 38
0110
0000
0100
0000
,  // measure 39
0100
0000
0000
0000
,  // measure 40
0010
0000
0010
0000
,  // measure 41
0010
0000
0000
0000
,  // measure 42
1001
0000
1000
0000
,  // measure 43
1001
0000
0001
0000
,  // measure 44
1001
0000
1000
0000
,  // measure 45
1000
0000
0000
0000
,  // measure 46
0010
0000
0000
0000
,  // measure 47
0000
0000
0000
0000
,  // measure 48
0000
0000
0000
0000
,  // measure 49
0000
0000
0000
0000
,  // measure 50
1001
0000
1000
0000
,  // measure 51
0001
0000
1000
0000
,  // measure 52
0001
0000
1000
0000
,  // measure 53
0001
0000
1000
0000
,  // measure 54
0100
0000
1000
0000
,  // measure 55
0100
0000
1000
0000
,  // measure 56
0100
0000
1000
0000
,  // measure 57
0010
0000
0010
0000
,  // measure 58
0010
0000
0000
0000
,  // measure 59
0000
0000
0000
0000
,  // measure 60
0000
0000
0000
0000
,  // measure 61
0000
0000
0000
0000
,  // measure 62
1000
0000
0000
0000
,  // measure 63
0001
0000
0000
0000
,  // measure 64
1000
0000
0000
0000
,  // measure 65
0001
0000
0000
0000
,  // measure 66
0000
0000
0000
1001
,  // measure 67
0000
0001
0000
1000
,  // measure 68
0000
0001
0000
1000
,  // measure 69
0000
0100
0000
1000
,  // measure 70
0000
0100
0000
0010
,  // measure 71
0000
0001
0000
0010
,  // measure 72
0000
0001
0000
0100
,  // measure 73
0000
0100
0000
0100
,  // measure 74
0000
0000
0000
1001
,  // measure 75
0000
0001
0000
1000
,  // measure 76
0000
0001
0000
1000
,  // measure 77
0000
0010
0000
1000
,  // measure 78
0000
0010
0000
0100
,  // measure 79
0000
0001
0000
0100
,  // measure 80
0000
0001
0000
1000
,  // measure 81
0000
1000
0000
0100
,  // measure 82
0000
0010
0000
1001
;
