#TITLE:xenon ~Unplugged~;
#SUBTITLE:;
#ARTIST:Mr.T;
#TITLETRANSLIT:xenon ~Unplugged~;
#SUBTITLETRANSLIT:;
#ARTISTTRANSLIT:;
#GENRE:;
#CREDIT:DigiMindAxel;
#BANNER:xenon ~Unplugged~.png;
#BACKGROUND:xenon ~Unplugged~-bg.png;
#LYRICSPATH:;
#CDTITLE:Konami original.png;
#MUSIC:xenon ~Unplugged~.ogg;
#OFFSET:-0.389000;
#SAMPLESTART:30.632000;
#SAMPLELENGTH:12.000000;
#SELECTABLE:YES;
#BPMS:0.000000=94.000000
;
#STOPS:
;
#BGCHANGES:-2.000=xenon ~Unplugged~.avi=1.000=1=0=0=StretchNoLoop==CrossFade==,
99999=-nosongbg-=1.000=0=0=0 // don't automatically add -songbackground-
;
#KEYSOUNDS:;
#ATTACKS:;

//---------------dance-single - ----------------
#NOTES:
     dance-single:
     :
     Beginner:
     1:
     0.084569,0.127505,0.045537,0.000000,0.000000,39.000000,36.000000,3.000000,0.000000,0.000000,0.000000,0.084569,0.127505,0.045537,0.000000,0.000000,39.000000,36.000000,3.000000,0.000000,0.000000,0.000000:
// measure 0
0000
0000
0000
0000
,  // measure 1
0000
0000
0000
0000
,  // measure 2
0000
0000
0000
0000
,  // measure 3
0000
0000
0000
0000
,  // measure 4
0001
0100
0000
0001
,  // measure 5
0000
1000
0000
0001
,  // measure 6
0000
0010
0000
0001
,  // measure 7
0000
0010
0000
0100
,  // measure 8
0000
0010
0000
0100
,  // measure 9
0000
1000
0000
0100
,  // measure 10
0000
1000
0000
0001
,  // measure 11
0000
1000
0100
0010
,  // measure 12
0001
0000
0000
0000
,  // measure 13
1000
0000
0000
0000
,  // measure 14
0001
0000
0000
0000
,  // measure 15
0010
0100
0000
0000
,  // measure 16
1000
0000
0000
0000
,  // measure 17
0010
0000
0000
0000
,  // measure 18
0100
0000
0000
0000
,  // measure 19
0001
1000
0001
0000
,  // measure 20
1001
0000
0000
0000
,  // measure 21
1000
0000
0000
0000
,  // measure 22
1001
0000
0000
0000
,  // measure 23
0010
0000
0100
0100
,  // measure 24
0110
0000
0000
0000
;

//---------------dance-single - ----------------
#NOTES:
     dance-single:
     :
     Medium:
     8:
     0.325267,0.364299,0.015179,0.000000,0.455373,150.000000,149.000000,1.000000,0.000000,0.000000,0.000000,0.325267,0.364299,0.015179,0.000000,0.455373,150.000000,149.000000,1.000000,0.000000,0.000000,0.000000:
0000
0000
0000
0000
,
0000
0000
0000
0000
,
0000
0000
0000
0000
,
0000
0000
0000
0000
,
1000
0010
0001
0010
1000
0100
0010
0000
,
0001
1000
0000
0001
1000
0000
0000
0100
0000
0000
1000
0000
0001
0000
0001
0000
,
1000
0100
0001
0100
1000
0010
0100
0000
,
0001
1000
0000
0001
1000
0000
0000
0010
0000
0100
0000
0000
0001
1000
0001
1000
,
0001
0000
0010
0000
1000
0000
0010
0000
0001
0000
1000
0010
0000
0000
0000
0000
,
1000
0001
0000
1000
0001
0000
0000
0010
0000
0000
0001
0000
1000
0000
1000
0000
,
0001
0000
0100
0000
1000
0000
0100
0000
0001
0000
0010
0100
0000
0000
0000
0000
,
1000
0001
0000
1000
0001
0000
0000
0010
0000
0100
0000
0000
1000
0001
1000
0001
,
1000
0000
0000
0010
0000
0100
0000
0000
0001
0000
0000
0010
0000
0000
1000
0000
,
0010
0000
0000
0001
0000
1000
0000
0000
0001
0000
0000
0100
0000
1000
0000
0000
,
0100
0000
0000
0001
0000
0000
1000
0000
0010
0000
0000
0100
0000
0001
0000
0000
,
0010
0000
0000
0000
0100
0000
0000
1000
0000
0000
0000
0000
0001
1000
0001
1000
,
0001
0000
0000
0100
0000
0010
0000
0000
1000
0000
0000
0100
0000
0000
0001
0000
,
0100
0000
0000
1000
0000
0001
0000
0000
1000
0000
0000
0010
0000
0100
0000
0000
,
0001
0000
0000
0010
0000
0001
0000
0000
1000
0000
0000
0100
0000
1000
0000
0000
,
0010
0000
0000
0000
0100
0000
0000
0001
0000
0000
0000
0000
1000
0001
1000
0001
,
1000
0000
0000
0000
0000
0000
0001
0010
0100
1000
0001
0000
0100
0001
1000
0100
,
0010
0000
0000
0000
0000
0000
0001
0010
0100
1000
0100
0010
,
0001
0000
0000
1000
0000
0000
1001
0000
0000
0000
0010
0000
0100
0000
0010
0000
,
0001
0000
0000
0000
0100
0000
0010
0100
0010
0000
1000
0001
1000
0001
1000
0001
,
1000
0000
0000
0000
;

//---------------dance-single - ----------------
#NOTES:
     dance-single:
     :
     Easy:
     3:
     0.169139,0.255009,0.060716,0.212508,0.000000,78.000000,74.000000,4.000000,14.000000,0.000000,0.000000,0.169139,0.255009,0.060716,0.212508,0.000000,78.000000,74.000000,4.000000,14.000000,0.000000,0.000000:
0000
0000
0000
0000
,
0000
0000
0000
0000
,
0000
0000
0000
0000
,
0000
0000
0000
0000
,
0001
0000
0010
0000
,
0001
0001
1000
1000
,
0010
0000
1000
0000
,
0001
0000
0001
0000
1001
0000
1000
0001
,
1000
1000
0010
0010
,
0100
0001
0010
0100
,
1000
1000
0010
0010
,
1000
0000
0100
0000
0010
0000
0001
1000
,
0002
0000
2003
0000
,
3200
0000
0320
0000
,
0032
0000
0203
0000
,
0310
0000
1000
0001
1000
0000
0001
1000
,
0002
0000
0023
0000
,
0230
0000
2300
0000
,
3020
0000
0230
0000
,
0301
1000
0001
0000
1000
0001
1000
0000
,
1001
0000
0000
0000
0001
1000
0001
1000
,
0100
0000
0020
0032
,
1003
0000
0000
1001
0000
1000
0100
0010
,
0001
0000
0100
0010
0100
0010
1000
0000
,
1001
0000
0000
0000
;

//---------------dance-single - ----------------
#NOTES:
     dance-single:
     :
     Hard:
     11:
     0.446700,0.546448,0.136612,0.349120,0.857620,206.000000,197.000000,9.000000,23.000000,0.000000,0.000000,0.446700,0.546448,0.136612,0.349120,0.857620,206.000000,197.000000,9.000000,23.000000,0.000000,0.000000:
0000
0000
0000
0000
,
0000
0000
0000
0000
,
0000
0000
0000
0000
,
0000
0000
0000
0000
,
1000
0010
0000
0001
0000
0010
0000
0200
0000
0301
0010
0100
1000
0000
0001
0100
,
0001
1000
0000
0100
1000
0100
0000
0020
0000
0000
0031
0000
0100
0000
0110
0000
,
1000
0010
0000
0001
0000
0010
0000
0200
0000
0301
1000
0020
0000
0000
1030
0100
,
1000
0001
0000
0010
0100
0010
0000
1001
0000
0000
1000
0000
0100
0010
0100
0010
,
0100
1000
0000
0001
0000
0100
0000
2000
0000
3100
0001
0010
0100
0000
1000
0000
,
0001
0010
0000
1000
0010
1000
0000
0010
0001
0100
0000
0000
0010
0000
1010
0000
,
0100
0001
0000
1000
0000
0100
0000
0002
0000
0103
1000
0010
0100
0001
0100
0001
,
1000
0100
0000
0001
0100
0001
0100
1000
0000
0010
0000
0000
0100
0010
0100
0010
,
0200
0000
0000
0000
0000
0000
0301
0000
0000
0000
0100
0000
0000
0000
0000
0000
2000
0000
0000
0000
0000
0000
3010
0000
0000
0000
0000
0001
0010
0000
0000
0000
,
0200
0000
0000
1300
0000
0010
0000
0000
0002
0000
0000
0103
0000
1000
0000
0000
,
0200
0000
0000
0320
0000
0000
0031
0000
0200
0000
0000
0310
0000
2000
0000
0000
,
3100
0010
0000
0001
0100
0001
0010
0100
0000
1000
0010
0000
0100
0010
0100
0010
,
0200
0000
0000
0000
0000
0000
0301
0000
0000
0000
0010
0000
0000
0000
0000
0000
2000
0000
0000
0000
0000
0000
3100
0000
0000
0000
0000
0001
0010
0000
0000
0000
,
0200
0000
0000
1300
0000
0010
0000
0000
0002
0000
0000
0103
0000
1000
0000
0000
,
0020
0000
0000
1030
0000
0100
0000
0000
0020
0000
0000
0031
0000
0200
0000
0000
,
0310
1000
0000
0001
0010
0001
1000
0010
0000
0100
0001
0000
1000
0100
1000
0100
,
2000
0000
0000
0001
0000
0000
3001
1000
0100
0010
0001
0100
1000
0100
0001
0010
,
0001
0000
0000
0000
0000
0000
1000
0000
0000
0000
0000
0000
0002
0000
0000
0000
0000
0000
0000
0000
0000
0000
0000
0000
0000
0000
0000
0000
0000
0000
0000
0000
0000
0000
0000
0000
1000
0000
0000
0000
0000
0000
0000
0000
0000
0000
0000
0000
0000
0000
0000
0000
0000
0000
0000
0000
0000
0000
0000
0000
0000
0000
0000
0000
0000
0000
0000
0000
0000
0000
0000
0000
1003
0000
0000
0000
0000
0000
0000
0000
0000
0000
0000
0000
0001
0000
0000
0000
0000
0000
0000
0000
0000
0000
0000
0000
1000
0000
0000
0000
0000
0000
0000
0000
0000
0000
0000
0000
0000
0000
0000
0000
0100
0000
0000
0000
0000
0000
0000
0000
0000
0000
0000
0000
0000
0000
0000
0000
0001
0000
0000
0000
0000
0000
0000
0000
0000
0000
0000
0000
0000
0000
0000
0000
1000
0000
0000
0000
0000
0000
0000
0000
0000
0000
0000
0000
0000
0000
0000
0000
0010
0000
0000
0000
0000
0000
0000
0000
0000
0000
0000
0000
0000
0000
0000
0000
0001
0000
0000
0000
0000
0000
0000
0000
0000
0000
0000
0000
0000
0000
0000
0000
,
1000
0010
0000
0110
0000
0000
0101
0000
0000
0000
1100
0000
0100
0000
0101
0000
,
1001
0000
0000
0000
0000
0000
0000
0000
0000
1000
0000
0000
0001
0000
0010
0000
0100
0000
1000
0000
0100
0000
0010
0000
0001
0000
0100
0000
0010
0000
0100
0000
0001
0000
0010
0000
0100
0000
0000
1000
0000
0000
0000
0000
0000
0000
0000
0000
,
1001
0000
0000
0000
;
