#TITLE:wanna be a "BAD GIRL" feat. Nana Takahashi;
#SUBTITLE:;
#ARTIST:Nhato;
#TITLETRANSLIT:;
#SUBTITLETRANSLIT:;
#ARTISTTRANSLIT:;
#GENRE:;
#CREDIT:DigiMindAxel;
#BANNER:wanna be a ''BAD GIRL'' feat. Nana Takahashi.png;
#BACKGROUND:wanna be a ''BAD GIRL'' feat. Nana Takahashi-bg.png;
#LYRICSPATH:wanna be a ''BAD GIRL'' feat. Nana Takahashi.lrc;
#CDTITLE:beatmania IIDX.png;
#MUSIC:wanna be a ''BAD GIRL'' feat. Nana Takahashi.ogg;
#OFFSET:-1.014000;
#SAMPLESTART:46.996243;
#SAMPLELENGTH:12.000000;
#SELECTABLE:YES;
#BPMS:0.000000=142.000000
;
#STOPS:
;
#BGCHANGES:;
#KEYSOUNDS:;
#ATTACKS:;

//---------------dance-single - ----------------
#NOTES:
     dance-single:
     :
     Easy:
     7:
     0.253268,0.393082,0.360993,0.120331,0.000000,221.000000,176.000000,45.000000,15.000000,0.000000,0.000000,0.253268,0.393082,0.360993,0.120331,0.000000,221.000000,176.000000,45.000000,15.000000,0.000000,0.000000:
0000
0000
0000
0000
,
0000
0000
0000
0000
,
0000
0000
0000
0000
,
0000
0000
0000
0000
,
1001
1001
0010
0000
,
0100
1000
0100
1000
,
0002
0000
0203
0000
,
0320
0000
0100
0130
,
1001
1001
0100
0000
,
0001
0010
0001
1000
,
0002
0000
2003
0000
,
3020
0000
0100
0130
,
1001
0000
0001
0000
,
1000
0100
0010
0001
,
0100
0100
0100
0100
,
0010
0010
0010
0010
,
1000
0001
0010
0100
,
1000
0001
0100
0001
,
1000
1000
1000
1000
,
0002
0000
0000
0003
,
1001
0000
0001
1000
,
0100
0000
1000
1000
,
0001
0010
0100
1000
,
0001
0000
0100
0100
,
0001
0000
1000
0000
0100
0000
0000
1000
,
0000
0000
0000
0001
0000
0000
0000
0000
,
1001
0000
0000
0000
0000
0000
0000
1001
,
0000
0000
0000
0000
,
1001
1001
1001
0000
,
0010
0100
0010
0000
,
1000
0100
0010
0001
,
1000
0000
0001
0000
,
1001
0000
0000
0110
,
0000
0000
0010
0010
,
2000
0000
0000
0000
,
3001
1001
1001
1001
,
0200
0000
0000
0000
,
0320
0000
0000
0000
,
0230
0000
0000
0000
,
0302
0000
0000
0000
,
1003
0000
1000
0000
,
0100
0000
0100
0000
,
1000
0001
1000
0001
,
1000
0000
1001
0000
,
1001
0000
0001
0100
,
0001
0000
1000
0100
,
0010
0001
0010
0001
,
1000
0000
1001
0000
,
1001
0000
0000
0000
0000
0000
0000
1000
,
0000
0000
0000
0001
0000
0000
0000
0000
,
1001
0000
0000
0000
0000
0000
0000
1001
,
0000
0000
0000
0000
,
1001
1001
1001
0000
,
0100
0010
0100
0000
,
0001
0010
0100
1000
,
0001
0100
0001
0001
,
1001
0000
0000
0110
,
0000
0000
1001
1001
,
0020
0000
0000
0000
,
0130
1001
1001
1001
,
0110
0110
0110
0000
,
0010
0100
0010
0000
,
1000
0100
0010
0001
,
1000
0010
0110
0110
,
0110
0000
0000
1001
,
0000
0000
1001
1001
,
0001
0010
0001
0100
,
0010
0110
0110
0110
,
2000
0000
0000
0000
,
3020
0000
0130
0000
,
1001
0000
0000
0000
;

//---------------dance-single - ----------------
#NOTES:
     dance-single:
     :
     Medium:
     10:
     0.412564,0.477314,0.713965,0.152419,0.004011,360.000000,271.000000,89.000000,19.000000,0.000000,0.000000,0.412564,0.477314,0.713965,0.152419,0.004011,360.000000,271.000000,89.000000,19.000000,0.000000,0.000000:
0000
0000
0000
0000
,
0000
0000
0000
0000
,
0000
0000
0000
0000
,
0000
0000
0000
0000
,
1100
0000
1100
0000
0010
0001
1000
0010
,
0000
1000
0001
0000
0010
0000
0100
0000
,
1000
1000
0010
0000
0100
0100
0001
0000
,
0010
0010
0100
0000
1010
0000
0110
0000
,
0101
0000
0101
0000
0010
0000
1000
0100
,
0000
0010
0001
0000
0100
0000
0010
0000
,
1000
1000
0100
0000
0010
0010
0001
0000
,
0010
0010
0100
0000
1010
0000
1010
0000
,
1001
0020
1000
0130
,
0001
0010
0100
0000
1000
0100
0010
0000
,
1001
0000
0010
0010
0001
0000
0100
0100
,
0010
0000
1000
1000
0100
0000
0010
0010
,
0001
0200
0010
0301
,
1000
0010
0100
0000
0010
0100
0001
0000
,
1001
0000
0010
0010
1000
0000
0001
0001
,
0100
0010
0100
0000
0100
0001
1000
0000
,
1001
0000
0010
0100
0001
0000
1000
0100
,
0000
0010
0001
0000
0100
0000
0110
0000
,
0001
0010
0100
0000
1000
0000
0010
1000
,
0000
0001
0000
0000
1001
0000
1001
0000
,
0101
0000
1010
0000
0100
0000
0001
1000
,
0000
0100
0000
0011
0000
0000
0000
0000
,
1001
0000
0100
0000
0011
0000
0000
2002
,
0000
0000
0000
3003
,
0110
0110
0110
0000
,
0101
0110
0101
0000
,
0010
0000
1000
0001
0000
0010
0000
0100
,
0000
0000
1010
1010
,
2002
0000
3003
0220
,
0000
0330
0011
0011
,
0200
0000
0000
0000
,
1300
1001
1001
1001
,
0020
0000
1030
1001
,
0200
0000
0301
1001
,
0200
0000
1300
0020
,
0230
0000
0301
2000
,
3001
0010
0001
0010
,
0100
1000
0100
1000
,
0010
0100
0010
0100
0001
1000
0100
1000
,
0001
0000
1001
0110
,
1001
0100
0010
0001
,
0100
0001
0010
0000
0100
0100
0010
0000
,
0001
0000
0101
0000
1010
0000
1000
0001
,
0010
0100
0000
0000
1100
0000
1100
0000
,
1001
0000
0110
0000
1000
0000
0100
1000
,
0000
0100
0000
0011
0000
0000
0000
0000
,
1001
0000
0100
0000
0011
0000
0000
2002
,
0000
0000
0000
3003
,
0110
0110
0110
0001
,
0011
0011
0011
0100
,
1000
0000
0001
0100
0000
0001
0000
1100
,
0000
0010
0101
0101
,
1001
0000
0000
1100
0000
0000
0110
0000
,
0000
0011
0000
0000
1001
0000
1001
0000
,
0200
0000
0000
1000
,
1300
1001
1001
1001
,
0101
0101
0101
1000
,
1010
1010
1010
0001
,
1000
0000
0100
0010
0000
0001
0000
2000
,
0000
3010
0110
0110
,
1001
0000
0000
0011
0000
0000
1001
0000
,
0000
1100
0000
0000
1001
0000
1001
0000
,
0010
0001
0010
0001
0100
0000
0100
0000
,
0110
1001
0110
1001
,
0110
0000
0000
0000
1000
0000
0100
0000
0010
0000
0000
0000
0001
0000
0000
0010
,
0000
0100
0010
0000
0001
0100
0010
1000
,
1001
0000
0000
0000
;

//---------------dance-single - ----------------
#NOTES:
     dance-single:
     :
     Hard:
     11:
     0.497369,0.505391,0.449236,0.152419,0.168464,434.000000,378.000000,56.000000,19.000000,0.000000,0.000000,0.497369,0.505391,0.449236,0.152419,0.168464,434.000000,378.000000,56.000000,19.000000,0.000000,0.000000:
// measure 0
0000
0000
0000
0000
,  // measure 1
0000
0000
0000
0000
,  // measure 2
0000
0000
0000
0000
,  // measure 3
0000
0000
0000
0000
,  // measure 4
0101
0000
0000
0000
1001
0000
0000
0000
1000
0000
0010
0100
0000
0000
0010
0000
,  // measure 5
0000
0000
0010
0000
1000
0000
0100
0000
0010
0000
0001
0010
0000
0000
0100
0000
,  // measure 6
1000
0010
0001
0010
1000
0100
0001
0100
,  // measure 7
1000
0010
0100
0001
1000
0100
0010
0000
,  // measure 8
0101
0000
0000
0000
1001
0000
0000
0000
0001
0000
0100
0010
0000
0000
0100
0000
,  // measure 9
0000
0000
0100
0000
0001
0000
0010
0000
0100
0000
1000
0100
0000
0000
0010
0000
,  // measure 10
0001
0100
1000
0100
0001
0010
1000
0010
,  // measure 11
0001
0010
0100
1000
0010
0100
0101
0000
,  // measure 12
1001
0000
0100
0000
0010
0000
0001
0000
1000
0000
0010
1000
0000
0000
0001
0000
,  // measure 13
0000
0000
0001
0000
1000
0100
0000
0010
0001
0000
0010
0000
0000
0000
0100
0000
,  // measure 14
1000
0010
0001
0010
1000
0100
0001
0100
,  // measure 15
1000
0010
0001
0010
0100
0001
1000
0010
,  // measure 16
1001
0000
0010
0000
0100
0000
1000
0000
0010
0000
1000
0001
0000
0000
0001
0000
,  // measure 17
0000
0000
0001
0000
1000
0100
0000
0010
0001
0000
0010
0000
0000
0000
0100
0000
,  // measure 18
1000
0010
0001
0010
1000
0100
0001
0100
,  // measure 19
1001
0001
0001
0000
0100
0010
0100
0001
,  // measure 20
1001
0000
1000
0001
0200
0000
0301
2000
,  // measure 21
0000
0000
3010
0000
0010
0100
0000
0000
0001
0000
0001
1000
0000
0000
0000
0000
,  // measure 22
0001
0100
0001
1000
0010
0001
0010
2000
,  // measure 23
0000
0100
0000
0000
3001
0000
1001
0000
,  // measure 24
0011
0000
1001
0000
2000
0000
3010
0110
,  // measure 25
0000
0100
0000
1001
0000
0010
0100
0001
,  // measure 26
2001
0000
0100
0000
3001
0010
0100
2002
,  // measure 27
0000
0000
0000
3003
,  // measure 28
0010
0100
0010
0100
0010
0100
0000
0001
,  // measure 29
1000
0100
1000
0100
1000
0100
0000
0010
,  // measure 30
0001
0000
0100
1000
0000
0100
0000
0002
,  // measure 31
0000
0000
1003
1100
,  // measure 32
1001
0000
0000
0010
0000
0000
0100
0000
0000
1000
0000
0000
1001
0000
0000
0010
,  // measure 33
0000
0000
0100
0000
0000
1000
0000
0000
1001
0000
0000
0000
0020
0000
0200
0000
,  // measure 34
0000
0000
0000
0330
,  // measure 35
0100
0110
0110
1001
,  // measure 36
0001
0100
1100
1001
,  // measure 37
0100
0000
0000
1000
0000
0000
0010
0100
0010
0100
0001
0100
,  // measure 38
0001
1000
0100
0011
,  // measure 39
1001
0010
0100
0101
,  // measure 40
1001
0000
0000
1000
0010
0100
0001
0000
0000
1000
0000
0000
,  // measure 41
0010
0000
0000
0010
0000
0000
0010
0000
0100
0000
0000
0100
0000
0000
0100
0000
,  // measure 42
0001
0010
0001
0100
0010
1000
0100
0010
,  // measure 43
0001
0000
0000
0000
0000
0000
0100
0010
0100
0010
0100
0010
,  // measure 44
0100
0000
0001
1000
0100
1000
0001
0200
,  // measure 45
0000
0000
0310
0000
0010
1000
0000
0000
0100
0000
0100
0010
0000
0000
0000
0000
,  // measure 46
0001
0100
0010
1000
0100
0000
0001
0100
,  // measure 47
1000
0002
0000
0000
0013
0000
1100
0000
,  // measure 48
1001
0000
1000
0001
0100
0001
1000
1100
,  // measure 49
0000
0100
0000
0101
0000
0010
0100
0001
,  // measure 50
1000
0100
0010
0100
1000
0010
0100
2002
,  // measure 51
0000
0000
0000
3003
,  // measure 52
0100
0010
0100
0010
0100
0010
0000
0001
,  // measure 53
1000
0100
1000
0100
1000
0100
0000
1000
,  // measure 54
0001
0010
0100
1000
0000
1000
0000
2020
,  // measure 55
0000
3030
0110
0110
,  // measure 56
1001
0000
0000
0100
0000
0000
0010
0000
0000
0001
0000
0000
1001
0000
0000
0100
,  // measure 57
0000
0000
0010
0000
0000
0001
0000
0000
1001
0000
0000
0000
0020
0000
0200
0000
,  // measure 58
0000
0000
0000
0000
,  // measure 59
0330
0011
1100
0011
,  // measure 60
0100
0010
0100
0010
0100
0010
0000
0001
,  // measure 61
1000
0010
1000
0010
1000
0010
0000
1000
,  // measure 62
0001
0010
0100
0010
0001
0100
0000
1010
,  // measure 63
0000
0000
0100
0000
0000
0010
0000
0000
0101
0000
0000
0000
0101
0000
0000
0000
,  // measure 64
1001
0000
0000
0010
0000
0000
0100
0000
0000
1000
0000
0000
1001
0000
0000
0010
,  // measure 65
0000
0000
0100
0000
0000
1000
0000
0000
1001
0000
0000
0000
1001
0000
0002
0000
,  // measure 66
0000
0013
1000
0010
0001
0100
0010
0100
,  // measure 67
0101
0110
0101
0110
,  // measure 68
1001
0000
0000
0000
0001
0000
0100
0000
0001
0000
0000
0010
0000
0000
0100
0000
,  // measure 69
0000
1000
0000
0000
0010
0000
0000
0000
0100
0000
0000
0001
0000
0000
1000
0000
,  // measure 70
1010
0000
0000
0000
;

//---------------dance-single - ----------------
#NOTES:
     dance-single:
     :
     Challenge:
     13:
     0.634890,0.673854,0.617700,0.200552,0.529457,554.000000,477.000000,77.000000,25.000000,0.000000,0.000000,0.634890,0.673854,0.617700,0.200552,0.529457,554.000000,477.000000,77.000000,25.000000,0.000000,0.000000:
// measure 0
0000
0000
0000
0000
,  // measure 1
0000
0000
0000
0000
,  // measure 2
0000
0000
0000
0000
,  // measure 3
0000
0000
0000
0000
,  // measure 4
1100
0000
0000
0000
0011
0000
0000
0000
0001
0000
1000
0010
0000
0000
1001
0000
,  // measure 5
0000
0000
0001
0000
0100
0000
0001
0000
1000
0000
0100
1000
0000
0001
0100
0000
,  // measure 6
0001
0000
1000
0100
1000
0100
1000
0000
0001
1000
0001
0000
0010
0001
0000
0100
,  // measure 7
0000
0000
0001
1000
0001
1000
0001
0000
0100
0000
0100
0000
0110
0000
0000
0000
,  // measure 8
1010
0000
0000
0000
0101
0000
0000
0000
0001
0000
1000
0100
0000
0000
1001
0000
,  // measure 9
0000
0000
0001
0000
0100
0000
0001
0000
1000
0000
0100
0010
0000
0001
0100
0000
,  // measure 10
0001
0000
1000
0100
1000
0100
1000
0000
0001
1000
0001
0000
0100
0010
0000
1000
,  // measure 11
0000
0000
0001
1000
0001
1000
0001
0000
0100
0000
0100
0000
0110
0000
0000
0000
,  // measure 12
1001
0000
0000
0000
1020
0000
0000
0000
0100
0000
0000
0100
0000
0000
0031
0000
,  // measure 13
0000
0000
0010
0000
1000
0100
0000
0100
0010
0000
0010
0001
0000
0000
0100
0010
,  // measure 14
1000
0000
0001
0010
0001
0010
0001
0000
1000
0001
1000
0000
0010
0100
0000
0001
,  // measure 15
0000
0000
1000
0100
1000
0100
1000
0000
0001
1000
0001
0000
0100
0000
0010
1000
,  // measure 16
0001
0000
0000
0000
0201
0000
0000
0000
0010
0000
0000
0010
0000
0000
1300
0000
,  // measure 17
0000
0000
0100
0000
0001
0010
0000
0010
0100
0000
0100
1000
0000
0000
0010
0100
,  // measure 18
0001
0000
1000
0001
1000
0001
1000
0000
0100
1000
0100
0000
0010
0000
0001
1000
,  // measure 19
0010
0000
0010
0000
0010
0000
0000
0000
0100
0010
0100
0010
0100
0010
0100
0010
,  // measure 20
0100
0000
0001
0010
0100
1000
0001
0200
,  // measure 21
0000
0000
0301
1000
0001
1000
0000
0000
0100
0010
0100
0010
0000
0000
0000
0000
,  // measure 22
0001
1000
1100
0010
1001
0010
0100
1010
,  // measure 23
0000
0000
0102
0000
0000
0000
0000
0000
1003
0000
0000
0000
1001
0000
0010
0100
,  // measure 24
0010
0000
1001
0010
0100
0001
1000
1100
,  // measure 25
0000
0001
0000
0011
0000
0100
1000
0001
,  // measure 26
1001
0100
0010
0001
1001
0010
0100
1001
,  // measure 27
0000
0010
0010
0110
,  // measure 28
1000
0001
0100
0000
0001
1000
0100
0000
1000
0001
0100
0000
0000
0000
1002
0000
,  // measure 29
0000
0000
1003
0001
0010
0000
0100
1000
0001
0000
0100
0000
0000
0000
0001
0000
,  // measure 30
1000
0100
1000
1010
0000
0010
0000
0101
,  // measure 31
0010
0100
1000
0001
0101
0000
0110
0000
,  // measure 32
1002
0000
0000
0100
0000
0000
0010
0000
0000
0103
0000
0000
2001
0000
0000
0010
,  // measure 33
0000
0000
0100
0000
0000
3010
0000
0000
1001
0000
0000
0000
1100
0000
2002
0000
,  // measure 34
0000
0000
0000
0000
0000
0000
0000
0000
0000
0000
3003
0000
0001
1000
0001
1000
,  // measure 35
0001
0011
0110
1100
,  // measure 36
1000
0000
0000
0001
0100
0001
1000
0000
0000
1100
0000
0000
,  // measure 37
0010
0001
0010
0001
1000
0001
1000
1000
0010
0010
0100
0100
,  // measure 38
0001
0000
0000
1000
0100
1000
0001
0000
0000
0100
0001
0010
,  // measure 39
0100
1000
0010
1000
0001
1000
0100
0010
0001
0100
0000
0000
,  // measure 40
1001
0000
0000
0001
0100
0001
1000
0000
0000
1100
0000
0000
,  // measure 41
0020
0000
0000
0001
0000
0000
0031
0000
0200
0000
0000
1000
0000
0000
1300
0000
,  // measure 42
0001
0000
0001
0000
0100
0000
0100
0000
0010
1000
0010
1000
0001
0010
0001
0010
,  // measure 43
0100
0000
0000
0000
0000
0000
1000
1000
0010
0010
0100
0100
,  // measure 44
0001
0100
0001
1000
0100
0010
0001
2000
,  // measure 45
0000
0000
3010
0100
0010
0100
0000
0000
0001
0100
0001
0100
0000
0000
0000
0000
,  // measure 46
0001
0010
0001
1000
0010
0100
0001
1000
,  // measure 47
0000
2001
0000
0000
3010
0000
0101
0000
,  // measure 48
0110
0000
1001
0010
0100
1000
0001
0101
,  // measure 49
0000
1000
0000
1010
0000
0100
0001
0010
,  // measure 50
1001
0100
0010
0001
1001
0100
0010
1001
,  // measure 51
0000
0100
0100
0110
,  // measure 52
1000
0001
0100
0000
0001
1000
0100
0000
1000
0001
0100
0000
0000
0000
1002
0000
,  // measure 53
0000
0000
1003
0000
0001
0010
0100
0000
1000
0100
0010
0000
0000
0000
1001
0000
,  // measure 54
0010
0100
1000
1010
0000
0100
0000
0202
,  // measure 55
0000
0303
0110
0110
,  // measure 56
1002
0000
0000
0100
0000
0000
0010
0000
0000
0103
0000
0000
2001
0000
0000
0100
,  // measure 57
0000
0000
0010
0000
0000
3100
0000
0000
1001
0000
0000
0000
1100
0000
2002
0000
,  // measure 58
0000
0000
0000
0000
0000
0000
0000
0000
0000
0000
3003
0000
1000
0001
1000
0001
,  // measure 59
1000
1100
0110
0011
,  // measure 60
0001
1000
0010
0000
1000
0001
0010
0000
0001
1000
0010
0000
0000
0000
2001
0000
,  // measure 61
0000
0000
3001
0000
0010
0100
1000
0000
0100
0010
0001
0000
0000
0000
1000
0000
,  // measure 62
0010
1000
0001
0010
0100
1000
0000
1002
,  // measure 63
0000
0000
0023
0000
0000
0130
0000
0000
1100
0000
0000
0000
0101
0000
0000
0000
,  // measure 64
1002
0000
0000
0010
0000
0000
0100
0000
0000
0013
0000
0000
2001
0000
0000
0100
,  // measure 65
0000
0000
0010
0000
0000
3100
0000
0000
1001
0000
0000
0000
1001
0000
0101
0000
,  // measure 66
0000
0001
0100
1000
0100
0001
0100
0010
,  // measure 67
1001
0101
0110
1010
,  // measure 68
1001
0000
0000
0000
1000
0010
0100
0001
1000
0100
0000
1000
0001
0000
1000
0100
,  // measure 69
0000
1000
0000
0001
0100
0001
0000
0000
0100
0010
0000
1000
0100
1000
0000
0001
,  // measure 70
1000
0000
0000
0000
;

//---------------dance-single - ----------------
#NOTES:
     dance-single:
     :
     Beginner:
     2:
     0.108871,0.196541,0.160442,0.000000,0.000000,95.000000,75.000000,20.000000,0.000000,0.000000,0.000000,0.108871,0.196541,0.160442,0.000000,0.000000,95.000000,75.000000,20.000000,0.000000,0.000000,0.000000:
0000
0000
0000
0000
,
0000
0000
0000
0000
,
0000
0000
0000
0000
,
0000
0000
0000
0000
,
1001
0000
0000
0000
,
1000
0000
0000
0000
,
0100
0000
0100
0000
,
0100
0000
0000
0000
,
1001
0000
0000
0000
,
0001
0000
0000
0000
,
0010
0000
0010
0000
,
0010
0000
0000
0000
,
1001
0000
0000
0000
,
0001
0000
0000
0000
,
0100
0000
0100
0000
,
0100
0000
0000
0000
,
1001
0000
0000
0000
,
1000
0000
0000
0000
,
0010
0000
0010
0000
,
0010
0000
0000
0000
,
0110
0000
0000
0000
,
0100
0000
0000
0000
,
0010
0000
0000
0000
,
0100
0000
0000
0000
,
0001
0000
0000
0000
,
1000
0000
0000
0000
,
0001
0000
0000
0000
,
0000
0000
0000
0000
,
1001
0000
1000
0000
,
0001
0000
1000
0000
,
0001
0000
1000
0000
,
0001
0000
0000
0000
,
0110
0000
0000
0000
,
0000
0000
0000
0000
,
1001
0000
0000
0000
,
1001
0000
1001
0000
,
1000
0000
0000
0000
,
0100
0000
0000
0000
,
0010
0000
0000
0000
,
0001
0000
0000
0000
,
1000
0000
0000
0000
,
1000
0000
0000
0000
,
0001
0000
0000
0000
,
0001
0000
0000
0000
,
0100
0000
0010
0000
,
0100
0000
0000
0000
,
0001
0000
1000
0000
,
0001
0000
0000
0000
,
1000
0000
0000
0000
,
0000
0000
0000
0000
,
1001
0000
0000
0000
,
0000
0000
0000
0000
,
1001
0000
1001
0000
,
0001
0000
0100
0000
,
0001
0000
0000
0000
,
0000
0000
0000
0000
,
1001
0000
0000
0010
,
0000
0000
0100
0000
,
0000
0000
0000
0000
,
0000
1000
0000
0000
,
1001
0000
1001
0000
,
1000
0000
0000
0000
,
0100
0000
0000
0000
,
1000
0000
0000
0000
,
0001
0000
0000
0100
,
0000
0000
0010
0000
,
0000
0000
0000
0000
,
1001
0000
1001
0000
,
1001
0000
0000
0000
,
0000
0000
0000
0000
,
0110
0000
0000
0000
;
