#TITLE:to the Heaven "Driven Beat remix";
#SUBTITLE:;
#ARTIST:dai / mixed. cranky;
#TITLETRANSLIT:;
#SUBTITLETRANSLIT:;
#ARTISTTRANSLIT:;
#GENRE:;
#CREDIT:DigiMindAxel;
#BANNER:to the Heaven ''Driven Beat remix''.png;
#BACKGROUND:to the Heaven ''Driven Beat remix''-bg.png;
#LYRICSPATH:;
#CDTITLE:DigiMindAxel original simfile.png;
#MUSIC:to the Heaven ''Driven Beat remix''.ogg;
#OFFSET:-1.040000;
#SAMPLESTART:25.022717;
#SAMPLELENGTH:12.000000;
#SELECTABLE:YES;
#BPMS:0.000000=160.000000
;
#STOPS:
;
#BGCHANGES:0.000=to the Heaven ''Driven Beat remix''.avi=1.000=1=0=0=StretchNoLoop==CrossFade==,
99999=-nosongbg-=1.000=0=0=0 // don't automatically add -songbackground-
;
#KEYSOUNDS:;
#ATTACKS:;

//---------------dance-single - ----------------
#NOTES:
     dance-single:
     :
     Easy:
     4:
     0.216984,0.286004,0.064634,0.183128,0.000000,141.000000,135.000000,6.000000,17.000000,0.000000,0.000000,0.216984,0.286004,0.064634,0.183128,0.000000,141.000000,135.000000,6.000000,17.000000,0.000000,0.000000:
0000
0000
0000
0000
,
0000
0000
0000
0000
,
0000
0000
0000
0000
,
0000
0000
0000
0000
,
1000
0001
1000
0100
,
0010
0010
0010
0000
,
0001
1000
0001
0010
,
0100
0100
0100
0000
,
1000
0001
1000
0010
,
0100
0100
0100
0000
,
0001
1000
0001
0100
,
0010
0010
0010
0000
,
2000
0000
0000
0000
,
3002
0000
0000
0000
,
2003
0000
0000
0000
,
3002
0000
0000
0000
,
1003
0200
0000
0000
,
0000
0000
0310
0000
,
0002
0000
0000
0000
,
0203
0000
0000
0300
,
0002
0000
0000
0000
,
0000
0000
0203
0000
,
0320
0000
0000
0000
,
1030
1000
0001
0001
,
2000
0000
0000
0000
,
3000
0010
0000
0010
,
0200
0000
0000
0000
,
0302
0000
0000
0000
,
2003
0000
0000
0000
,
3200
0000
0000
0000
,
2300
0000
0000
0000
,
3010
0100
0010
0100
,
0001
0000
0000
1001
0000
0000
0000
0000
,
0000
1000
0000
0000
1001
0000
0000
0000
,
1001
0000
0000
0000
,
0010
0010
0100
0100
,
0001
0000
0000
1001
0000
0000
0000
0000
,
0000
1000
0000
0000
1001
0000
0000
0000
,
0001
0010
0100
1000
,
0100
0100
0010
0010
,
0001
0100
0001
1000
,
0100
1000
0100
0000
,
0010
0000
0000
0010
0000
0000
0000
0000
,
0000
0001
0000
0000
0001
0000
0000
0000
,
1000
0010
1000
0001
,
0010
0001
0010
0100
,
1000
0000
0000
1001
0000
0000
0001
0000
,
0100
0010
1000
0000
,
0001
0010
0100
1000
,
0001
0010
0100
0010
,
0001
1000
0001
1000
,
0100
0010
0001
0100
,
0010
0100
0010
1000
,
0001
0010
0100
1000
,
0001
0100
0001
1000
,
0100
0010
0001
0100
,
0020
0000
0000
0000
,
0000
0000
0000
0000
,
0000
0000
0000
0000
,
0030
0000
0000
0000
;

//---------------dance-single - ----------------
#NOTES:
     dance-single:
     :
     Medium:
     10:
     0.410885,0.508451,0.312396,0.129267,0.000000,267.000000,238.000000,29.000000,12.000000,0.000000,0.000000,0.410885,0.508451,0.312396,0.129267,0.000000,267.000000,238.000000,29.000000,12.000000,0.000000,0.000000:
0000
0000
0000
0000
,
0000
0000
0000
0000
,
0000
0000
0000
0000
,
0000
0000
0000
0000
,
0001
0000
1000
0100
0000
1000
0001
0010
,
0001
0100
1010
1010
,
0001
0000
1000
0100
0000
1000
0001
0010
,
0001
0100
1010
1010
,
1000
0000
0001
0100
0000
0001
1000
0100
,
1000
0010
0101
1001
,
1000
0000
0001
0100
0000
0001
1000
0100
,
1000
0010
0101
1001
,
1000
1000
0001
0001
,
0100
1000
0100
0001
,
0010
1000
0010
0001
,
0100
1000
0100
0001
,
1000
0100
0020
0000
0000
0001
0000
0000
,
0000
0000
0030
0001
0100
0000
0010
1000
,
0002
0000
0000
0010
0000
0000
0000
0000
,
0200
0000
0000
0303
,
0010
2000
0000
0000
0000
0000
0000
0001
,
0000
0000
3000
0010
0100
0000
0001
0000
,
0200
0000
0000
0001
0000
0000
0300
0000
,
0001
0100
0001
0000
1000
0100
1000
0000
,
0001
0010
0200
0000
0000
1000
0000
0000
,
1300
0010
0100
0001
,
2000
0000
0000
0100
0000
0000
3000
0001
,
0200
0000
0010
0310
,
2000
0000
0000
0000
0000
0000
3000
0100
,
0020
0000
0000
0031
,
1001
0000
1001
0000
,
1001
0010
1001
0100
,
1100
0000
0000
1100
0000
0000
0010
0000
,
0000
0101
0000
0000
0101
0000
0000
0000
,
1001
0000
0110
0000
0100
0010
0100
0000
,
0001
0010
0001
0010
0100
1000
0100
0000
,
1100
0000
0000
1100
0000
0000
0010
0000
,
0000
0101
0000
0000
0101
0000
0000
0000
,
1001
0000
0110
0000
0010
0100
0010
0000
,
1000
0100
1000
0100
0010
0001
0010
0000
,
0001
0000
0100
0010
0000
0100
0010
1000
,
0100
0000
0010
0001
0000
0010
0001
0100
,
0010
0000
0000
1010
0000
0000
0100
0000
,
0000
1001
0000
0000
0001
0010
0100
1000
,
1001
0000
0010
0100
0000
0001
0010
0100
,
0010
0000
0001
0100
0000
0001
1000
0100
,
0010
0000
0000
0101
0000
0000
1001
0000
,
0010
0100
0010
1000
0001
0000
0001
0000
,
1000
0001
0010
0000
0100
1000
0001
0100
,
0001
1000
0100
0000
0010
0001
1000
0001
,
0010
0001
1000
0000
0010
1000
0001
0010
,
0100
0010
0001
0000
0010
0001
0100
0010
,
1000
0100
0010
0000
0100
1000
0001
0100
,
0001
1000
0100
0000
0010
0001
1000
0001
,
0010
0001
1000
0000
0010
0100
0001
1000
,
0100
0010
0100
0000
1000
0010
0100
0001
,
2000
0000
0000
0000
,
0002
0000
0000
0000
,
0000
0000
0000
0000
,
3003
0000
0000
0000
;

//---------------dance-single - ----------------
#NOTES:
     dance-single:
     :
     Hard:
     13:
     0.575547,0.635564,0.204673,0.290851,0.204673,374.000000,355.000000,19.000000,27.000000,0.000000,0.000000,0.575547,0.635564,0.204673,0.290851,0.204673,374.000000,355.000000,19.000000,27.000000,0.000000,0.000000:
0000
0000
0000
0000
,
0000
0000
0000
0000
,
0000
0000
0000
0000
,
0000
0000
0000
0000
,
1000
0010
1000
0001
0000
0001
0010
0100
,
1000
0010
1000
0001
0020
0000
0032
0000
,
1003
0010
1000
0001
0000
0001
0010
0100
,
1000
0000
0010
0000
1000
0000
0001
0000
0020
0000
0000
0230
0000
0000
1300
0000
,
0010
0010
1000
0001
0000
0001
0010
0100
,
1000
1000
0010
0100
0020
0000
0230
0000
,
0310
0010
1000
0001
0000
0001
0100
0010
,
1000
0000
1000
0000
0010
0000
0100
0000
0002
0000
0000
0023
0000
0000
0130
0000
,
1000
1000
1000
0000
0001
0001
0001
0000
,
0100
0010
0100
0010
1000
0000
0010
0100
,
0010
0100
0001
0000
0010
0100
0010
0100
,
1000
0000
0000
0000
0000
0000
0000
0000
0001
0000
0100
0010
0000
0100
0010
0000
,
1000
0100
0010
0001
2000
0000
0000
0000
0000
0000
0100
0000
0000
0000
0000
0000
,
3001
0000
0001
0000
0100
0000
0010
0100
0001
0000
0000
0010
0000
0000
0100
0000
,
2000
0000
0000
0010
0000
0000
3001
0010
,
0200
0000
1000
0000
1000
1000
1300
0000
,
0010
0100
0002
0000
0000
0000
0000
0000
0100
0000
0000
0000
0100
0000
0000
0000
,
1003
0000
1000
0000
0100
0000
0010
0100
1000
0000
0000
0010
0000
0000
0100
0000
,
0002
0000
0000
0100
0000
0000
1003
0001
,
0100
0010
1000
0001
0100
0010
1000
0000
,
0001
0010
0100
1000
0002
0000
0000
0000
0000
0000
0100
0000
0000
0000
0000
0000
,
1003
1100
0010
0011
,
0200
0000
0000
0000
0000
0000
1000
0000
0000
0000
0000
0000
1300
0000
0010
0100
,
0002
0000
0100
0103
,
0020
0000
0000
0000
1000
0000
1030
0001
,
0200
0010
0010
0301
,
1001
0000
1000
0100
0011
0000
0100
0000
,
1001
0000
0001
0100
1010
0000
1001
0000
,
0011
0000
1000
0011
0000
0100
0100
0000
,
0000
1100
0000
0001
1100
0000
0010
0010
,
1001
0000
0100
0000
0010
0000
0001
1000
0000
0001
1000
0000
0010
0000
0000
0000
,
1000
1000
0010
0010
0100
0100
0001
0001
,
0011
0000
1000
0011
0000
0100
0100
0000
,
0000
1100
0000
0001
1100
0000
0010
0010
,
1001
0000
0010
0000
0100
0000
1000
0001
0000
1000
0001
0000
0100
0000
0000
0000
,
0001
0100
0010
1000
0001
0100
0010
1000
,
1001
0010
0100
2000
0000
3001
0100
0001
,
1000
0100
0010
0002
0000
1003
0010
1000
,
0001
0001
1000
0001
0001
1000
0100
0000
,
1000
1000
0001
1000
1000
0001
0010
0100
,
1001
0100
0010
0002
0000
1003
0010
1000
,
0001
0010
0100
2000
0000
3001
0100
0001
,
1000
1000
0001
1000
1000
0001
0100
0000
,
0001
0000
1000
0100
0000
1000
0100
0000
0010
0000
0001
0100
0000
0001
0100
0000
,
0001
0000
0001
0000
1000
0000
0100
0000
0010
0000
0100
1000
0000
0010
0100
0000
,
0001
0000
0001
0000
1000
0000
0010
0000
0100
0000
0010
1000
0000
0001
0010
0000
,
0100
0000
0100
0000
0010
0000
0001
0000
0100
0000
0010
0100
0000
0001
0010
0000
,
0100
0000
0100
0000
1000
0000
0010
0000
0100
0001
0100
0000
0010
1000
0010
0000
,
0100
0000
0100
0000
0001
0000
0010
0000
0100
0000
1000
0001
0000
0100
0001
0000
,
1000
0000
1000
0000
0100
0000
0010
0000
0001
0000
0100
0010
0000
1000
0100
0000
,
0010
0000
0010
0000
0100
0000
1000
0000
0010
0000
0100
0001
0000
0010
0100
0000
,
1000
0000
1000
0000
0010
0000
0100
0000
0001
0010
0001
0000
1000
0100
1000
0000
,
0002
0000
0000
0203
0000
0000
0310
0000
,
2000
0000
0000
3020
0000
0000
0230
0000
,
0000
0000
0000
0000
,
0300
0000
0000
0000
;

//---------------dance-single - ----------------
#NOTES:
     dance-single:
     :
     Challenge:
     15:
     0.834081,0.921567,0.570930,0.053861,0.716356,542.000000,489.000000,53.000000,5.000000,0.000000,0.000000,0.834081,0.921567,0.570930,0.053861,0.716356,542.000000,489.000000,53.000000,5.000000,0.000000,0.000000:
0000
0000
0000
0000
,
0000
0000
0000
0000
,
0000
0000
0000
0000
,
0000
0000
0000
0000
,
1000
0000
1000
0000
0010
0000
0100
0000
0000
0000
0001
0010
0000
0001
0010
0000
,
0001
0000
0001
0000
0100
0000
0010
1000
0000
1000
0001
0010
0100
0000
0000
0000
,
1000
0000
1000
0000
0010
0000
0100
0000
0000
0000
0001
0010
0000
0001
0010
0000
,
0001
0000
0001
0000
0100
0000
0010
1000
0000
1000
0001
0010
0100
0000
0000
0000
,
1001
0000
1000
0000
0001
0000
0010
0000
0000
0000
0001
1000
0000
0001
1000
0000
,
0010
0000
0010
0000
0101
0000
1000
0100
0000
1000
0100
0010
0001
0000
0000
0000
,
1000
0000
1000
0000
0001
0000
0010
0000
0000
0000
0001
1000
0000
0001
1000
0000
,
0010
0000
0010
0000
0101
0000
1000
0100
0000
1000
0100
0010
0001
0000
0000
0000
,
1000
0000
0100
1000
0100
0000
0000
0000
1000
0000
0100
1000
0100
0000
0000
0000
,
0010
0000
0001
0100
0001
0000
0100
0001
0100
0000
0000
0000
0010
0000
1000
0001
,
1000
0000
0001
1000
0001
0000
0000
0000
1000
0000
0100
1000
0100
0000
0000
0000
,
0010
0000
0001
0100
0001
0000
0000
0000
1000
0000
0010
0100
0000
0010
0100
0000
,
0001
1000
0100
0010
0001
0000
1000
0000
0000
0000
1010
0000
0100
0000
0010
0000
,
0001
0000
1000
0010
1000
0000
0100
0010
0001
0000
0100
0010
0000
0100
0010
0000
,
1000
0000
1000
0000
0010
0000
0110
0000
0000
0000
0100
0000
0001
0000
0010
0100
,
1000
0001
1000
0000
0010
0000
0100
0001
0000
0100
0001
0000
1000
0000
0000
0000
,
0100
0010
0001
0000
0100
0000
0010
0000
0000
0000
0100
0001
0000
0100
0001
0000
,
1000
0000
1000
0000
0010
0000
0100
0001
1000
0000
0100
0010
0001
0000
1000
0000
,
1001
0000
0001
0000
0100
0000
0110
0000
0000
0000
0010
1000
0000
0010
1000
0000
,
0001
0010
0001
0010
0100
0000
1000
0010
1000
0010
0100
0000
0001
1000
0001
0000
,
1000
0001
0010
0100
1000
0000
0010
0000
0100
0000
0101
0000
0000
0000
0010
0100
,
0001
0001
0001
0000
1000
1000
1000
0000
,
1001
0000
0001
0000
0010
0000
1100
0000
0000
0000
0010
0001
0000
0010
0001
0000
,
0100
0010
0100
0000
0001
0000
1000
0100
0000
1000
0100
0010
0001
0000
1000
0000
,
0001
0000
0001
0000
0100
0000
0110
0000
0000
0000
0010
1000
0000
0010
1000
0000
,
0001
0000
0010
0001
0100
0000
0110
0000
0000
0000
1000
0100
0000
1000
0100
0000
,
0011
0000
0001
0000
1000
0000
0010
0000
0110
0000
0100
0001
0100
0001
1000
0100
,
0010
0001
0010
0001
1000
0000
0010
0100
0010
0100
0001
1000
0100
0000
0000
0000
,
1001
0010
0100
1002
0000
0010
0013
0000
,
0000
1001
0100
0010
2001
0000
0100
3100
,
1001
0000
0001
0000
0010
0000
0100
1000
0000
0001
1000
0010
0100
0010
1000
0000
,
1001
0000
1001
0000
0011
0000
0011
0000
0100
0010
0100
0000
1100
0000
1100
0000
,
1001
0100
0010
1002
0000
0100
0103
0000
,
0000
1001
0010
0100
2001
0000
0010
3010
,
1001
0000
0010
0000
0100
0000
1000
0010
0000
0100
0001
0010
0100
1000
0001
0000
,
0100
0001
0100
0001
1000
0000
0100
0010
0100
0010
0001
0100
0010
0000
0000
0000
,
1100
0000
0010
0000
0001
0000
0101
0000
0000
0000
0010
1000
0100
1000
0010
0000
,
0101
0000
0010
0000
0100
0000
1100
0000
0000
0000
0010
0001
0100
0001
0010
0000
,
0001
0000
0100
0000
0110
0000
0001
0000
0100
0000
0110
0000
0001
0010
0100
1000
,
0001
0100
0110
0001
0100
0110
0001
0010
,
1100
0000
0010
0000
0001
0000
0101
0000
0000
0000
0010
1000
0100
1000
0010
0000
,
0101
0000
0010
0000
0100
0000
1100
0000
0000
0000
0010
0001
0100
0001
0010
0000
,
0001
0000
0100
0000
0110
0000
0001
0000
0100
0000
0110
0000
0001
0010
0100
1000
,
0001
0000
0100
0001
0000
0100
0001
0000
1000
0000
0100
0010
0000
0100
0010
0000
,
1001
0000
0001
0000
0100
0000
0101
0000
0000
0000
0010
0100
0000
1000
0100
0000
,
1000
0001
1000
0001
1000
0000
0010
0100
0001
0000
0010
0100
1000
0010
0100
0000
,
1001
0000
1000
0000
0010
0000
1010
0000
0000
0000
0100
0010
0000
0001
0010
0100
,
1000
0001
0100
0001
1000
0000
0100
0010
0000
0001
1000
0100
0010
0001
1000
0000
,
1001
0000
0001
0000
0010
0000
0011
0000
0000
0000
0100
1000
0000
0010
0100
0000
,
1001
0000
1000
0000
0100
0000
1000
0001
0000
0100
0001
0010
0100
0000
1000
0000
,
1001
0000
0001
0000
0100
0000
0110
0000
0000
0000
1000
0010
0000
1000
0010
0100
,
0001
1000
0001
1000
0001
0000
0100
0010
1000
0000
0100
0010
0001
0010
0100
0000
,
1000
0010
0100
0001
0000
0000
0001
0000
,
1000
0100
0010
0001
0000
0000
0002
0000
,
0000
0000
0000
0000
,
0003
0000
0000
0000
;

//---------------dance-single - ----------------
#NOTES:
     dance-single:
     :
     Beginner:
     2:
     0.110800,0.180974,0.043089,0.000000,0.000000,72.000000,68.000000,4.000000,0.000000,0.000000,0.000000,0.110800,0.180974,0.043089,0.000000,0.000000,72.000000,68.000000,4.000000,0.000000,0.000000,0.000000:
// measure 0
0000
0000
0000
0000
,  // measure 1
0000
0000
0000
0000
,  // measure 2
0000
0000
0000
0000
,  // measure 3
0000
0000
0000
0000
,  // measure 4
1000
0000
1000
0000
,  // measure 5
1000
0000
0000
0000
,  // measure 6
0100
0000
0100
0000
,  // measure 7
0100
0000
0000
0000
,  // measure 8
0010
0000
0010
0000
,  // measure 9
0010
0000
0000
0000
,  // measure 10
0001
0000
0001
0000
,  // measure 11
0001
0000
0000
0000
,  // measure 12
1000
0000
0000
0000
,  // measure 13
0000
0000
0000
0000
,  // measure 14
0000
0000
0000
0000
,  // measure 15
0000
0000
0000
0000
,  // measure 16
1001
0000
0000
0000
,  // measure 17
1000
0000
0000
0000
,  // measure 18
0001
0000
0000
0000
,  // measure 19
1000
0000
0000
0000
,  // measure 20
0001
0000
0000
0000
,  // measure 21
1000
0000
0000
0000
,  // measure 22
0001
0000
0000
0000
,  // measure 23
1000
0000
0000
0000
,  // measure 24
0010
0000
0000
0000
,  // measure 25
0100
0000
0000
0000
,  // measure 26
0010
0000
0000
0000
,  // measure 27
0100
0000
0000
0000
,  // measure 28
0001
0000
0000
0000
,  // measure 29
1000
0000
0000
0000
,  // measure 30
0001
0000
0001
0000
,  // measure 31
0001
0000
1000
0000
,  // measure 32
1001
0000
0000
0000
,  // measure 33
0000
0000
0000
0000
,  // measure 34
0010
0000
0010
0000
,  // measure 35
0010
0000
0000
0000
,  // measure 36
1001
0000
0000
0000
,  // measure 37
0000
0000
0000
0000
,  // measure 38
0100
0000
0100
0000
,  // measure 39
0100
0000
0000
0000
,  // measure 40
1001
0000
0001
0000
,  // measure 41
0001
0000
0000
0000
,  // measure 42
1000
0000
1000
0000
,  // measure 43
1000
0000
0000
0000
,  // measure 44
0010
0000
0010
0000
,  // measure 45
0010
0000
0000
0000
,  // measure 46
0100
0000
0100
0000
,  // measure 47
0100
0000
0000
0000
,  // measure 48
0001
0000
1000
0000
,  // measure 49
0001
0000
0001
0000
,  // measure 50
1000
0000
0001
0000
,  // measure 51
1000
0000
1000
0000
,  // measure 52
0100
0000
1000
0000
,  // measure 53
0001
0000
0001
0000
,  // measure 54
0010
0000
0001
0000
,  // measure 55
1000
0000
1000
0000
,  // measure 56
0100
0000
0000
0000
;
