#TITLE:rainbow guitar weeps;
#SUBTITLE:;
#ARTIST:dj TAKA;
#TITLETRANSLIT:;
#SUBTITLETRANSLIT:;
#ARTISTTRANSLIT:;
#GENRE:;
#CREDIT:DigiMindAxel;
#BANNER:rainbow guitar weeps.png;
#BACKGROUND:rainbow guitar weeps-bg.png;
#LYRICSPATH:;
#CDTITLE:beatmania IIDX.png;
#MUSIC:rainbow guitar weeps.ogg;
#OFFSET:-0.564000;
#SAMPLESTART:24.402000;
#SAMPLELENGTH:12.000000;
#SELECTABLE:YES;
#BPMS:0.000000=156.000000
;
#STOPS:
;
#BGCHANGES:-4.000=rainbow guitar weeps.avi=1.000=1=0=0=StretchNoLoop==CrossFade==,
99999=-nosongbg-=1.000=0=0=0 // don't automatically add -songbackground-
;
#KEYSOUNDS:;
#ATTACKS:;

//---------------dance-single - ----------------
#NOTES:
     dance-single:
     :
     Easy:
     5:
     0.238377,0.307301,0.024301,0.097202,0.000000,206.000000,203.000000,3.000000,12.000000,0.000000,0.000000,0.238377,0.307301,0.024301,0.097202,0.000000,206.000000,203.000000,3.000000,12.000000,0.000000,0.000000:
0000
0000
0000
0000
,
0000
0000
0000
0000
,
0000
0000
0000
0000
,
0000
0000
0000
0000
,
2000
0000
0000
0000
,
3002
0000
0000
0000
,
2003
0000
0000
0000
,
3002
0000
0000
0000
,
1003
0100
1000
0000
,
0001
0010
0001
0000
,
1000
0100
1000
1000
,
0001
0010
0001
0001
,
0100
0010
0100
0000
,
0010
0100
0010
0000
,
1000
0010
1000
0010
,
0100
0000
0000
0000
,
1001
0000
0001
0010
,
0100
0000
0010
0001
,
0010
0000
0001
0010
,
0100
0100
1000
1000
,
0010
0100
0010
0100
,
0001
1000
0001
1000
,
0100
0010
0001
1000
,
0100
0000
0000
0000
,
1001
1000
0001
0001
,
0010
0001
1000
0100
,
0100
1000
0010
0100
,
0001
0001
0010
0010
,
0100
1000
0100
1000
,
0010
0100
0010
0100
,
0001
0010
0100
1000
,
0001
0010
0001
1000
,
0200
0000
0000
0000
,
0300
0000
0000
0000
,
1001
0000
0000
0000
,
0001
0000
0000
0000
,
0010
0000
0000
0000
,
0100
0000
0000
0000
,
1000
0000
0000
0000
,
0001
0000
0000
0000
,
0100
0000
0000
0000
,
0010
0000
0000
0000
,
1000
0000
0001
0000
,
1000
0000
0001
0000
,
0100
0000
0001
0000
,
0100
0000
0001
0000
,
0010
0000
0100
0000
,
0010
0000
0100
0000
,
1000
0001
1000
0001
,
2000
0000
0000
0000
,
3100
1000
0100
0100
,
0100
0010
0001
0001
,
0001
0100
0010
0100
,
0010
1000
0100
0010
,
0001
0100
0100
0010
,
0010
1000
1000
0100
,
0010
0001
1000
0001
,
0010
0010
0010
0000
,
0001
1000
0100
1000
,
0001
0100
0001
1000
,
0100
0010
0001
0100
,
0010
1000
0010
0100
,
0001
1000
0100
1000
,
0001
0010
0001
0100
,
0010
1000
0010
1000
,
0001
0000
0000
0000
,
1000
0100
0020
0000
,
0031
0010
0200
0000
,
1300
0010
0200
0000
,
0301
0100
0020
0000
,
1030
0100
0010
0001
,
1000
0100
0010
0001
,
1000
0010
0100
0001
,
1000
0010
0100
0001
,
2000
0000
0000
0000
,
3002
0000
0000
0000
0000
0000
0000
0003
;

//---------------dance-single - ----------------
#NOTES:
     dance-single:
     :
     Medium:
     10:
     0.429310,0.522411,0.178204,0.494111,0.000000,371.000000,349.000000,22.000000,61.000000,0.000000,0.000000,0.429310,0.522411,0.178204,0.494111,0.000000,371.000000,349.000000,22.000000,61.000000,0.000000,0.000000:
0000
0000
0000
0000
,
0000
0000
0000
0000
,
0000
0000
0000
0000
,
0000
0000
0000
0000
,
1000
0100
0020
0000
,
0031
0010
0200
0000
,
1300
0001
0200
0000
,
0301
1000
0020
0000
,
0130
0000
1001
0000
0001
1000
0001
0000
,
0010
0000
1001
0000
1000
0001
1000
0000
,
0100
0000
1001
0000
0001
1000
0001
0000
,
0010
0000
1001
0000
1000
0001
1000
0000
,
0001
1000
0100
1000
0001
0100
0001
0000
,
1000
0001
0100
0001
1000
0100
1000
0000
,
0001
0010
0100
1000
0001
0010
0100
1000
,
2002
0000
0000
3003
,
1100
0000
0010
0001
0010
0001
1000
0000
,
1001
0000
0010
0100
0010
0100
0001
0000
,
1001
0000
1000
0100
1000
0100
0010
0000
,
0002
0203
2300
3200
,
0302
0000
0013
0100
1000
0000
0010
1000
,
0010
0100
0001
0000
0100
0010
0100
0010
,
2000
3200
0302
0203
,
2300
0000
3000
0000
,
1001
0000
0001
0010
0001
0010
0100
0000
,
1100
0000
0010
0001
0010
0001
0100
0000
,
0110
0000
0010
1000
0010
1000
0001
0000
,
2000
3020
0032
0023
,
2030
0000
3010
0100
0001
0000
0100
0001
,
1000
0100
0010
0000
0100
1000
0100
1000
,
0002
0023
2030
3020
,
0031
1000
0100
0000
0010
0001
0100
0001
,
0020
0000
0000
0000
,
0030
0000
0001
0100
,
1001
0100
0100
0100
,
0010
0001
0001
0001
,
1000
0100
0001
0100
,
1000
1000
0001
0001
,
0200
0000
0320
0000
,
0230
0000
0302
2003
,
3001
0010
0010
0100
,
0100
1000
1000
0010
,
0110
0001
0011
0001
,
0011
0100
0110
1000
,
2020
3030
0020
0230
,
0302
0023
0230
2300
,
3001
0100
0001
0000
1000
0001
1000
0000
,
0100
1000
0100
0000
0010
0100
0010
0000
,
0001
0100
0001
0100
0010
1000
0010
1000
,
0002
0000
0000
0000
,
1003
0000
0001
0010
0001
1000
0001
0010
,
0001
0000
1000
0010
0100
0010
1000
0010
,
0200
0302
2003
3200
,
0310
0001
0010
0001
0100
0010
0100
0010
,
1000
0000
0001
0010
0100
0000
0010
0001
,
1000
0000
0100
0010
0001
0010
0001
1000
,
0010
0100
0010
0100
0001
1000
0001
0000
,
0010
0001
0010
0001
1000
0010
1000
0000
,
1001
0000
1000
0010
0100
0000
0010
1000
,
0100
0000
1000
0100
0010
0000
0100
0010
,
0002
0000
1003
0100
1000
0001
1000
0100
,
2000
3020
0230
0302
,
0013
0000
0100
1000
0010
1000
0100
1000
,
0020
0000
1030
0001
0010
0001
1000
0001
,
0020
0000
0130
1000
0010
0000
0100
0100
,
0000
0000
0000
0000
,
0001
0010
0100
0000
1020
0000
0130
0000
,
0001
0010
0100
0000
1020
0000
0130
0000
,
0001
0010
0100
0000
0020
0000
0032
0000
,
1003
0100
0010
0000
0200
0000
2300
0000
,
3001
0100
0010
0000
0100
0010
1000
0000
,
0001
0010
0100
0000
0010
0100
1000
0000
,
0100
1000
0010
0000
0210
0000
0301
0000
,
0010
1000
0100
0000
0120
0000
0031
0000
,
0200
0000
0000
0000
,
0320
0000
0000
0000
0000
0000
0000
0030
;

//---------------dance-single - ----------------
#NOTES:
     dance-single:
     :
     Hard:
     13:
     0.597099,0.706792,0.170104,0.388809,0.332107,516.000000,495.000000,21.000000,48.000000,0.000000,0.000000,0.597099,0.706792,0.170104,0.388809,0.332107,516.000000,495.000000,21.000000,48.000000,0.000000,0.000000:
// measure 0
0000
0000
0000
0000
,  // measure 1
0000
0000
0000
0000
,  // measure 2
0000
0000
0000
0000
,  // measure 3
0000
0000
0000
0000
,  // measure 4
1000
0000
0000
1000
0010
0000
0000
0010
0100
0000
0000
0100
0001
0000
0000
0000
,  // measure 5
0010
0000
0000
0010
0100
0000
0000
0100
1000
0000
0000
1000
0010
0000
0000
0000
,  // measure 6
0100
0000
0000
0100
0001
0000
0000
0001
1000
0000
0000
1000
0100
0000
0000
0100
,  // measure 7
0010
0000
0000
0010
0001
0000
0000
0001
1000
0000
0000
1000
0010
0000
0000
0000
,  // measure 8
0110
0001
1000
0000
0002
0200
0000
0303
,  // measure 9
0110
1000
0001
0000
0200
0002
0000
0303
,  // measure 10
1001
0000
0000
0100
0000
0000
0010
0000
0000
0000
0000
0000
0100
0000
0010
0000
0100
0000
0010
0000
0000
0010
0000
0000
,  // measure 11
1001
0000
0000
0010
0000
0000
0100
0000
0000
0000
0000
0000
0010
0000
0100
0000
0010
0000
0100
0000
0000
0100
0000
0000
,  // measure 12
1001
1000
0010
1000
0100
0001
0100
1000
,  // measure 13
1001
0001
0010
0001
0100
1000
0100
0001
,  // measure 14
1000
0100
1000
0000
0001
0010
0001
0000
1000
0001
1000
0000
0010
0100
0010
0000
,  // measure 15
2002
0000
0000
3003
,  // measure 16
1001
0000
0000
1000
0010
0000
1000
0000
0001
0000
0000
0001
0000
0000
0001
0000
,  // measure 17
0010
0000
0000
0100
1000
0000
0001
0000
0100
0000
0000
0100
0000
0000
0100
0000
,  // measure 18
0010
0000
0000
0100
0001
0000
1000
0000
0100
0000
0000
0100
0000
0000
0100
0000
,  // measure 19
1000
0000
0000
1000
0100
0000
0000
0100
0001
0000
0000
0001
0100
0000
0000
0000
,  // measure 20
1001
0000
1000
0010
0001
0010
1000
0100
,  // measure 21
0010
0000
0100
0000
1000
0000
0000
0000
0010
0100
0010
0000
0100
0001
0100
0000
,  // measure 22
0001
0010
1000
0010
0001
0100
0010
1000
,  // measure 23
0000
0000
0000
0000
0000
0000
0000
0000
0010
0000
0000
0010
0000
0000
0010
0000
,  // measure 24
1001
0000
0000
0001
0010
0000
1000
0000
0010
0000
0000
0010
0000
0000
0010
0000
,  // measure 25
0001
0000
0000
0001
0100
0000
1000
0000
0100
0000
0000
0100
0000
0000
0100
0000
,  // measure 26
0001
0000
0000
0001
0010
0000
1000
0000
0010
0000
0000
0010
0000
0000
0010
0000
,  // measure 27
0001
0000
0000
0001
0100
0000
0000
0100
0010
0000
0000
0010
1000
0000
0000
1000
,  // measure 28
0001
0000
1000
0100
0001
0100
1000
0010
,  // measure 29
0100
0000
0010
0000
1000
0000
0000
0000
0100
0010
0100
0000
1000
0001
1000
0000
,  // measure 30
0100
0000
0000
0100
0010
0000
0000
0010
0001
0000
0000
0001
1000
0000
0000
1000
,  // measure 31
0010
0100
0001
0100
1000
0001
0010
1000
,  // measure 32
2002
0000
0000
0000
,  // measure 33
3003
0000
0000
0000
,  // measure 34
1002
0000
1003
0010
0001
0010
0100
0001
,  // measure 35
2000
0000
3001
0100
1000
0100
0010
1000
,  // measure 36
0002
0203
0320
2030
,  // measure 37
3001
0001
0001
1000
0100
0100
1000
1000
,  // measure 38
0002
0000
0000
0000
0013
0100
0000
0000
2000
0000
0000
0000
3100
0010
0000
0000
,  // measure 39
0002
0000
0000
0000
0103
0010
0000
0000
1000
0000
0001
2000
0000
0000
3001
0000
,  // measure 40
1000
0100
0001
1000
0010
0001
1000
0000
,  // measure 41
0001
0100
1000
0001
0010
1000
0001
0000
,  // measure 42
1001
0000
1000
0010
0200
0000
0310
1000
,  // measure 43
0200
0000
1300
0001
0020
0000
0031
1000
,  // measure 44
0020
0000
0000
1030
0100
0010
0001
1000
,  // measure 45
0001
0100
1000
0100
0010
1000
0001
1000
,  // measure 46
0200
1000
1300
0001
0100
1000
0100
0001
,  // measure 47
2000
0100
3100
1000
0010
0001
0010
1000
,  // measure 48
0001
1000
0001
0000
1000
0100
1000
0000
0001
0010
0001
0000
1000
0000
0001
1000
,  // measure 49
0000
0001
1000
0000
0001
1000
0000
0001
1000
0000
0100
0000
0010
0000
0001
0000
,  // measure 50
2001
0000
0000
0000
3001
0100
0001
0000
1000
0000
0010
0000
0001
0000
0010
0000
,  // measure 51
2000
0000
0000
0000
3010
0100
0010
0000
1000
0000
0010
0000
0001
0000
0010
0000
,  // measure 52
1000
0000
0000
1000
0001
0000
0000
0001
0100
0000
0000
0100
0010
0000
0000
0010
,  // measure 53
1000
0000
0100
0000
0010
0000
0001
0000
1000
0001
1000
0000
0010
0100
0010
0000
,  // measure 54
1002
0000
1003
0100
0020
0000
0031
0100
,  // measure 55
0020
0000
1030
0100
0010
0001
0001
1000
,  // measure 56
0010
0100
0010
0000
1000
0000
0010
0000
0100
0000
0010
0000
1000
0000
0001
0000
,  // measure 57
0000
0000
0000
0000
0000
0000
0000
0000
0000
0000
0000
0000
0100
0000
0010
0100
,  // measure 58
0020
0000
1030
0001
0200
0000
0301
1000
,  // measure 59
0200
0000
1300
0001
0020
0000
0031
1000
,  // measure 60
0020
0000
0000
1030
0100
0010
0001
1000
,  // measure 61
0001
0100
1000
0100
0010
1000
0001
0010
,  // measure 62
1200
0000
0000
1300
0010
0001
0010
1000
,  // measure 63
0020
0000
1030
0010
0001
0010
0100
0001
,  // measure 64
2000
0000
0000
0000
3001
0000
0100
0000
1000
0000
0100
0000
0010
0000
1000
0001
,  // measure 65
0000
1000
0001
0000
1000
0001
0000
1000
0002
0000
0000
0000
0003
0000
0000
0000
,  // measure 66
1001
0100
0010
0001
2000
0020
0000
3030
,  // measure 67
1001
0010
0100
1000
0002
0200
0000
0303
,  // measure 68
1001
0000
0000
0100
0000
0000
0010
0000
0000
0000
0000
0000
0001
0000
0100
0000
0001
0000
1000
0000
0000
0000
0000
0000
,  // measure 69
1001
0000
0000
0100
0000
0000
0010
0000
0000
0000
0000
0000
0001
0000
0100
0000
0001
0000
1000
0000
0000
0000
0000
0000
,  // measure 70
1001
0010
0100
1000
0001
0002
0000
0103
,  // measure 71
0001
0010
0100
1000
0001
0002
0000
0103
,  // measure 72
0010
0000
0000
1000
0000
0000
0100
0000
0000
0010
0000
0000
0001
0000
0100
0000
0001
0000
1000
0000
0000
0000
0000
0000
,  // measure 73
0100
0000
0000
0010
0000
0000
0001
0000
0000
1000
0000
0000
0001
0000
0100
0000
0001
0000
1000
0000
0000
0000
0000
0000
,  // measure 74
0200
0000
1000
0000
1300
0020
0000
0130
,  // measure 75
0002
0000
0100
0000
0103
0020
0000
0130
;

//---------------dance-single - ----------------
#NOTES:
     dance-single:
     :
     Challenge:
     16:
     0.810018,0.921902,0.137703,0.421210,0.927471,700.000000,683.000000,17.000000,52.000000,0.000000,0.000000,0.810018,0.921902,0.137703,0.421210,0.927471,700.000000,683.000000,17.000000,52.000000,0.000000,0.000000:
0000
0000
0000
0000
,
0000
0000
0000
0000
,
0000
0000
0000
0000
,
0000
0000
0000
0000
,
0001
0000
0000
0001
0000
0000
0100
0000
0000
0100
0000
0000
0001
0000
0010
0000
0100
0000
1000
0000
0000
1000
0000
0000
,
0001
0000
0000
0001
0000
0000
0010
0000
0000
0010
0000
0000
0001
0000
0100
0000
0010
0000
1000
0000
0000
1000
0000
0000
,
0010
0000
0000
0010
0000
0000
0100
0000
0000
0100
0000
0000
0001
0000
0010
0000
0100
0000
1000
0000
0000
1000
0000
0000
,
0100
0000
0000
0100
0000
0000
0010
0000
0000
0010
0000
0000
0001
0000
0100
0000
0010
0000
1000
0000
0000
1000
0000
0000
,
1001
0100
0010
0100
0001
2000
0000
3100
,
1000
0010
0100
0001
1000
0020
0000
1030
,
0001
0000
0000
0010
0000
0000
1000
0000
0000
0010
0000
0000
0001
0000
0100
0000
0010
0000
1000
0000
0000
1000
0000
0000
,
0001
0000
0000
0100
0000
0000
1000
0000
0000
0100
0000
0000
0001
0000
0010
0000
0100
0000
1000
0000
0000
1000
0000
0000
,
0010
0000
0100
0000
0001
1000
0000
1000
0001
0000
0010
0000
0100
1000
0000
1000
,
0100
0000
0010
0000
0001
1000
0000
1000
0001
0000
0100
0000
0010
1000
0000
1000
,
0010
0000
0000
0100
0000
0000
0010
0000
0000
0100
0000
0000
0001
0000
0000
1000
0000
0000
0001
0000
0000
1000
0000
0000
0100
0000
0000
1000
0000
0000
0100
0000
1000
0000
0100
0000
1000
0000
0000
0000
0000
0000
0001
0000
0000
0000
0000
0000
,
1001
0000
0000
0000
0000
0000
0000
0000
0100
0000
0000
0100
0000
0000
0100
0000
,
1001
0000
0000
1000
0001
0000
0010
0000
0200
0000
0000
1000
0000
0000
1300
0000
,
0001
0000
0000
0001
0100
0000
0010
0000
2000
0000
0000
0001
0000
0000
3001
0000
,
1000
0000
0000
1000
0100
0000
0010
0000
0002
0000
0000
0100
0000
0000
0103
0000
,
0010
0000
0000
1000
0010
1000
0020
0000
0000
0130
0001
0100
0002
0000
0000
0013
0100
0010
0200
0000
0000
1300
0001
1000
,
0002
0000
0000
0000
1003
0100
0010
0001
0100
0010
0100
0000
0010
0100
0001
0010
,
0100
1000
0010
1000
0100
0000
0000
0000
1000
0010
0100
0001
0010
0100
0010
0001
,
1000
0010
1000
0000
0010
0100
0010
0000
0100
0001
0100
0000
0001
1000
0001
0000
,
0000
0000
0000
0000
0000
0000
0000
0000
0010
0000
0000
0010
0000
0000
0010
0000
,
1001
0000
0000
0001
1000
0100
0010
0000
0002
0000
0000
0100
0000
0000
0103
0000
,
0010
0000
0000
0010
1000
0100
0010
0000
0002
0000
0000
0100
0000
0000
0103
0000
,
0010
0000
0000
0010
1000
0100
0010
0000
0002
0000
0000
0100
0000
0000
0103
0000
,
0010
0000
0000
1000
0100
1000
0100
0000
0000
0010
0001
0010
0001
0000
0000
0010
0100
0010
0100
0000
0000
1000
0001
1000
,
0001
0000
0000
0000
1000
0100
0010
0001
1000
0010
0100
0000
0010
1000
0100
1000
,
0001
0100
0010
0100
0001
0000
0000
0000
0100
0001
1000
0001
0010
0100
1000
0001
,
1000
0000
0100
0000
1000
0001
0000
0001
1000
0000
0010
0000
0100
0001
0000
0001
,
1000
0100
1000
0000
0001
0010
0001
0000
1000
0010
1000
0001
0010
0100
0010
0001
,
2000
0000
0000
0000
,
3000
0000
0000
0000
0000
0000
0000
0000
0001
0000
0100
0010
0100
0000
0001
1000
,
0002
0000
1003
0100
0010
0001
0010
0100
,
2000
0000
3001
0100
0010
0100
0001
1000
,
0200
0302
0203
2300
,
3010
0000
0100
0000
0001
0000
0100
0000
0010
0100
0010
0000
1000
0001
1000
0000
,
0002
0000
1003
0010
2000
0000
3001
0100
,
0002
0000
0000
0000
1003
0000
0100
0000
1000
0000
0001
1000
0000
0000
0001
0000
,
1000
0100
0020
0000
0031
0100
0020
0000
,
1030
0100
0001
0100
1000
0001
1000
0010
,
1001
0000
0000
0000
1000
0001
1000
0001
2000
0000
0000
0000
3010
0100
0010
0100
,
0020
0000
0000
0130
0001
1000
0001
1000
0002
0000
0000
0000
0013
0001
0010
0001
,
0020
0000
0000
0000
0000
0000
0031
1000
0001
0000
1000
0100
1000
0000
0001
0010
,
0100
0010
0001
0100
0010
1000
0100
0000
1000
0100
0010
0100
1000
0010
0100
0001
,
0010
0000
0100
0000
1000
0000
0001
1000
0100
0000
1000
0100
0010
0000
0001
1000
,
0010
0000
1000
0100
0010
0001
0100
0000
0010
1000
0100
0000
1000
0100
0010
0001
,
1000
0010
1000
0010
0100
0010
0100
0010
1000
0100
0010
0001
1000
0000
1000
0010
,
0000
0010
0100
0000
0100
0001
0000
0001
2000
0000
0000
0000
0000
0000
0000
0000
,
3001
0000
0000
0000
1000
0100
0010
0000
0001
0100
1000
0100
0001
0010
0100
0010
,
0002
0000
0000
0000
0013
0100
1000
0000
0001
0010
1000
0010
0001
0100
0010
0100
,
0002
0000
0000
1003
0200
0000
0000
0310
0002
0000
0000
0103
0020
0000
0000
1030
,
0001
0010
0100
0010
0001
0010
0100
0000
1000
0001
1000
0010
0100
0010
1000
0000
,
1002
0000
0000
0000
0013
0001
0010
0001
0020
0000
0000
0000
0130
0010
0100
0010
,
0200
0000
0000
0000
1300
0010
1000
0010
1000
0001
0020
0000
0031
1000
0001
0010
,
0100
0010
0001
0010
0100
0000
1000
0010
0100
0010
1000
0100
0010
0000
0110
0000
,
0000
0000
0000
0000
0000
0000
0000
0000
0000
0000
0000
0000
1000
0001
0000
0001
,
2000
0000
0000
0000
3100
0010
0100
0010
0002
0000
0000
0000
0103
0010
0100
0010
,
2000
0000
0000
3001
1000
0100
1000
0100
0020
0000
0000
0031
1000
0010
1000
0010
,
0200
0000
0000
0000
0000
0000
0301
0010
1000
0010
0001
0010
0100
1000
0010
0100
,
0001
0010
1000
0010
0001
0100
1000
0100
0001
0010
0100
1000
0100
0010
0100
1000
,
0020
0000
0000
0000
0000
0000
0130
0001
1000
0100
0001
0100
1000
0010
0001
0010
,
2000
0000
0000
3010
0100
0001
0100
0010
1000
0010
0001
0010
1000
0100
0001
0100
,
2000
0000
0000
0000
3001
0010
0100
0010
0001
0100
1000
0100
0001
0000
0001
0010
,
0000
0010
0100
0000
0100
1000
0000
2000
0002
0000
0000
0000
3003
0000
0000
0000
,
1001
0010
0001
1000
0020
1000
0000
0130
,
0001
1000
0100
0010
0002
0100
0000
1003
,
1010
0000
0000
0010
0000
0000
0110
0000
0000
0100
0000
0000
0001
0000
1000
0000
0100
0000
0010
0000
0000
0010
0000
0000
,
1001
0000
0000
0001
0000
0000
0101
0000
0000
0100
0000
0000
0001
0000
1000
0000
0100
0000
0010
0000
0000
0010
0000
0000
,
1001
0000
0000
0010
0000
0000
0100
0000
0000
1000
0000
0000
0100
0000
0001
0000
0100
0000
1000
0000
0000
1000
0000
0000
,
0001
0000
0000
0100
0000
0000
0010
0000
0000
1000
0000
0000
0010
0000
0001
0000
0010
0000
1000
0000
0000
1000
0000
0000
,
1001
0000
0000
0001
0000
0000
0011
0000
0000
0010
0000
0000
0001
0000
0100
0000
0010
0000
1000
0000
0000
1000
0000
0000
,
1001
0000
0000
0001
0000
0000
0101
0000
0000
0100
0000
0000
0001
0000
1000
0000
0100
0000
0010
0000
0000
0010
0000
0000
,
0001
0001
1000
1000
0100
0020
0000
0031
,
1000
1000
0001
0001
0010
0200
0000
1300
;

//---------------dance-single - ----------------
#NOTES:
     dance-single:
     :
     Beginner:
     2:
     0.093731,0.149853,0.072902,0.000000,0.000000,81.000000,72.000000,9.000000,0.000000,0.000000,0.000000,0.093731,0.149853,0.072902,0.000000,0.000000,81.000000,72.000000,9.000000,0.000000,0.000000,0.000000:
0000
0000
0000
0000
,
0000
0000
0000
0000
,
0000
0000
0000
0000
,
0000
0000
0000
0000
,
0000
0000
0000
0000
,
0000
0000
0000
0000
,
0000
0000
0000
0000
,
0000
0000
0000
0000
,
1001
0000
0000
0000
,
0001
0000
0000
0000
,
0010
0000
0000
0000
,
0001
0000
0000
0000
,
0010
0000
0000
0000
,
0100
0000
0000
0000
,
1000
0000
1000
0000
,
1001
0000
0000
0000
,
0100
0000
1000
0000
,
0100
0000
0000
0000
,
0010
0000
0001
0000
,
0010
0000
0000
0000
,
0001
0000
1000
0000
,
0001
0000
0000
0000
,
1000
0000
0001
0000
,
1000
0000
0000
0000
,
1001
0000
0001
0000
,
0001
0000
0000
0000
,
1000
0000
1000
0000
,
1000
0000
0000
0000
,
0100
0000
0010
0000
,
0100
0000
0000
0000
,
1000
0000
0001
0000
,
0010
0000
0100
0000
,
1000
0000
0000
0000
,
0000
0000
0000
0000
,
1001
0000
0000
0000
,
0000
0000
0000
0000
,
0000
0000
0000
0000
,
0000
0000
0000
0000
,
0001
0000
0000
0000
,
0000
0000
0000
0000
,
1000
0000
0000
0000
,
0000
0000
0000
0000
,
1001
0000
0000
0000
,
0000
0000
0000
0000
,
0001
0000
0000
0000
,
0000
0000
0000
0000
,
0100
0000
0000
0000
,
0100
0000
0000
0000
,
0100
0000
0000
0000
,
0000
0000
0000
0000
,
1001
0000
0000
0000
,
0001
0000
0000
0000
,
1000
0000
0100
0000
,
0010
0000
0000
0000
,
1001
0000
0000
0000
,
1000
0000
0000
0000
,
0001
0000
0000
0000
,
0010
0000
0000
0000
,
1001
0000
0000
0000
,
0001
0000
0000
0000
,
1000
0000
0100
0000
,
0010
0000
0001
0000
,
1000
0000
0000
0000
,
0010
0000
0000
0000
,
0100
0000
0001
0000
,
0010
0000
0000
0000
,
1001
0000
0000
0000
,
1000
0000
0000
0000
,
0100
0000
0000
0000
,
1000
0000
0000
0000
,
0100
0000
0000
0000
,
0010
0000
0000
0000
,
0001
0000
0000
0000
,
0100
0000
0000
0000
,
0010
0000
0000
0000
;
