#VERSION:0.83;
#TITLE:nostos;
#SUBTITLE:;
#ARTIST:Setaria Virtuoso;
#TITLETRANSLIT:;
#SUBTITLETRANSLIT:;
#ARTISTTRANSLIT:;
#GENRE:;
#ORIGIN:;
#CREDIT:DigiMindAxel;
#BANNER:nostos.png;
#BACKGROUND:nostos-bg.png;
#PREVIEWVID:;
#JACKET:nostos-jacket.png;
#CDIMAGE:;
#DISCIMAGE:;
#LYRICSPATH:;
#CDTITLE:NOSTALGIA.png;
#MUSIC:nostos.ogg;
#OFFSET:2.132000;
#SAMPLESTART:22.697771;
#SAMPLELENGTH:12.000000;
#SELECTABLE:YES;
#BPMS:0.000=128.000,
77.000=132.000,
131.000=144.000,
273.000=138.000,
276.000=128.000,
279.000=116.000,
281.000=100.000,
283.000=86.000,
286.000=112.000,
288.000=106.000,
291.000=102.000,
294.000=90.000;
#STOPS:;
#DELAYS:;
#WARPS:;
#TIMESIGNATURES:0.000=4=4;
#TICKCOUNTS:0.000=4;
#COMBOS:0.000=1;
#SPEEDS:0.000=1.000=0.000=0;
#SCROLLS:0.000=1.000;
#FAKES:;
#LABELS:0.000=Song Start;
#BGCHANGES:1.000=nostos.avi=1.000=1=0=0=StretchNoLoop==CrossFade==,
99999=-nosongbg-=1.000=0=0=0 // don't automatically add -songbackground-
;
#KEYSOUNDS:;
#ATTACKS:
;

//---------------dance-single - ----------------
#NOTEDATA:;
#CHARTNAME:;
#STEPSTYPE:dance-single;
#DESCRIPTION:;
#CHARTSTYLE:;
#DIFFICULTY:Easy;
#METER:5;
#RADARVALUES:0.212724,0.269759,0.079129,0.165452,0.000000,207.000000,196.000000,11.000000,23.000000,0.000000,0.000000,0.000000,0.000000,0.000000,0.212724,0.269759,0.079129,0.165452,0.000000,207.000000,196.000000,11.000000,23.000000,0.000000,0.000000,0.000000,0.000000,0.000000;
#CREDIT:;
#NOTES:
0000
0000
0000
0000
,
0000
0000
0000
0000
,
0000
0000
0000
0000
,
0000
0000
0000
0000
,
0000
0000
0000
0000
,
0002
0000
0000
1003
,
0100
0010
0001
2000
,
0000
3001
0010
0100
,
1000
0001
0000
0010
,
0100
0000
1000
0000
,
0000
0002
0000
0000
,
0000
1000
0000
0000
0000
1003
0000
0000
,
0001
0010
0001
1000
,
0010
0100
0001
0000
,
0010
0100
0000
1000
,
0100
0010
0001
0001
,
0000
0100
0010
0100
,
0001
0001
0010
0100
,
1000
0010
0100
0001
,
0000
0010
0001
0010
,
0001
0001
0100
0010
,
1000
0100
0010
0010
,
0000
0001
1000
0001
,
0100
0010
1000
0001
,
0001
0100
0010
1000
,
0100
1001
0000
0000
,
0010
0100
0010
1001
,
0000
0000
0100
0010
,
0100
0001
2000
0000
,
3001
0020
0000
0031
,
0000
0000
1000
0000
,
0000
0200
0000
0000
,
0320
0000
0000
0230
,
0000
0000
0320
0000
,
0030
0000
1000
0000
0000
0100
0000
0000
,
0010
0000
0000
0001
0000
0000
0010
0000
,
0000
0001
0000
0000
0100
0000
0000
0000
,
0010
1000
0001
1000
,
0001
0010
0000
0001
,
1000
0001
1000
0100
,
0000
0010
0001
0010
,
0001
0100
0000
0010
,
1000
0010
1000
0001
,
0000
0010
0100
0010
,
0100
1000
0001
1000
,
0001
0100
0010
0100
,
0010
1000
0100
1000
,
0100
0010
0001
0010
,
0001
0100
0010
0100
,
0010
1000
0100
1000
,
0100
1000
0001
1000
,
0001
1001
0000
0110
,
0000
1001
0000
0110
,
0000
2002
0000
0000
,
0000
0000
0000
0000
,
0000
0000
0000
0000
,
0000
0000
0000
0000
,
3003
2000
0000
0000
,
0000
3020
0000
0000
,
0000
0130
0100
0100
,
0100
0010
0010
0010
,
0010
1000
0100
0010
,
0000
0001
0010
0100
,
0000
1000
0010
0100
,
0000
0010
0100
0001
,
0000
1002
0000
0103
,
2001
0000
3010
1002
,
0000
0013
2001
0000
,
3100
0020
0000
0000
,
0032
0000
0000
2003
,
0000
0000
0000
0000
3002
0000
0000
2003
,
0000
3001
0010
0010
,
0100
0100
1000
1000
,
0010
0010
1000
0100
,
0010
0002
0000
0000
,
0003
0000
0000
0000
;

//---------------dance-single - ----------------
#NOTEDATA:;
#CHARTNAME:;
#STEPSTYPE:dance-single;
#DESCRIPTION:;
#CHARTSTYLE:;
#DIFFICULTY:Medium;
#METER:9;
#RADARVALUES:0.347347,0.485566,0.395646,0.330904,0.000000,338.000000,283.000000,55.000000,46.000000,0.000000,0.000000,0.000000,0.000000,0.000000,0.347347,0.485566,0.395646,0.330904,0.000000,338.000000,283.000000,55.000000,46.000000,0.000000,0.000000,0.000000,0.000000,0.000000;
#CREDIT:;
#NOTES:
0000
0000
0000
0000
,
0000
0000
0000
0000
,
0000
0000
0000
0000
,
0000
0000
0000
0000
,
0000
0000
0000
0000
,
2000
0000
0010
0000
3010
0000
0100
0001
,
0010
0100
2000
0010
,
3010
0000
0100
0001
0010
0000
0100
0000
,
1000
1001
0010
0100
,
1100
0010
0011
0000
,
0000
0100
0010
0000
0100
0010
0000
0000
,
1000
0001
0000
0100
0001
1000
0000
0000
,
0100
0000
1100
0000
0010
0000
0001
1000
,
0010
1000
0001
0000
0101
0000
0000
0000
,
0010
0110
1000
0100
,
0010
0000
0001
0000
0100
0010
0100
0000
,
0000
0000
0001
0000
0011
0000
0000
0100
,
1000
0000
1100
0000
0010
0000
0001
0100
,
0010
1000
0001
0000
1000
0001
1000
0000
,
0000
0000
0010
0000
1010
0000
0000
0100
,
0001
0000
0101
0000
0010
0000
0100
1000
,
0001
1000
0100
0000
0010
0000
0011
0000
,
0000
0000
0100
0000
0110
0000
1000
0001
,
0100
0001
1000
0000
0100
0000
0010
0001
,
1000
0000
0010
1000
0001
0000
0101
0000
,
1001
0000
2002
0000
0000
0000
3003
0010
,
0100
0110
0001
2002
,
0000
0000
3003
0100
0010
0000
0010
0000
,
1000
0000
0001
0100
0002
0000
0100
0000
,
1003
0100
2000
0000
0100
0000
3002
0000
,
0000
0000
2003
0000
,
3001
2000
0000
0000
,
3020
0000
0000
0230
,
0000
0000
0302
0000
,
1003
1000
1001
0000
0000
0101
0000
0000
,
1001
0000
0000
1010
0000
0000
1001
0000
,
0000
0101
0000
0000
1001
0000
0000
0000
,
0001
0001
1000
0100
0010
0000
0001
0000
,
0101
0000
0010
1000
0000
0000
0100
0010
,
0001
0000
1000
0000
1100
0000
0010
0001
,
0000
0000
0100
0010
1000
0000
0001
0000
,
0101
0000
0010
1000
0000
0000
0100
0010
,
0001
0000
0010
0000
0011
0000
0100
1000
,
0000
1100
1100
1001
,
1001
0011
0011
1001
,
1001
0101
0101
1001
,
1001
1010
1010
1001
,
1001
0000
0010
0001
0010
0001
0100
0010
,
0100
0000
0010
1000
0010
1000
0100
0010
,
0100
0000
1000
0001
1000
0001
0100
0001
,
0100
0000
0001
1000
0001
1000
0100
1000
,
0100
2002
3003
0022
,
0033
2200
3300
0220
,
0330
2002
0000
0000
,
0000
0000
0000
0000
,
0000
0000
0000
0000
,
0000
0000
0000
0000
,
3003
2000
0000
3020
,
0000
0230
0000
0302
,
0000
1003
0001
1000
,
0001
0000
0100
0010
0100
0000
0010
0100
,
0010
0000
1001
0000
1000
0001
0010
0000
,
0100
0010
0100
0000
1000
0010
0100
0000
,
0001
1000
0001
0000
0010
0100
1000
0000
,
0001
0100
0010
0000
1000
0100
0010
0001
,
1000
0000
1001
0000
0000
0001
0100
0001
,
1001
0000
0000
1000
0100
1000
1001
0000
,
0000
0001
0010
0001
1001
0000
0000
1000
,
0010
1000
1002
0000
0000
0013
0000
0000
,
0200
0000
0000
1300
0000
0000
0020
0000
,
0000
0130
0000
0001
2000
0000
3100
0020
,
0000
0031
2000
0000
3200
0000
0320
0000
,
0032
2003
3020
0230
,
0302
2003
3200
0320
,
0032
0000
1003
0020
0000
0000
0000
0000
,
0030
0000
0000
0000
;

//---------------dance-single - ----------------
#NOTEDATA:;
#CHARTNAME:;
#STEPSTYPE:dance-single;
#DESCRIPTION:;
#CHARTSTYLE:;
#DIFFICULTY:Hard;
#METER:13;
#RADARVALUES:0.514854,0.647421,0.194226,0.230194,0.273356,501.000000,474.000000,27.000000,32.000000,0.000000,0.000000,0.000000,0.000000,0.000000,0.514854,0.647421,0.194226,0.230194,0.273356,501.000000,474.000000,27.000000,32.000000,0.000000,0.000000,0.000000,0.000000,0.000000;
#CREDIT:;
#NOTES:
0000
0000
0000
0000
,
0000
0000
0000
0000
,
0000
0000
0000
0000
,
0000
0000
0000
0000
,
0000
0000
0000
0000
,
1001
0000
0010
0100
1000
0000
0100
1000
,
0010
0100
0001
0000
1001
0000
0100
0010
,
0001
0000
0010
0001
0100
0010
1000
0000
,
1100
0010
0001
1000
,
1100
0000
0001
0000
2002
0000
0000
3003
,
0000
1000
0001
0000
0001
0001
0010
0100
,
1000
1000
0000
0010
1000
0002
0000
1003
,
0100
0010
0100
0000
0010
0001
0010
0100
,
1000
0001
0001
0000
0101
0000
0000
0000
,
1001
1100
0001
0100
,
1000
0000
0100
0000
0001
0010
0100
0000
,
0000
1000
0001
0000
0101
0000
0000
0001
,
1000
0000
1100
0000
0001
0000
1000
0010
,
0001
0010
1000
0100
0010
0001
1000
0000
,
0010
0000
1001
0000
1100
0000
0000
1000
,
0001
0000
0010
0001
0100
0010
1000
0100
,
0001
0100
1000
0001
0010
0100
1000
0000
,
0000
0000
1001
0000
0011
0000
0100
1000
,
0010
0001
0010
0000
1000
0100
1000
0010
,
0001
0010
1000
0100
0010
0001
0100
0000
,
1010
0000
1001
0100
0010
0001
1000
0010
,
0010
0000
0110
0100
0001
0000
1001
0010
,
0100
1000
0000
0010
0010
1000
0100
0000
,
1001
0000
0010
0100
0002
0000
0103
0010
,
1000
0100
0020
0000
0031
0000
1000
0100
,
0010
0100
1000
0010
0100
0001
0010
0100
,
0010
0001
2000
0000
0100
0000
0100
0000
,
3200
0010
0010
0320
,
0001
0001
0032
1000
,
1003
0001
1000
0001
1000
0100
0000
1000
0000
0000
0010
0100
0000
0010
0100
0000
,
0001
0010
0000
0001
0000
0000
0100
0010
0000
0100
0010
0000
1000
0010
0000
1000
,
0000
0000
0100
0010
0000
0100
0010
0000
0001
0100
0000
0001
0000
0000
0000
0000
,
0100
0010
0100
0010
0100
0000
0001
0000
1000
0000
0000
0000
0100
0000
1000
0000
,
0001
0000
1000
0000
0100
1000
0200
0000
0000
0000
0000
0000
1300
0000
0001
0000
,
0010
0000
0000
0000
0001
0000
0100
0000
0001
0000
0010
0000
0001
0100
0001
0000
,
1000
0001
1000
0001
1000
0000
0100
0000
0010
0000
0000
0000
0100
0000
1000
0000
,
0001
0000
1000
0000
0100
1000
0200
0000
0000
0000
0000
0000
1300
0000
0010
0000
,
0100
0000
0000
0000
0001
0000
0100
0000
0001
0000
1000
0000
0100
1000
0010
0100
,
0010
0100
0010
0000
1000
0100
0000
0000
0100
0010
0000
0000
0010
0001
0000
0000
,
0001
1000
0000
0000
0001
0010
0000
0000
0010
0100
0000
0000
0100
1000
0000
0000
,
1000
0001
0000
0000
0100
0001
0000
0000
0001
1000
0000
0000
1000
0010
0000
0000
,
0010
0100
0000
0000
0001
1000
0000
0000
1000
0100
0000
0000
0100
0010
0000
0000
,
0010
0001
0000
0000
1000
0000
0010
0100
0010
0000
1000
0000
0100
0000
0001
0000
,
0100
0000
1000
0000
0000
0000
0100
0010
0100
0000
1000
0000
0010
0000
0001
0000
,
0010
0000
1000
0000
0000
0000
0010
0100
0010
0000
1000
0000
0100
0000
0001
0000
,
0100
0000
1000
0000
0000
0000
0100
0010
0100
0000
1000
0000
0010
0000
0001
0000
,
0010
0000
1000
0000
0001
0100
0000
0100
0000
0100
0000
0100
0001
1000
0000
1000
,
0000
1000
0000
1000
0001
0010
0000
0010
0000
0010
0000
0010
0001
0100
0000
0100
,
0000
0100
0000
0100
0020
0000
0000
0000
0000
0000
1000
0000
2030
0000
0000
0000
,
0000
0001
3002
0000
0000
0010
0023
0000
,
0100
0000
0230
0000
0000
1000
0000
0000
,
2300
3020
0230
0302
,
2003
0000
3002
0000
0000
1003
0200
0000
,
1300
0010
0200
0000
0302
0000
0023
0000
,
0230
0000
2300
0000
0000
0001
0000
3001
,
0000
0000
1000
0100
1000
0000
0010
0000
0100
0000
0001
0010
0001
0000
0100
0000
,
0010
0100
0010
0100
0010
0000
0000
0000
1000
0000
0001
0100
0001
0000
1000
0000
,
0100
0000
0010
0000
0002
0000
0000
0000
1003
0000
0010
0100
0010
0000
0000
0000
,
0100
0000
0001
0000
0010
0000
0000
0000
0100
0010
0100
0000
1000
0000
1000
0000
,
0001
0000
0001
0000
0200
0000
0000
0000
0301
1000
0100
0000
1000
0100
0010
0001
,
1000
0000
1000
0000
1001
0000
0100
1000
0100
0000
0100
0000
0010
0000
0010
0000
,
1001
0000
0100
0001
0100
0000
0100
0000
0010
0000
0010
0000
1001
0000
0010
0001
,
0010
0000
0010
0000
0100
0000
0100
0000
1001
0000
0010
1000
0010
0000
0010
0000
,
0100
0100
1001
0010
0100
1000
0001
0001
,
1000
0100
0010
0001
0001
0000
1000
0010
,
0100
0001
0001
1000
1010
0000
0100
0110
,
0000
0001
1001
0100
0010
0001
1000
0100
,
0010
0001
0100
0010
1000
0001
0100
0001
,
0010
1000
0010
0001
1000
0100
0001
0100
,
1000
0010
0200
0002
0000
0000
0000
0000
,
0303
0000
0000
0000
;

//---------------dance-single - ----------------
#NOTEDATA:;
#CHARTNAME:;
#STEPSTYPE:dance-single;
#DESCRIPTION:;
#CHARTSTYLE:;
#DIFFICULTY:Challenge;
#METER:15;
#RADARVALUES:0.708053,0.917180,0.597066,0.338098,0.575486,689.000000,606.000000,83.000000,47.000000,0.000000,0.000000,0.000000,0.000000,0.000000,0.708053,0.917180,0.597066,0.338098,0.575486,689.000000,606.000000,83.000000,47.000000,0.000000,0.000000,0.000000,0.000000,0.000000;
#CREDIT:;
#NOTES:
// measure 0
0000
0000
0000
0000
,  // measure 1
0000
0000
0000
0000
,  // measure 2
0000
0000
0000
0000
,  // measure 3
0000
0000
0000
0000
,  // measure 4
0000
0000
0000
0000
,  // measure 5
0201
0000
0000
0000
0301
0010
0100
1000
0020
0000
0000
0000
1030
0000
0100
0000
,  // measure 6
0001
0000
0100
0000
1000
0000
0000
0000
1020
0000
1000
0000
0130
0001
0010
0100
,  // measure 7
2000
0000
0001
3100
1000
0100
0001
0000
,  // measure 8
0201
0320
2030
3002
,  // measure 9
0023
0000
0130
0000
2002
0000
0000
3003
,  // measure 10
0000
0001
1000
0010
1000
0011
0000
0100
,  // measure 11
1000
0101
0000
0010
1000
1001
0000
0001
,  // measure 12
0100
0000
0000
1000
0000
0000
0100
0000
0000
0001
0000
0000
1000
0000
0000
1000
0000
0000
0001
0000
0000
0010
0100
0010
,  // measure 13
0100
1000
1000
0000
1100
0001
0010
0100
,  // measure 14
1001
0011
1100
0110
,  // measure 15
0011
0000
0110
0000
1001
0100
0010
0000
,  // measure 16
0000
0001
0001
1000
1100
0001
0100
0001
,  // measure 17
0001
1000
1100
0000
0101
0000
1001
0100
,  // measure 18
0010
0001
0100
0010
1001
0010
0100
0000
,  // measure 19
1100
0000
1001
0000
0101
1000
1000
0010
,  // measure 20
0110
0000
0000
0000
0001
1000
0010
1000
0001
0000
0010
0000
1100
0000
1000
0000
,  // measure 21
0010
0010
0100
0100
0001
0010
1100
0000
,  // measure 22
0001
0100
0001
1000
0100
0000
0000
0000
1100
0000
0001
0000
0001
0000
1000
0000
,  // measure 23
0010
0100
0001
0000
0001
0100
0001
0010
,  // measure 24
1000
0010
0001
1000
0100
0010
0100
0000
,  // measure 25
1000
0001
0100
0001
1000
0100
0010
0001
1000
0000
0010
0000
0010
0000
0100
0000
,  // measure 26
0110
0000
1001
0010
0100
0000
1010
0001
,  // measure 27
0010
1100
0001
1000
1000
0010
0100
0000
,  // measure 28
0101
0000
0000
0000
0000
0000
1000
0000
0000
0100
0000
0000
0010
0001
0010
0001
0010
0001
1000
0000
0000
0100
0000
0000
,  // measure 29
0010
0000
0000
0001
0100
0001
0100
0000
0000
0010
0000
0000
0010
0000
0000
1000
0000
0000
0001
0000
0000
0010
0000
0000
,  // measure 30
0100
0000
1000
0000
0010
0000
1000
0000
0001
0000
0010
0000
0100
0000
1000
0010
,  // measure 31
1000
0000
0010
1000
0001
0000
0000
0000
0010
0100
1000
0000
0010
0000
0100
0000
,  // measure 32
0101
0000
0000
0000
0010
0100
1000
0000
0010
0000
0100
0000
0101
0000
0000
0000
,  // measure 33
0010
0100
1000
0000
0010
0000
0100
0000
0101
0000
0000
0000
0010
0100
1000
0000
,  // measure 34
0010
0100
0010
0100
0001
1000
0000
1100
0000
0000
0010
0001
0100
0010
1000
0100
,  // measure 35
1000
0001
0000
0101
0000
0000
0010
1000
0100
0010
0001
0100
0001
1000
0000
1100
,  // measure 36
0000
0000
0010
0001
0100
0010
1000
0100
1000
0001
0000
0101
0000
0000
0010
1000
,  // measure 37
0100
0010
0100
0010
0001
0000
0001
1000
0010
0000
0000
0000
0100
0000
0001
0000
,  // measure 38
1001
0000
0100
0000
0010
0001
0020
0000
0000
0000
0000
0000
0031
0000
0100
0010
,  // measure 39
1000
0000
0000
0000
0010
0000
1000
0000
1001
0000
0010
0000
0100
1000
0100
0000
,  // measure 40
0010
0100
0010
0100
1000
0000
0010
0100
0001
0000
0000
0000
0100
0000
0001
0000
,  // measure 41
1001
0000
0100
0000
0010
0100
0010
0000
0001
0010
0100
1000
0001
0100
0010
0100
,  // measure 42
0001
0000
0001
0000
0100
0000
0001
0000
1001
0000
0100
1000
0010
0100
0001
0010
,  // measure 43
0100
1000
0010
0000
0200
0001
0300
0000
0020
1000
0030
0000
2000
0001
3000
0000
,  // measure 44
0200
1000
0300
0000
0020
0001
0030
0000
0002
1000
0003
0000
0200
0010
0300
0000
,  // measure 45
0002
0100
0003
0000
2000
0010
3000
0000
0002
0010
0003
0000
2000
0100
3000
0000
,  // measure 46
0020
0100
0030
0000
2000
0001
3000
0000
0020
1000
0030
0000
0200
0001
0300
0000
,  // measure 47
0001
1000
0001
1000
0100
0000
0100
0010
0001
0000
0001
0010
0100
0000
0100
1000
,  // measure 48
0010
0000
1001
0000
0000
0000
0010
0100
1000
0000
1000
0100
0010
0000
0010
0001
,  // measure 49
0100
0000
1001
0000
0000
0000
0010
0100
0001
0000
0001
0100
0010
0000
0010
1000
,  // measure 50
0100
0000
1001
0000
0000
0000
0010
1000
0100
0000
0100
1000
0010
0000
0010
0100
,  // measure 51
0001
0010
0100
1000
0200
0010
0000
0010
0000
0010
0000
0310
0002
0100
0000
0100
,  // measure 52
0000
0100
0000
0103
0020
1000
0000
1000
0000
1000
0000
1030
0200
0010
0000
0010
,  // measure 53
0000
0010
0000
0310
0002
0000
0000
0000
0000
0000
1003
0100
2000
0000
0000
0000
,  // measure 54
0000
3000
0001
0010
0002
0000
0000
0000
0000
0000
0103
0010
0200
0000
0000
0000
,  // measure 55
0301
0000
0010
0000
0200
0000
0000
0000
0000
1300
0010
0100
0002
0000
0000
0000
,  // measure 56
0103
0000
0010
0000
2000
0000
0000
0000
3001
0010
0100
0010
0001
0010
0100
1000
,  // measure 57
0020
0000
0000
0000
0230
0000
0000
0000
0000
0001
0310
0100
2000
0000
0000
0000
,  // measure 58
3010
0100
0002
0000
0203
0000
2300
0000
,  // measure 59
3200
0000
0301
1000
0001
0100
0000
0100
,  // measure 60
0001
0000
1000
0100
0010
0001
1000
0001
1000
0000
0001
0010
0100
1000
0001
1000
,  // measure 61
0010
0100
0010
0100
0001
0000
1000
0000
0001
0000
0010
0100
1000
0000
0010
0000
,  // measure 62
0100
0000
0000
0001
0000
0000
0010
0000
0000
0100
0000
0000
1000
0000
0001
0000
1000
0000
0002
0000
0000
0000
0000
0000
0000
0000
0000
0000
0000
0000
0103
0000
0000
0010
0000
0000
1000
0000
0000
0000
0000
0000
0010
0000
0000
0000
0000
0000
,  // measure 63
1000
0000
0100
0000
0011
0000
1000
0000
0010
0100
0001
0010
0100
0000
1010
0000
,  // measure 64
0010
0000
0000
0000
0000
0000
0100
0000
0000
0000
0000
0000
0001
0000
1000
0000
0001
0000
1000
0000
0001
0000
1000
0000
0001
0000
0000
0010
0000
0000
0100
0000
0000
1000
0000
0000
0100
0000
0000
0010
0000
0000
0001
0000
0000
1000
0000
0000
,  // measure 65
0010
0000
0010
0000
1001
0100
0010
0001
1000
0000
1001
0000
0110
0000
0110
0000
,  // measure 66
1001
0010
0100
1000
0001
0000
1001
0000
0110
0000
0110
0000
1001
0010
0100
0001
,  // measure 67
0010
1001
0110
0110
1001
1001
0101
0110
,  // measure 68
1010
0000
0010
0000
1001
0010
0100
1000
0010
0000
0101
0000
0110
0000
1010
0000
,  // measure 69
1001
0100
0010
0001
0010
0000
1100
0000
0110
0000
0000
0000
1001
0100
0010
1000
,  // measure 70
0100
0011
0110
1000
1001
0010
0100
1100
,  // measure 71
0010
0101
1001
0100
0011
0100
1000
0100
,  // measure 72
1001
0010
0100
0001
0100
0010
1001
0010
,  // measure 73
0100
1000
0100
0010
0101
1000
0100
0010
,  // measure 74
0001
0000
0000
0100
0000
0000
0001
0010
0100
2000
0000
0000
0000
0000
0000
0000
0000
0000
0000
0000
0000
0000
0000
0000
,  // measure 75
3000
0000
0000
0000
;

//---------------dance-single - ----------------
#NOTEDATA:;
#CHARTNAME:;
#STEPSTYPE:dance-single;
#DESCRIPTION:;
#CHARTSTYLE:;
#DIFFICULTY:Beginner;
#METER:2;
#RADARVALUES:0.075019,0.133531,0.035968,0.000000,0.000000,73.000000,68.000000,5.000000,0.000000,0.000000,0.000000,0.000000,0.000000,0.000000,0.075019,0.133531,0.035968,0.000000,0.000000,73.000000,68.000000,5.000000,0.000000,0.000000,0.000000,0.000000,0.000000,0.000000;
#CREDIT:;
#NOTES:
0000
0000
0000
0000
,
0000
0000
0000
0000
,
0000
0000
0000
0000
,
0000
0000
0000
0000
,
0000
0000
0000
0000
,
1000
0000
0000
0000
,
0000
0000
0010
0000
,
0000
0000
0000
0000
,
0100
0000
0000
0000
,
0000
0000
0000
0000
,
0000
0001
0000
0000
,
0000
0000
0000
0000
,
0000
0000
0000
0000
,
0000
1000
0000
0000
,
1000
0000
0000
0100
,
0000
0000
0010
0000
,
0000
0001
0000
0000
,
0001
0000
0000
0010
,
0000
0000
0100
0000
,
0000
1000
0000
0000
,
1000
0000
0000
0010
,
0000
0000
0100
0000
,
0000
0001
0000
0000
,
0001
0000
0000
0100
,
0000
0000
0010
0000
,
0000
1001
0000
0000
,
1000
0000
0000
0001
,
0000
0000
0001
0000
,
0000
0010
0000
0000
,
0100
0000
0000
1000
,
0000
0000
0000
0000
,
0000
0010
0000
0000
,
0000
0000
0000
0000
,
0000
0000
0000
0000
,
0000
0010
0000
0000
,
0100
0000
0000
0010
,
0000
0000
0100
0000
,
0000
0001
0000
0000
,
0001
0000
0000
1000
,
0000
0000
1000
0000
,
0000
0001
0000
0000
,
1000
0000
0000
0001
,
0000
0000
1000
0000
,
0000
0100
0000
0000
,
0000
0100
0000
0000
,
0000
0100
0000
0000
,
0000
0100
0000
0000
,
0000
1000
0000
0000
,
0000
0010
0000
0000
,
0000
0100
0000
0000
,
0000
0001
0000
0000
,
0000
1001
0000
0000
,
0000
1001
0000
0000
,
0000
0001
0000
0000
,
0000
0000
0000
0000
,
0000
0000
0000
0000
,
0000
0000
0000
0000
,
0000
0001
0000
0000
,
0000
1000
0000
0000
,
0000
0001
0000
0000
,
0000
1000
0000
0000
,
0000
0010
0000
0000
,
0000
0010
0000
0000
,
0000
0100
0000
0000
,
0000
0100
0000
0000
,
0000
1001
0000
0000
,
0001
0000
0000
1001
,
0000
0000
1000
0000
,
0000
0001
0000
0000
,
0010
0000
0000
0100
,
0000
0000
1000
0000
,
0000
0000
0000
0000
,
0000
0000
0000
0000
,
0000
0000
0000
0000
,
0000
0010
0000
0000
;
