#VERSION:0.83;
#TITLE:mint tears;
#SUBTITLE:;
#ARTIST:ribbon room;
#TITLETRANSLIT:;
#SUBTITLETRANSLIT:;
#ARTISTTRANSLIT:;
#GENRE:;
#ORIGIN:;
#CREDIT:DigiMindAxel;
#BANNER:mint tears.png;
#BACKGROUND:mint tears-bg.png;
#PREVIEWVID:;
#JACKET:mint tears-jacket.png;
#CDIMAGE:;
#DISCIMAGE:;
#LYRICSPATH:mint tears.lrc;
#CDTITLE:TAIKO NO TATSUJIN.png;
#MUSIC:mint tears.ogg;
#OFFSET:-0.570000;
#SAMPLESTART:26.057985;
#SAMPLELENGTH:12.000000;
#SELECTABLE:YES;
#BPMS:0.000=188.000,
144.000=94.000,
160.000=188.000,
256.000=94.000,
272.000=188.000;
#STOPS:;
#DELAYS:;
#WARPS:;
#TIMESIGNATURES:0.000=4=4;
#TICKCOUNTS:0.000=4;
#COMBOS:0.000=1;
#SPEEDS:0.000=1.000=0.000=0;
#SCROLLS:0.000=1.000;
#FAKES:;
#LABELS:0.000=Song Start;
#BGCHANGES:;
#KEYSOUNDS:;
#ATTACKS:
;

//---------------dance-single - ----------------
#NOTEDATA:;
#CHARTNAME:;
#STEPSTYPE:dance-single;
#DESCRIPTION:;
#CHARTSTYLE:;
#DIFFICULTY:Easy;
#METER:6;
#RADARVALUES:0.268874,0.331559,0.052524,0.070032,0.000000,215.000000,209.000000,6.000000,8.000000,0.000000,0.000000,0.000000,0.000000,0.000000,0.268874,0.331559,0.052524,0.070032,0.000000,215.000000,209.000000,6.000000,8.000000,0.000000,0.000000,0.000000,0.000000,0.000000;
#CREDIT:;
#NOTES:
0000
0000
0000
0000
,
0000
0000
0000
0000
,
0000
0000
0000
0000
,
0000
0000
0000
0000
,
1001
0000
1000
0000
,
0001
0010
0100
1000
,
0001
0000
0001
0000
,
1000
0100
0010
0001
,
1000
0000
1000
0000
,
0010
0100
0010
1000
,
0001
0000
0001
0000
,
0100
0010
1000
0001
,
1000
0000
1000
0000
,
0010
0100
0001
0010
,
0100
0000
1000
0000
,
1000
0010
0100
0001
,
1000
0000
1000
0000
,
0001
0010
0100
1000
,
0001
0000
0001
0000
,
0100
0000
0000
0000
,
0110
0000
0100
0010
,
0100
0000
0000
0000
,
0001
1000
0001
0010
,
0100
0000
0000
0000
,
1000
0001
1000
0100
,
0010
0000
0000
0000
,
0001
1000
0001
0010
,
0100
0000
0000
0000
,
1000
0100
0010
0001
,
0100
0000
0000
0000
,
0001
0010
0100
1000
,
0010
0000
0000
0000
,
0100
0010
1000
0100
,
0010
0000
0000
0000
,
0001
0010
0100
1000
,
0010
0000
0000
0000
,
0110
0000
0100
0010
,
0100
0000
0001
1000
,
0001
0000
1000
0001
,
1000
0000
0000
0000
0010
0010
0010
0000
,
0110
0000
0100
0010
,
1000
0100
0010
0001
,
1000
0000
0010
0100
,
0001
0010
0100
1000
,
0001
0000
0010
0001
,
0100
0010
1000
0100
,
0010
0000
0001
0000
,
1000
0000
0000
0000
,
1001
0000
0001
0000
,
1000
0100
0010
0000
,
0001
0000
1000
0000
,
0001
0010
0100
0000
,
1000
0000
0001
0000
,
1000
0010
0100
0000
,
0001
0000
1000
0000
,
0001
0100
0010
0000
,
0100
0010
0100
0001
,
0010
0100
1000
0000
,
0010
0100
0010
1000
,
0100
0010
0001
0000
,
0100
0001
0010
0100
,
1000
0001
0100
0000
,
0010
1000
0100
0010
,
0001
1000
0010
0000
,
0200
0000
0320
0000
,
0230
0000
0320
0030
,
2000
0000
3002
0000
,
2003
0000
3002
0003
,
1001
0010
0100
1000
,
0001
1000
0001
1000
,
0010
0100
0010
0100
,
0001
0010
0100
1000
,
0001
1000
0001
1000
,
0100
1000
0100
1000
,
0010
0100
0010
0100
,
0001
0010
0100
1000
;

//---------------dance-single - ----------------
#NOTEDATA:;
#CHARTNAME:;
#STEPSTYPE:dance-single;
#DESCRIPTION:;
#CHARTSTYLE:;
#DIFFICULTY:Medium;
#METER:11;
#RADARVALUES:0.440203,0.464949,0.210097,0.245113,0.000000,352.000000,328.000000,24.000000,28.000000,0.000000,0.000000,0.000000,0.000000,0.000000,0.440203,0.464949,0.210097,0.245113,0.000000,352.000000,328.000000,24.000000,28.000000,0.000000,0.000000,0.000000,0.000000,0.000000;
#CREDIT:;
#NOTES:
0000
0000
0000
0000
,
0000
0000
0000
0000
,
0000
0000
0000
0000
,
0000
0000
0000
0000
,
1001
0000
0001
1000
0001
0000
0100
0000
,
0010
0000
1000
0000
0100
0010
0100
0000
,
1001
0000
1000
0000
0001
1000
0000
0010
,
0000
0100
0000
0002
0000
0000
1003
0000
,
0001
0000
0010
0100
0010
0000
0001
0000
,
1000
0000
0010
0100
0010
0000
1000
0000
,
0001
0100
1000
0100
,
0001
1000
0001
1000
0001
0000
0000
0000
,
1001
0000
0001
0100
0001
1000
0000
0010
,
0000
1000
0000
0001
0100
0000
0001
0000
,
1001
0000
1000
0010
1000
0001
0000
0100
,
0000
0001
0000
1000
0000
0100
0000
1000
,
0001
0000
1000
0100
0010
0000
0100
0000
,
1000
0000
0001
0100
0010
0000
0100
0000
,
0001
0000
1000
0001
0010
0000
0100
0000
,
0220
0000
0000
0330
,
1001
0000
0000
0001
0010
0100
1000
0001
,
0000
0001
0000
0000
0100
0000
0010
0000
,
1001
0000
0000
1000
0100
0010
0001
1000
,
0000
1000
0000
0000
0010
0000
0100
0000
,
1001
0000
0000
0001
0100
0010
1000
0001
,
0000
0001
0000
0000
0100
0000
0010
0000
,
1001
0000
0000
1000
0010
0100
0001
1000
,
0100
0100
0100
1100
,
0001
0100
0001
0000
1000
0100
0010
0001
,
0000
0100
0000
0000
0010
0000
0100
0000
,
0001
0100
0001
0000
1000
0100
0010
0001
,
0000
0100
0000
0010
0100
0000
0001
0000
,
1000
0100
1000
0000
0001
0010
0100
1000
,
0000
0010
0000
0000
0100
0000
0010
0000
,
1000
0100
1000
0000
0001
0010
0100
1000
,
0010
0010
0010
1010
,
0210
0000
0001
0000
0010
0000
0001
0300
,
0020
0000
1000
0000
0100
0000
1000
0030
,
0200
0001
0302
1000
,
2003
0000
0100
0000
3100
0010
0110
0000
,
1001
0000
0000
0001
0100
0001
1000
0100
,
1000
0000
0100
0010
0000
0001
0000
2000
,
0000
3001
0010
1000
,
0010
0000
0001
0100
0010
0000
0100
0001
,
2000
0000
3001
0100
,
1000
0000
0100
0000
0001
0010
0100
0000
,
1000
0000
0010
0200
0000
0000
0000
0000
,
0300
0000
0002
0000
0000
1000
1003
0000
,
1001
0000
1000
0001
0010
0100
1000
0010
,
0000
0010
0000
0020
0000
0000
0000
0000
,
1030
0000
0001
0010
0100
1000
0000
0010
,
0000
0010
0000
0020
0000
0000
0000
0000
,
0130
0000
0001
1000
0100
0010
0000
0002
,
0000
0203
0000
0000
,
0310
0000
1000
0100
0010
0001
1000
0010
,
0100
0100
0100
0101
,
1001
0000
0001
0010
0100
1000
0000
0010
,
0000
0100
0000
0020
0000
0000
0000
0000
,
0130
0000
0001
0100
0010
1000
0000
0100
,
0000
0010
0000
0200
0000
0000
0000
0000
,
1300
0000
0001
0010
0100
1000
0000
0020
,
0000
0230
0000
0300
,
0001
0000
1000
0100
0010
0001
0000
1000
,
0100
0100
0100
0110
,
0002
0000
0023
0000
,
0230
0000
0000
0000
1300
1000
0000
0000
,
0002
0000
0023
0030
,
0200
0000
2300
3020
0130
0100
0000
0000
,
1001
0000
1000
0010
0100
0001
1000
0000
,
1000
0000
0001
0010
0100
1000
0001
0000
,
0001
0000
0010
0100
1000
0010
0100
0000
,
1001
0010
1001
0010
,
1001
0000
0001
0100
0010
1000
0001
0000
,
0001
0000
1000
0100
0010
0001
1000
0000
,
1000
0000
0100
0010
0001
0100
0010
0000
,
1001
0000
0010
0000
1001
0000
0010
0010
;

//---------------dance-single - ----------------
#NOTEDATA:;
#CHARTNAME:;
#STEPSTYPE:dance-single;
#DESCRIPTION:;
#CHARTSTYLE:;
#DIFFICULTY:Hard;
#METER:14;
#RADARVALUES:0.677813,0.830266,0.253867,0.420194,0.385178,542.000000,513.000000,29.000000,48.000000,0.000000,0.000000,0.000000,0.000000,0.000000,0.677813,0.830266,0.253867,0.420194,0.385178,542.000000,513.000000,29.000000,48.000000,0.000000,0.000000,0.000000,0.000000,0.000000;
#CREDIT:;
#NOTES:
0000
0000
0000
0000
,
0000
0000
0000
0000
,
0000
0000
0000
0000
,
0000
0000
0000
0000
,
1001
0000
0001
1000
0010
0010
0000
0100
,
0000
0100
0000
0100
0001
0010
0100
0000
,
1001
0000
1000
0001
0100
0100
0000
0010
,
0000
0010
1000
0100
0010
0001
0000
2001
,
0000
0100
0010
0100
,
3010
0000
1000
0100
0010
0001
0000
2001
,
0000
0100
0001
0100
,
3001
0000
0000
0001
1000
0000
0000
1000
0100
0000
0000
0100
0010
0000
0000
0000
,
1001
0000
1000
0001
0001
1000
0010
0100
,
0010
1000
0100
0010
0100
1000
0000
1002
,
0000
0100
1000
0100
,
1003
0001
0010
0100
0010
0001
0000
2001
,
0000
0100
0001
0100
,
3001
0000
1000
0100
0010
0001
0000
1000
,
0002
0100
1000
0100
,
1003
0000
0000
1000
0100
0000
0000
0100
0010
0000
0000
0010
0100
0000
0000
0000
,
2002
0000
3003
1000
0001
0010
0100
1000
,
0000
1001
0000
0001
1000
0100
0001
0100
,
2002
0000
3003
0001
1000
0010
0100
0001
,
0000
1000
0000
1000
0001
0100
1000
0100
,
2002
0000
3003
1000
0001
0100
0010
1000
,
0000
1001
0000
0001
1000
0010
0001
0010
,
1000
0100
0010
0100
1000
0010
0100
0001
,
1000
0000
0000
1000
0001
0000
0000
0001
0010
0000
0000
0010
0100
0000
0000
0000
,
1000
0001
0100
0001
1000
0010
0001
0010
,
1000
0001
0000
1000
0001
0100
1000
0100
,
0001
1000
0100
1000
0001
0010
1000
0010
,
0000
0001
0000
0001
1000
0100
0001
0100
,
1000
0001
0010
0001
1000
0100
0001
0100
,
0000
1001
0000
1000
0001
0010
1000
0010
,
0001
1000
0100
1000
0001
0010
1000
0010
,
0001
0000
0000
0001
1000
0000
0000
1000
0100
0000
0000
0100
0010
0000
0000
0000
,
1001
0000
0001
0000
1000
0100
0000
1000
0000
1000
0100
0010
0001
1000
1000
0000
,
0001
0000
0010
0000
0001
0100
0000
0001
0000
0001
0000
0100
0001
0010
0100
1000
,
0002
0000
0100
0000
0100
0100
0000
0000
2003
0000
0010
0000
0010
0010
0000
0000
,
3001
0000
1000
0010
1000
0000
0001
0010
1001
0000
1001
0000
1000
0100
0010
0001
,
1001
0000
0000
0000
0001
0000
0100
0010
0100
0010
0100
0000
0001
0000
0000
0000
,
0010
0100
1000
0020
0000
0230
0000
0310
,
1000
0000
0000
0000
0001
0000
0010
0100
0010
0100
0010
0000
0001
0000
0000
0000
,
1000
0100
0010
0002
0000
2003
0000
3001
,
0100
0000
0000
0000
0010
0000
1000
0001
1000
0001
1000
0000
0010
0000
0000
0000
,
1000
0100
0010
0002
0000
0203
0000
0310
,
1000
0000
0001
0200
0010
0000
0000
0310
,
0000
0000
2000
0000
0000
0001
3001
0000
,
1001
0000
0001
0010
1000
0010
0001
0200
,
0000
0320
0000
2030
0000
0001
3001
0000
,
1001
0000
1000
0100
0001
0100
1000
0020
,
0000
0230
0000
0302
0000
1000
1003
0000
,
0110
0000
0100
0001
0010
0200
0000
2300
,
0000
0000
3002
0000
0000
0100
0103
0000
,
0110
0000
0100
0010
1000
0100
0010
0001
,
0100
0000
0010
0100
0010
0000
1000
0010
1000
0000
0001
0100
0001
0000
0000
0000
,
1001
0000
0000
0000
1000
0000
0001
0100
0001
0100
0001
0000
1000
0000
0020
0000
,
0000
0230
0000
0320
0000
1000
1030
0000
,
1001
0000
0000
0000
0001
0000
1000
0100
1000
0100
1000
0000
0001
0000
0020
0000
,
0000
0230
0000
0320
0000
0001
0031
0000
,
1001
0000
0000
0000
1000
0000
0001
0100
0001
0100
0001
0000
1000
0000
0200
0000
,
0000
0310
0002
0000
0000
1000
1003
0000
,
1001
0000
0000
0000
0001
0000
1000
0100
1000
0100
1000
0000
0001
0000
0010
0000
,
0100
0000
1000
0100
1000
0000
0001
1000
0001
0000
0010
0001
0010
0001
0010
0000
,
0200
0000
1000
1000
0000
1000
0000
1000
0320
0000
0001
0001
0000
0001
0000
0001
,
0230
0000
1000
1000
0000
1000
0000
1300
0010
0000
0220
0000
0330
0000
0000
0000
,
0020
0000
1000
1000
0000
1000
0000
1000
0230
0000
0001
0001
0000
0001
0000
0001
,
0320
0000
1000
1030
0001
1000
0010
1000
0100
0000
0220
0000
0330
0000
0000
0000
,
1001
0000
0000
0000
0001
0000
1000
0010
1000
0010
1000
0000
0001
0000
0100
0000
,
0010
0000
0010
0000
1000
0000
0001
0010
0001
0010
0001
0000
1000
0000
0100
0000
,
0010
0000
0001
0000
0100
0000
0001
1000
0001
1000
0001
0000
0100
0000
0010
0000
,
1000
0000
0100
1000
0100
0000
0010
0001
0010
0000
0100
0010
0100
0010
0100
0000
,
1001
0000
0000
0000
1000
0000
0001
0010
0001
0010
0001
0000
1000
0000
0100
0000
,
0010
0000
0010
0000
0001
0000
1000
0010
1000
0010
1000
0000
0001
0000
0100
0000
,
0010
0000
1000
0000
0100
0000
1000
0001
1000
0001
1000
0000
0100
0000
0010
0000
,
0001
0000
0100
0001
0100
0000
0010
1000
0010
0000
0100
0010
0100
0010
0100
0000
;

//---------------dance-single - ----------------
#NOTEDATA:;
#CHARTNAME:;
#STEPSTYPE:dance-single;
#DESCRIPTION:;
#CHARTSTYLE:;
#DIFFICULTY:Beginner;
#METER:3;
#RADARVALUES:0.150069,0.198279,0.035016,0.000000,0.000000,120.000000,116.000000,4.000000,0.000000,0.000000,0.000000,0.000000,0.000000,0.000000,0.150069,0.198279,0.035016,0.000000,0.000000,120.000000,116.000000,4.000000,0.000000,0.000000,0.000000,0.000000,0.000000,0.000000;
#CREDIT:;
#NOTES:
// measure 0
0000
0000
0000
0000
,  // measure 1
0000
0000
0000
0000
,  // measure 2
0000
0000
0000
0000
,  // measure 3
0000
0000
0000
0000
,  // measure 4
0001
0000
0000
0000
,  // measure 5
1000
0000
0001
0000
,  // measure 6
1000
0000
0000
0000
,  // measure 7
0100
0000
0010
0000
,  // measure 8
0100
0000
0000
0000
,  // measure 9
1000
0000
0001
0000
,  // measure 10
1000
0000
0000
0000
,  // measure 11
0001
0000
0001
0000
,  // measure 12
1000
0000
0001
0000
,  // measure 13
1000
0000
0000
0000
,  // measure 14
0010
0000
1000
0000
,  // measure 15
0010
0000
0000
0000
,  // measure 16
0100
0000
0010
0000
,  // measure 17
0100
0000
0000
0000
,  // measure 18
0001
0000
0100
0000
,  // measure 19
0001
0000
0000
0000
,  // measure 20
1001
0000
1000
0000
,  // measure 21
0001
0000
1000
0000
,  // measure 22
0100
0000
1000
0000
,  // measure 23
0100
0000
1000
0000
,  // measure 24
0001
0000
1000
0000
,  // measure 25
0001
0000
1000
0000
,  // measure 26
0001
0000
0100
0000
,  // measure 27
0001
0000
0000
0000
,  // measure 28
1000
0000
0001
0000
,  // measure 29
1000
0000
0001
0000
,  // measure 30
1000
0000
0010
0000
,  // measure 31
1000
0000
0010
0000
,  // measure 32
0100
0000
0010
0000
,  // measure 33
0100
0000
0010
0000
,  // measure 34
1000
0000
0001
0000
,  // measure 35
1000
0000
0000
0000
,  // measure 36
1001
0000
0000
0000
,  // measure 37
0001
0000
0000
0000
,  // measure 38
1000
0000
0001
0000
,  // measure 39
1000
0000
0000
0000
,  // measure 40
1001
0000
0001
0000
,  // measure 41
1000
0000
0001
0000
,  // measure 42
0010
0000
0001
0000
,  // measure 43
0010
0000
0001
0000
,  // measure 44
0100
0000
0010
0000
,  // measure 45
0100
0000
0010
0000
,  // measure 46
1000
0000
0100
0000
,  // measure 47
1000
0000
0000
0000
,  // measure 48
1001
0000
0000
0000
,  // measure 49
0001
0000
1000
0000
,  // measure 50
0001
0000
0000
0000
,  // measure 51
1000
0000
0100
0000
,  // measure 52
1000
0000
0000
0000
,  // measure 53
0010
0000
0100
0000
,  // measure 54
0010
0000
0000
0000
,  // measure 55
0100
0000
0001
0000
,  // measure 56
0100
0000
0000
0000
,  // measure 57
0001
0000
1000
0000
,  // measure 58
0001
0000
0000
0000
,  // measure 59
0010
0000
0001
0000
,  // measure 60
0010
0000
0000
0000
,  // measure 61
0100
0000
0010
0000
,  // measure 62
0100
0000
0000
0000
,  // measure 63
1000
0000
0100
0000
,  // measure 64
1000
0000
0000
0000
,  // measure 65
0000
0000
0000
0000
,  // measure 66
0001
0000
0000
0000
,  // measure 67
0000
0000
0000
0000
,  // measure 68
1000
0000
0010
0000
,  // measure 69
1000
0000
0010
0000
,  // measure 70
1000
0000
0010
0000
,  // measure 71
0100
0000
0100
0000
,  // measure 72
0001
0000
0100
0000
,  // measure 73
0001
0000
0100
0000
,  // measure 74
0001
0000
0100
0000
,  // measure 75
0010
0000
0010
0000
;

//---------------dance-single - ----------------
#NOTEDATA:;
#CHARTNAME:;
#STEPSTYPE:dance-single;
#DESCRIPTION:;
#CHARTSTYLE:;
#DIFFICULTY:Challenge;
#METER:16;
#RADARVALUES:0.872903,1.062740,0.551504,0.358916,0.744093,698.000000,635.000000,63.000000,41.000000,0.000000,0.000000,0.000000,0.000000,0.000000,0.872903,1.062740,0.551504,0.358916,0.744093,698.000000,635.000000,63.000000,41.000000,0.000000,0.000000,0.000000,0.000000,0.000000;
#CREDIT:;
#NOTES:
0000
0000
0000
0000
,
0000
0000
0000
0000
,
0000
0000
0000
0000
,
0000
0000
0000
0000
,
1001
0000
1000
0010
0001
0010
0100
0001
,
1000
0100
0001
1000
0100
0010
1000
0001
,
1000
0000
0001
0100
1000
0100
0010
1000
,
0001
0100
0001
0010
0100
1010
0000
1002
,
0000
0000
0100
0000
0100
0100
0000
0103
,
0000
0001
1000
0100
0010
0101
0000
2001
,
0000
0000
0001
0000
0100
0100
0000
3100
,
0000
0000
1000
0100
1000
0000
0001
0010
0001
0000
1000
0100
1000
0100
0010
0001
,
0100
0000
0001
0100
1000
0100
0010
1000
,
0001
0010
1000
0001
0010
1100
0000
1002
,
0000
0000
1000
0000
0100
0100
0000
0103
,
0000
0001
1000
0100
0010
0101
0000
1002
,
0000
0000
1000
0000
0100
0100
0000
0103
,
0000
0001
1000
0100
0010
0101
0000
0001
,
2000
0000
3010
0200
0000
0000
0010
0000
,
0310
0000
1000
0100
1000
0000
0001
0010
0001
0000
1000
0100
1000
0100
0010
0001
,
2000
0000
0000
0000
0000
0000
3001
0100
0010
0000
0100
0001
0010
0000
1100
0000
,
0000
1002
0000
0000
1003
0010
0100
0001
,
1000
0000
2000
0000
0000
0000
3100
0010
0001
0000
0010
0001
0100
0000
2010
0000
,
0000
0001
0000
3001
1000
0100
0010
0001
,
2000
0000
0000
0000
0000
0000
3001
1000
0010
0000
1000
0010
0100
0000
0011
0000
,
0000
1002
0000
0000
1003
0010
0100
0001
,
1000
0000
0100
0000
0010
0000
0100
1000
0010
0000
0100
0001
0010
0000
1100
0000
,
0000
0000
0001
0100
0001
0000
1000
0010
1000
0000
0001
0100
0001
0100
0010
1000
,
0001
0000
0002
0000
0000
0000
1003
0100
0010
0000
0100
1000
0010
0000
0101
0000
,
0000
0000
1001
0000
0000
0000
1000
0000
0001
0010
0001
0000
1000
0100
0010
0001
,
1000
0000
2000
0000
0000
0000
3001
1000
0010
0000
1000
0010
0100
0000
0012
0000
,
0000
0000
1000
0000
0000
0000
1003
0000
0001
0010
0100
0000
1000
0010
0100
0001
,
2000
0000
0000
0000
0000
0000
3001
0010
0100
0000
0010
0001
0100
0000
1010
0000
,
0000
0000
1002
0000
0000
0000
1000
0000
1003
0100
1000
0000
0001
0010
0100
1000
,
0001
0000
0001
0000
0100
0000
0010
1000
0100
0000
1000
0100
0010
0000
0101
0000
,
0000
0000
0010
1000
0010
0000
0100
0001
0100
0000
0010
1000
0010
0100
0001
0010
,
0100
0000
1000
0010
0100
0100
0000
0101
0000
1001
0010
0100
1000
1000
1000
0000
,
1001
0000
0001
0100
0010
0010
0000
1010
0000
1001
0010
0100
1000
0010
0100
0010
,
2001
0000
0100
0000
0001
0001
0000
0000
3002
0000
0100
0000
1000
1000
0000
0000
,
2003
0000
3100
0010
0002
0100
0003
1000
1001
0000
1001
0000
1001
0010
0100
0010
,
1001
0000
0000
0000
0001
0000
1000
0010
0100
0010
1000
0000
0010
0000
0100
0000
,
0001
0000
0010
0000
1000
0000
0010
0000
0001
0010
0100
0010
0001
0000
0010
0000
,
0200
0000
0000
0000
0310
0000
0001
0100
0010
0100
0001
0000
0100
0000
0010
0000
,
1000
0000
0100
0000
0001
0000
0100
0000
1000
0100
0010
0100
1000
0000
0100
0000
,
0020
0000
0000
0000
0130
0000
1000
0010
0100
0010
1000
0000
0010
0000
0100
0000
,
0001
0000
0010
0000
1000
0000
0010
0000
0001
0010
0100
0010
0001
0000
0100
0000
,
0020
0000
0000
0000
0130
0000
0001
0100
0010
0100
0001
0000
1000
0000
0100
0000
,
0000
0000
0020
0000
0000
0100
0130
0000
,
1001
0000
0000
0000
1000
0000
0100
0010
0001
0010
0100
0000
1000
0000
0002
0010
,
0000
0000
0203
0010
0000
0000
0320
1000
0000
0000
1030
0000
1010
0000
0000
0000
,
1001
0000
0000
0000
0001
0000
0010
0100
1000
0100
0010
0000
0001
0000
2000
0010
,
0000
0000
3020
0100
0000
0000
0230
0001
0000
0000
0301
0000
0101
0000
0000
0000
,
1001
0000
0000
0000
1000
0000
0010
0100
0001
0100
0010
0000
1000
0000
0100
0010
,
0100
0000
1000
0000
0001
0100
0002
0000
0000
0000
1003
0000
1100
0000
0000
0000
,
1001
0000
0000
0000
0001
0000
0100
0010
1000
0010
0100
0000
0001
0000
0010
0100
,
0010
0000
0001
0100
0010
0000
1000
0010
0100
0000
0001
0100
0001
1000
0100
0000
,
1001
0000
0000
0000
1000
0000
0100
0010
0001
0010
0100
0000
1000
0000
0001
0010
,
0001
0000
0001
1000
0001
0000
0001
0100
0001
0000
1000
0000
1100
0000
0000
0000
,
1001
0000
0000
0000
0001
0000
0010
0100
1000
0100
0010
0000
0001
0000
1000
0010
,
1000
0000
1000
0001
1000
0000
1000
0100
1000
0000
0001
0000
0101
0000
0000
0000
,
1001
0000
0000
0000
1000
0000
0010
0100
0001
0100
0010
0000
1000
0000
0100
1000
,
0010
0000
0100
0000
0001
0010
0200
0000
0000
0000
1300
0000
1100
0000
0000
0000
,
1001
0000
0000
0000
0001
0000
0100
0010
1000
0010
0100
0000
0001
0000
0010
0000
,
0100
0000
1000
0001
0100
0000
0010
1000
0001
0000
0100
0001
1000
0001
0100
0001
,
1000
0000
0001
0010
0100
1000
0000
1200
0000
0000
1300
0100
0010
0001
0000
0021
,
0000
0000
0031
0100
0010
1000
0000
1010
0110
0000
0220
0000
0000
0000
0330
0000
,
1001
0000
1000
0010
0100
0001
0000
0201
0000
0000
0301
0100
0010
1000
0000
1020
,
0000
0000
1030
0100
0010
0001
0000
0101
0110
0000
0220
0000
0000
0000
0330
0000
,
1001
0000
0000
0000
1000
0100
1000
0010
0100
0001
0010
0000
0100
0000
1000
0000
,
1001
0000
0001
0000
1000
0100
1000
0010
0100
0001
0010
0000
0100
0000
1000
0000
,
1001
0000
0001
0000
1000
0100
1000
0010
0100
0001
0010
0000
0100
0000
1000
0000
,
0001
0000
0100
0010
0100
0001
0100
0010
0100
0001
0100
0010
1000
0100
0010
0000
,
1001
0000
0000
0000
0001
0010
0001
0100
0010
1000
0100
0000
0010
0000
0001
0000
,
1001
0000
1000
0000
0001
0010
0001
0100
0010
1000
0100
0000
0010
0000
0001
0000
,
1001
0000
1000
0000
0001
0010
0001
0100
0010
1000
0100
0000
0010
0000
0001
0000
,
0100
0010
0100
0001
0100
0010
0100
0001
0100
0010
1000
0100
0010
0001
0100
0000
;
