#TITLE:connective;
#SUBTITLE:;
#ARTIST:猫叉Master feat.*spiLa*;
#TITLETRANSLIT:;
#SUBTITLETRANSLIT:;
#ARTISTTRANSLIT:Nekomata Master feat.*spiLa*;
#GENRE:;
#CREDIT:DigiMindAxel;
#BANNER:connective.png;
#BACKGROUND:connective-bg.png;
#LYRICSPATH:connective.lrc;
#CDTITLE:beatmania IIDX.png;
#MUSIC:connective.ogg;
#OFFSET:-0.200000;
#SAMPLESTART:61.505070;
#SAMPLELENGTH:12.000000;
#SELECTABLE:YES;
#BPMS:0.000000=128.000000
;
#STOPS:
;
#BGCHANGES:;
#KEYSOUNDS:;
#ATTACKS:;

//---------------dance-single - ----------------
#NOTES:
     dance-single:
     :
     Easy:
     3:
     0.159594,0.201641,0.041376,0.157230,0.008275,135.000000,130.000000,5.000000,19.000000,0.000000,0.000000,0.159594,0.201641,0.041376,0.157230,0.008275,135.000000,130.000000,5.000000,19.000000,0.000000,0.000000:
0000
0000
0000
0000
,
0000
0000
0000
0000
,
0000
0000
0000
0000
,
0000
0000
0000
0000
,
2000
0000
0000
0000
,
3001
1000
0001
0000
,
0020
0000
0000
0000
,
0130
0010
0100
0000
,
2000
0000
3000
0000
,
0002
0000
0003
0000
,
1000
0000
0001
0000
,
1000
0000
0010
0000
,
0200
0000
0000
0000
,
0301
1000
0001
0000
,
0020
0000
0000
0000
,
0130
1000
0100
0000
,
2000
0000
0000
0000
,
3002
0000
0000
0000
,
1003
0000
0010
0000
,
0100
0010
0100
0000
,
0220
0000
0330
0000
,
0010
0100
0010
0000
,
2002
0000
3003
0000
,
1000
0001
1000
0000
,
0220
0000
0330
0000
,
0100
0010
0100
0000
,
1001
0000
0010
0100
,
0010
0000
0001
1000
,
0020
0000
0000
0000
,
0130
0000
0001
1000
,
0020
0000
0000
0000
,
0130
0000
0000
0000
,
0000
2002
0000
0000
0000
0000
0000
0000
0000
0000
0000
0000
3003
0000
0000
0000
,
1000
0100
1000
0000
,
0100
0010
0100
0000
,
0010
0001
0010
0000
,
0001
0100
0001
0000
,
0100
0010
0100
0000
,
0010
1000
0010
0000
,
1000
0001
1000
0000
,
0100
0010
0100
0000
,
1000
0100
1000
0000
,
0001
0010
0001
0000
,
0100
0010
0000
0010
,
0000
0010
0000
0010
,
0100
0010
0100
0000
,
0001
1000
0001
0000
,
0100
0001
0100
0000
,
0020
0000
0000
0000
,
0130
0000
0010
0000
,
1000
0000
0100
0000
,
0010
0001
0000
0001
,
0000
1000
0000
1000
,
0001
0000
0000
0010
,
0000
0100
0000
0010
,
0000
0001
0000
1000
,
0000
0001
0000
0100
,
0010
0100
0010
0000
,
1000
0100
1000
0000
,
0001
0010
0001
0000
,
0100
0000
0000
0010
0000
0000
1000
0000
0000
0001
0000
0001
;

//---------------dance-single - ----------------
#NOTES:
     dance-single:
     :
     Medium:
     6:
     0.312096,0.378076,0.115854,0.091028,0.012413,264.000000,250.000000,14.000000,11.000000,0.000000,0.000000,0.312096,0.378076,0.115854,0.091028,0.012413,264.000000,250.000000,14.000000,11.000000,0.000000,0.000000:
0000
0000
0000
0000
,
0000
0000
0000
0000
,
0000
0000
0000
0000
,
0000
0000
0000
0000
,
0001
0010
0100
0010
,
0001
0100
0010
0000
0100
0001
0010
0000
,
0100
1000
0010
0100
,
0010
0000
1000
0100
0010
0000
0100
1000
,
0020
0000
0130
0000
,
0002
0000
1003
0000
,
0010
0100
0010
1000
,
0100
0010
0001
1000
,
0010
0100
0001
0000
0010
0000
0100
0000
,
0010
0000
0001
1000
0001
0000
1000
0100
,
1000
0010
0100
0010
,
1000
0000
0010
0100
0001
0000
0010
0100
,
2000
0000
3010
0000
,
0200
0000
0310
0000
,
1000
0001
1000
0001
,
0010
1000
0010
0001
,
0210
0001
0001
0301
,
1000
0100
0010
0001
,
0120
1000
1000
1030
,
0001
0010
0100
1000
,
0210
0001
0001
0301
,
1000
0100
0010
0001
,
0110
0000
0000
1000
0001
0100
0010
1000
,
0001
0000
0000
0001
1000
0010
0100
0001
,
2000
0000
3010
0100
,
0110
0000
0000
0000
0001
0010
0100
1000
,
0002
0000
0103
0010
,
0110
0000
0100
0010
,
0000
0110
0000
0000
0000
0000
0000
0000
0110
0000
0000
0000
0000
0000
0000
0000
,
0010
0100
0010
0000
0100
0010
0100
0000
,
0010
0100
0010
0000
0100
0010
1000
0100
,
0010
0001
0100
0010
,
0100
0001
0100
0010
,
0100
0010
0100
0000
0010
0100
0010
0000
,
0100
0010
0100
0000
0010
1000
0100
0010
,
0001
0100
0010
0100
,
0001
1000
0100
0010
,
0100
0010
0100
0000
1000
0100
1000
0000
,
0100
0010
0100
0000
1000
0001
0100
0010
,
1000
0001
0000
0001
,
0000
0001
0000
0001
,
0100
0010
0100
0000
0001
0100
0001
0000
,
0100
0010
0100
0000
0001
0100
0001
0000
,
0010
0100
1010
0000
,
2000
0000
0000
0000
,
3001
0010
0100
1000
,
0010
0000
0001
0000
0010
0000
1000
0100
,
0010
0100
2000
0000
0000
0000
3010
0000
,
0000
0010
0000
0010
,
0110
0000
0000
0000
1001
0000
0010
0001
,
0010
0000
0100
1000
0100
0000
0010
0100
,
0010
0110
1001
0000
,
0110
0001
0010
0100
,
0010
0001
0010
0000
0100
1000
1000
0000
,
0010
1000
0010
0000
0100
0001
0001
0000
,
0010
0100
0010
0000
0100
1000
1000
0000
,
0100
0000
0000
0010
0000
0000
0100
0000
0000
0000
0000
0000
1000
0000
0000
0000
0000
0000
0001
0000
1000
0000
0001
0000
;

//---------------dance-single - ----------------
#NOTES:
     dance-single:
     :
     Hard:
     11:
     0.446865,0.529307,0.165505,0.215157,0.285497,378.000000,358.000000,20.000000,26.000000,0.000000,0.000000,0.446865,0.529307,0.165505,0.215157,0.285497,378.000000,358.000000,20.000000,26.000000,0.000000,0.000000:
0000
0000
0000
0000
,
0000
0000
0000
0000
,
0000
0000
0000
0000
,
0000
0000
0000
0000
,
2000
0000
0000
0000
3001
0000
0100
0000
0020
0000
0000
0000
0000
0000
0000
1000
,
0000
1030
0000
0000
0001
0000
0010
0000
1000
0000
0000
0000
0010
0000
0001
0000
,
2000
0000
0000
0000
3001
0000
0010
0000
0200
0000
0000
0000
0000
0000
0000
0010
,
0000
0310
0000
0000
0001
0000
0100
0000
1000
0000
0000
0000
0100
0000
0001
0000
,
2000
0000
0000
0010
3010
0000
0100
0001
,
2000
0000
0100
0100
3100
0000
1000
0001
,
0200
0000
0000
0301
0000
0000
0000
0020
0000
0000
0000
0130
0000
0000
0000
2000
,
0000
3001
0100
0010
1000
0001
1000
0000
,
1001
0000
0000
0000
1000
0000
0010
0000
0200
0000
0000
0000
0000
0000
0000
0001
,
0000
0301
0000
0000
1000
0000
0100
0000
0001
0000
0100
0000
1000
0000
0010
0000
,
0100
0000
0000
0000
0001
0000
1000
0000
0020
0000
0000
0000
0000
0000
0000
0100
,
0000
0130
0000
0000
0001
0000
0100
0000
1000
0000
0100
0000
0001
0000
0100
0000
,
0020
0000
0000
1000
1030
0000
0001
0010
,
0200
0000
0010
0010
0310
0000
0001
1000
,
0020
0000
0000
0130
0000
0000
0000
0110
0000
0000
0000
1010
0000
0000
0000
0210
,
0000
0301
0010
0100
1000
0001
1000
0000
,
1001
0000
0001
0000
1000
0000
1000
0000
0001
0100
0000
0010
0000
0000
1000
0000
,
0001
0000
0010
0000
1000
0000
0010
0000
0001
0000
1000
0000
0010
0000
1000
0001
,
0000
0000
1000
0000
0001
0000
0001
0000
1000
0010
0000
0100
0000
0000
0001
0000
,
1000
0000
0100
0000
0001
0000
0100
0000
1000
0000
0001
0000
0100
0000
0001
1000
,
0000
0000
0001
0000
1000
0000
1000
0000
0001
0010
0000
0100
0000
0000
1000
0000
,
0001
0010
1000
0010
0001
1000
0010
0100
,
0110
0000
0010
0000
1000
0100
0001
0100
,
1000
0000
1000
0000
0001
0100
1000
0100
,
0002
0000
0013
0100
2000
0000
0001
0000
,
0100
0000
3001
0000
1000
0010
0001
0010
,
1000
0100
0020
0001
,
0100
0000
0000
0031
1000
0010
1000
0010
0100
0001
0010
0100
,
0000
1100
0000
0000
1100
0000
0000
0000
0110
0000
0010
0000
0100
0000
0001
0000
,
0102
0010
0100
1000
,
0100
0000
0010
0000
0103
0001
0010
1000
,
0010
0001
1000
0000
0001
1000
0010
0001
,
0010
1000
0001
0010
0100
1000
0010
0010
,
0210
0001
1000
0001
,
0010
0000
1000
0000
0310
1000
0100
0001
,
0100
1000
0001
0000
1000
0001
0100
1000
,
0100
0001
1000
0010
0100
0001
1000
1000
,
1002
0010
0100
1000
,
0010
0000
0103
0001
0010
1000
0010
0001
,
0100
0010
0100
0010
0100
0000
0000
0000
0000
0000
0000
0000
0100
0000
0000
0000
,
0000
0100
0000
0100
,
0210
0001
0010
1000
,
0010
0000
0301
0000
1000
0001
0100
1000
,
0100
0001
0010
0000
0001
1000
0100
0001
,
0100
1000
0010
0000
0010
0000
0010
0000
,
1001
0000
0000
1000
0001
0000
0000
0001
0100
0000
0000
0100
0010
0000
0000
0010
,
1000
0000
0000
1000
0001
0000
0000
0001
0010
0000
0000
0010
0100
0000
0000
0100
,
1000
0001
1000
0001
1000
0000
0000
0000
0000
0000
0000
0000
1000
0000
0000
0000
,
0000
1000
0000
1000
,
0000
0000
0001
0010
0100
1000
0100
0010
0001
0000
0000
0001
0100
0000
0000
0100
,
0010
0000
0000
0010
1000
0000
0000
1000
0100
0000
0000
0100
0010
0000
0000
0010
,
0001
0000
0000
0000
0101
0000
0000
0000
1010
0000
0000
0000
1000
0000
0000
1000
,
0001
0000
0000
0001
0010
0000
0000
0010
0100
0000
0000
0100
1000
0000
0000
0000
,
0000
0210
0000
0000
0001
0000
0301
0000
0010
0000
0100
0000
1000
0001
0000
0100
,
0000
0120
0000
0000
1000
0000
1030
0000
0010
0000
0100
0000
0001
1000
0000
0010
,
0000
0210
0000
0000
0001
0000
0301
0000
1000
0000
0100
0000
0010
0001
0000
1000
,
0000
0000
0000
0210
0000
0000
0000
0000
0000
0000
0000
0000
0010
0000
0000
0000
0000
0000
0310
0000
0000
0000
0000
0000
0001
0000
0000
1000
0000
0000
0000
0000
0000
0000
0000
0000
0010
0000
0000
0000
0100
0000
0000
0000
0010
0000
0000
0000
;

//---------------dance-single - ----------------
#NOTES:
     dance-single:
     :
     Beginner:
     1:
     0.054380,0.100545,0.016551,0.000000,0.000000,46.000000,44.000000,2.000000,0.000000,0.000000,0.000000,0.054380,0.100545,0.016551,0.000000,0.000000,46.000000,44.000000,2.000000,0.000000,0.000000,0.000000:
// measure 0
0000
0000
0000
0000
,  // measure 1
0000
0000
0000
0000
,  // measure 2
0000
0000
0000
0000
,  // measure 3
0000
0000
0000
0000
,  // measure 4
0001
0000
0000
0000
,  // measure 5
0000
0000
0000
0000
,  // measure 6
0001
0000
0000
0000
,  // measure 7
0000
0000
0000
0000
,  // measure 8
1000
0000
0000
0000
,  // measure 9
0000
0000
0000
0000
,  // measure 10
1000
0000
0000
0000
,  // measure 11
0000
0000
0000
0000
,  // measure 12
0100
0000
0000
0000
,  // measure 13
0010
0000
0000
0000
,  // measure 14
0001
0000
0000
0000
,  // measure 15
0010
0000
0000
0000
,  // measure 16
0100
0000
0000
0000
,  // measure 17
0000
0000
0000
0000
,  // measure 18
1000
0000
0000
0000
,  // measure 19
0001
0000
0000
0000
,  // measure 20
1001
0000
0000
0000
,  // measure 21
0001
0000
0000
0000
,  // measure 22
1000
0000
0000
0000
,  // measure 23
0001
0000
0000
0000
,  // measure 24
1000
0000
0000
0000
,  // measure 25
0001
0000
0000
0000
,  // measure 26
0010
0000
0000
0000
,  // measure 27
0000
0000
0000
0000
,  // measure 28
0100
0000
0000
0000
,  // measure 29
0000
0000
0000
0000
,  // measure 30
1000
0000
0000
0000
,  // measure 31
0000
0000
0000
0000
,  // measure 32
0001
0000
0000
0000
,  // measure 33
1001
0000
0000
0000
,  // measure 34
0000
0000
0000
0000
,  // measure 35
1000
0000
0000
0000
,  // measure 36
0001
0000
0000
0000
,  // measure 37
1000
0000
0000
0000
,  // measure 38
0000
0000
0000
0000
,  // measure 39
0010
0000
0000
0000
,  // measure 40
0100
0000
0000
0000
,  // measure 41
0010
0000
0000
0000
,  // measure 42
0000
0000
0000
0000
,  // measure 43
1000
0000
0000
0000
,  // measure 44
0000
0000
0000
0000
,  // measure 45
0001
0000
0000
0000
,  // measure 46
0000
0000
0000
0000
,  // measure 47
0010
0000
0000
0000
,  // measure 48
0100
0000
0000
0000
,  // measure 49
0010
0000
0000
0000
,  // measure 50
0001
0000
0000
0000
,  // measure 51
1000
0000
0000
0000
,  // measure 52
0000
0000
0000
0000
,  // measure 53
0001
0000
0000
0000
,  // measure 54
1000
0000
0000
0000
,  // measure 55
0001
0000
0000
0000
,  // measure 56
0010
0000
0000
0000
,  // measure 57
0100
0000
0000
0000
,  // measure 58
0100
0000
0000
0000
,  // measure 59
0100
0000
0000
0000
,  // measure 60
0100
0000
0000
0010
;

//---------------dance-single - ----------------
#NOTES:
     dance-single:
     :
     Challenge:
     13:
     0.618281,0.680537,0.239983,0.190331,0.583406,523.000000,494.000000,29.000000,23.000000,0.000000,0.000000,0.618281,0.680537,0.239983,0.190331,0.583406,523.000000,494.000000,29.000000,23.000000,0.000000,0.000000:
0000
0000
0000
0000
,
0000
0000
0000
0000
,
0000
0000
0000
0000
,
0000
0000
0000
0000
,
1001
0000
0000
0000
1000
0000
0001
0000
0010
0000
0001
0000
1000
0001
0000
0100
,
0000
1000
0000
0000
0100
0000
0001
0000
0010
0000
0100
0000
1000
0001
1000
0001
,
1000
0000
0000
0000
0001
0000
1000
0000
0010
0000
1000
0000
0001
1000
0000
0100
,
0000
0001
0000
0000
0100
0000
1000
0000
0001
0010
0001
0010
0100
1000
0100
1000
,
0002
0000
0000
0000
1003
0000
0010
0000
0100
0000
0010
0000
1000
0000
0001
0010
,
0200
0000
0000
0000
1300
0000
0010
0000
0100
0000
0010
0000
1000
0000
0100
0010
,
0001
0000
0000
0011
0000
0000
0010
0100
1000
0000
0000
1100
0000
0000
0100
0010
,
0001
1000
0001
1000
0001
0000
0000
0000
0100
0010
0100
0010
0100
0000
0110
0000
,
1001
0000
0000
0000
0001
0000
0010
0000
0100
0000
0010
0000
0001
1000
0000
0010
,
0000
0001
0000
0000
0010
0000
1000
0000
0100
0000
1000
0000
0001
1000
0001
1000
,
0001
0000
0000
0000
1000
0000
0100
0000
0010
0000
0100
0000
1000
0001
0000
0010
,
0000
1000
0000
0000
0010
0000
0001
0000
1000
0010
1000
0010
0100
0001
0100
0001
,
2000
0000
0000
0000
0000
0000
3010
0000
0100
0000
0010
0000
1000
0000
0100
0010
,
0002
0000
0000
0000
0000
0000
0013
0000
0100
0000
0010
0000
0001
0000
0100
0010
,
1000
0000
0000
1010
0000
0000
0100
0010
1000
0000
0000
1010
0000
0000
0100
0010
,
1000
0001
1000
0001
1000
0000
0000
0000
0010
0100
0010
0100
0010
0000
0110
0000
,
1001
0000
0001
0000
0100
0000
0100
0000
0001
0010
0000
0100
0000
1000
0000
1000
,
0000
0000
0010
0000
0100
0000
0010
0000
1000
0100
0010
0000
0100
0010
0001
1000
,
0000
0000
0001
0000
0100
0000
0100
0000
0001
0010
0000
0100
0000
1000
0000
1000
,
0000
0000
0010
0000
0100
0000
0010
0000
1000
0100
0010
0000
0100
0010
0001
1000
,
0000
0000
0010
0000
0100
0000
0100
0000
0001
0010
0000
0100
0000
1000
0000
1000
,
0000
0000
0010
0000
0100
0000
0010
0000
1000
0100
0010
0000
0100
0010
0001
0000
,
1001
0000
1000
0100
0010
0100
1000
0001
,
0100
0000
0001
0010
0100
0010
0001
1000
,
0020
0000
0000
0000
0130
0000
0001
0000
2000
0000
0000
0000
3001
0010
0100
0010
,
0002
0000
0000
0203
0000
0000
0310
0000
1000
0000
0100
0000
0010
0000
0001
0000
,
2001
0000
0000
3020
0000
0000
0130
0000
0001
0010
0100
0000
1000
0010
0100
0010
,
1000
0000
0000
0001
1000
0100
1000
0001
0010
0001
0100
0010
,
0000
1001
0000
0000
1001
0000
0000
0000
0110
0000
0100
0000
0010
0000
0010
0000
,
1000
0100
0001
0100
1000
0100
0001
0100
,
1000
0000
0100
0000
0001
0000
0100
0000
1000
0000
0010
0100
0010
0100
0001
0010
,
0100
0000
1000
0000
0001
1000
0010
1000
0001
0000
0010
0000
0100
0000
0010
0000
,
0002
0000
0000
2003
0000
0000
3020
0000
0000
0000
1030
0000
0100
0000
0010
0000
,
0001
0010
1000
0010
0001
0010
1000
0010
,
0001
0000
0010
0000
1000
0000
0010
0000
0001
0000
0100
0010
0100
0010
1000
0100
,
0010
0000
0100
0000
1000
0001
0010
0001
1000
0000
0100
0000
0010
0000
0001
0000
,
2000
0000
0000
3020
0000
0000
2030
0000
0000
0000
3001
0000
0010
0000
0100
0000
,
1000
0010
0001
0010
1000
0010
0001
0010
,
1000
0000
0010
0000
0001
0000
0010
0000
1000
0000
0100
0010
0100
0010
0001
0100
,
0001
0010
0100
1000
0001
0000
0000
0000
0000
0000
0000
0001
1000
0000
0000
0000
,
0000
0000
0000
0001
1000
0000
0000
0000
0001
0000
1000
0000
0100
0000
0010
0000
,
0001
0100
1000
0100
0001
0100
1000
0100
,
0001
0000
0100
0000
1000
0000
0100
0000
0001
0000
0010
0100
0010
0100
1000
0000
,
1100
0100
0011
0010
1001
0100
0010
0001
,
0200
0000
0000
0302
0000
0000
0203
0000
0000
0000
0010
0000
0310
0000
0000
0000
,
1001
0000
1000
0100
1000
0000
1000
0010
1000
0000
1000
0001
1000
0000
1000
0010
,
1000
0000
1000
0100
1000
0000
1000
0010
1000
0000
1000
0001
1000
0000
1000
0100
,
1000
0010
0100
0001
1000
0000
0000
0000
0000
0000
0000
1000
0001
0000
0000
0000
,
0000
0000
0000
1000
0001
0000
0000
0000
0000
0000
0000
1000
0001
0000
1000
0000
,
0000
0000
0100
0010
0001
1000
0100
0010
0001
0000
0001
0010
0001
0000
0001
0100
,
0001
0000
0001
1000
0001
0000
0001
0100
0001
0000
0001
0010
0001
0100
0010
1000
,
0100
1000
1010
0010
0110
0100
0101
0001
,
1001
0000
0001
0100
0001
0000
0001
0010
0001
0100
0010
1000
0100
0010
0001
0000
,
1000
0020
0000
0000
0130
0000
0100
0000
0100
0000
0100
0000
0000
0101
0000
0110
,
0000
0020
0000
0000
0130
0000
0100
0000
0100
0000
0100
0000
0000
1010
0000
0110
,
0000
0200
0000
0000
0310
0000
0010
0000
0010
0000
0010
0000
0000
1001
0000
1100
,
0000
0000
0000
0020
0000
0000
0000
0000
0000
0000
0000
0000
0130
0000
0000
0000
0000
0000
0100
0000
0000
0000
0000
0000
0100
0000
0000
0100
0000
0000
0000
0000
0000
0000
0000
0000
1000
0000
0000
0000
0100
0000
0000
0000
1001
0000
0000
0000
;
