#VERSION:0.83;
#TITLE:勇者;
#SUBTITLE:;
#ARTIST:YOASOBI;
#TITLETRANSLIT:YUUSHA;
#SUBTITLETRANSLIT:;
#ARTISTTRANSLIT:;
#GENRE:;
#ORIGIN:;
#CREDIT:DigiMindAxel;
#BANNER:YUUSHA.png;
#BACKGROUND:YUUSHA-bg.png;
#PREVIEWVID:;
#JACKET:YUUSHA-jacket.png;
#CDIMAGE:;
#DISCIMAGE:;
#LYRICSPATH:YUUSHA.lrc;
#CDTITLE:DigiMindAxel original simfile.png;
#MUSIC:YUUSHA.ogg;
#OFFSET:-0.388000;
#SAMPLESTART:58.080853;
#SAMPLELENGTH:12.000000;
#SELECTABLE:YES;
#BPMS:0.000=208.000;
#STOPS:;
#DELAYS:;
#WARPS:;
#TIMESIGNATURES:0.000=4=4;
#TICKCOUNTS:0.000=4;
#COMBOS:0.000=1;
#SPEEDS:0.000=1.000=0.000=0;
#SCROLLS:0.000=1.000;
#FAKES:;
#LABELS:0.000=Song Start;
#BGCHANGES:-2.000=YUUSHA.avi=1.000=1=0=0=StretchNoLoop==CrossFade==,
99999=-nosongbg-=1.000=0=0=0 // don't automatically add -songbackground-
;
#KEYSOUNDS:;
#ATTACKS:
;

//---------------dance-single - ----------------
#NOTEDATA:;
#CHARTNAME:;
#STEPSTYPE:dance-single;
#DESCRIPTION:;
#CHARTSTYLE:;
#DIFFICULTY:Easy;
#METER:4;
#RADARVALUES:0.206349,0.296528,0.077778,0.233333,0.000000,130.000000,123.000000,7.000000,21.000000,0.000000,0.000000,0.000000,0.000000,0.000000,0.206349,0.296528,0.077778,0.233333,0.000000,130.000000,123.000000,7.000000,21.000000,0.000000,0.000000,0.000000,0.000000,0.000000;
#CREDIT:;
#NOTES:
0000
0000
0000
0000
,
0000
0000
0000
0000
,
0000
0000
0000
0000
,
0000
0000
0000
0000
,
0000
0000
0000
0000
,
0000
0000
0000
0000
,
0000
0000
0000
0000
,
0000
0000
0000
0000
,
0001
0000
0001
0000
,
1000
0000
0000
0000
,
0100
0000
0100
0000
,
1000
0000
0000
0000
,
0100
0000
0100
0000
,
0010
0000
0000
0000
,
0001
0000
0001
0000
,
0100
0000
0000
0000
,
2002
0000
0000
3003
,
0002
0000
0203
0000
,
0301
0000
0001
0000
,
1000
0000
1000
0000
,
0001
0000
0100
0010
,
2000
0000
3002
0000
,
1003
0000
1000
0000
,
0002
0000
2003
0000
,
3001
0000
0100
0010
,
2000
0000
0000
0000
,
0000
0000
0000
0000
,
3002
0000
0000
0000
,
0000
0000
0000
0000
,
0203
0000
0000
0000
,
0000
0000
0000
0000
,
0320
0000
0000
0000
,
0000
0000
0000
0000
,
1030
0000
1000
0000
,
0100
0010
0001
0000
,
0010
0000
0010
0000
,
0001
0100
0010
0000
,
1000
0000
1000
0000
,
0100
0010
0001
0000
,
0100
0000
0100
0000
,
0001
0010
0100
0000
,
2000
0000
0000
0000
,
3002
0000
0000
0000
,
2003
0000
0000
0000
,
3002
0000
0000
0000
,
1003
0000
1000
0000
,
0001
0000
0010
0000
,
0100
0000
0100
0000
,
0010
0000
0010
0000
,
2002
0000
0000
0000
,
3003
0000
0000
0000
0000
0000
0000
1002
,
0000
0000
0000
0000
0000
0000
0000
2003
,
0000
0000
0000
0000
0000
3000
0000
1001
,
0000
0000
1000
0000
,
0001
0000
0100
0000
,
0010
0000
0010
0000
,
1000
0000
1000
0000
,
1001
0000
0001
0000
,
1000
0000
0000
0000
0000
0000
0000
1001
,
0000
0000
1000
0000
,
0100
0000
1000
0000
,
0001
0000
0010
0000
,
0001
0000
0010
0000
,
0100
0000
1000
0000
,
0010
0000
0100
0000
,
0010
0000
0100
0000
,
0002
0000
0000
0000
,
1003
0000
0001
0000
,
1000
0100
0010
0001
,
1000
0000
1000
0000
,
0001
0010
0100
1000
,
0001
0000
0001
0000
,
1000
0010
0100
0001
,
1000
0000
1000
0000
,
0001
0100
0010
1000
,
0100
0000
0000
0100
0000
0000
0000
0000
,
0000
1001
0000
0000
;

//---------------dance-single - ----------------
#NOTEDATA:;
#CHARTNAME:;
#STEPSTYPE:dance-single;
#DESCRIPTION:;
#CHARTSTYLE:;
#DIFFICULTY:Medium;
#METER:10;
#RADARVALUES:0.469841,0.677778,0.644444,0.488889,0.000000,296.000000,238.000000,58.000000,44.000000,0.000000,0.000000,0.000000,0.000000,0.000000,0.469841,0.677778,0.644444,0.488889,0.000000,296.000000,238.000000,58.000000,44.000000,0.000000,0.000000,0.000000,0.000000,0.000000;
#CREDIT:;
#NOTES:
// measure 0
0000
0000
0000
0000
,  // measure 1
0000
0000
0000
0000
,  // measure 2
0000
0000
0000
0000
,  // measure 3
0000
0000
0000
0000
,  // measure 4
0000
0000
0000
0000
,  // measure 5
0000
0000
0000
0000
,  // measure 6
0000
0000
0000
0000
,  // measure 7
0000
0000
0000
0000
,  // measure 8
1000
0001
1000
0100
,  // measure 9
2000
0000
0001
0000
,  // measure 10
3001
0010
0001
1000
,  // measure 11
0020
0000
0100
0000
,  // measure 12
0130
0001
0010
0001
,  // measure 13
0200
0000
0010
0000
,  // measure 14
0310
1000
0100
0010
,  // measure 15
0002
0000
1000
0000
,  // measure 16
1003
0100
0010
0001
1000
0000
0000
0000
,  // measure 17
2200
0300
0002
3003
,  // measure 18
1001
0110
1001
0000
,  // measure 19
0011
1100
0022
0033
,  // measure 20
1001
0110
1001
0110
,  // measure 21
0202
0300
2000
3003
,  // measure 22
1001
0110
1001
0000
,  // measure 23
2200
0300
0002
3003
,  // measure 24
1001
0110
1001
0001
,  // measure 25
2001
0000
0000
0000
,  // measure 26
3200
0000
0000
0300
,  // measure 27
0020
0000
0000
0000
,  // measure 28
0032
0000
1000
1003
,  // measure 29
0200
0000
0000
0000
,  // measure 30
2300
0000
0000
3000
,  // measure 31
0200
0000
0000
0000
,  // measure 32
0320
0000
0031
0000
,  // measure 33
1000
0001
1000
0000
0001
1000
0001
0000
,  // measure 34
0010
0011
0010
0110
,  // measure 35
1001
0000
1000
0001
0000
1000
0001
0000
,  // measure 36
0001
0011
0100
0110
,  // measure 37
1001
0000
0001
0100
0000
0010
1000
0000
,  // measure 38
1000
1001
0010
0011
,  // measure 39
1100
0000
1000
0100
0000
0010
0001
0000
,  // measure 40
0001
1001
1100
0011
,  // measure 41
0200
0000
2000
0300
,  // measure 42
0001
0001
3001
0000
,  // measure 43
2001
0001
3002
0000
,  // measure 44
0010
0010
0013
0000
,  // measure 45
1001
0000
0000
1001
0000
0000
1000
0000
,  // measure 46
0001
0010
0100
1000
,  // measure 47
0001
0010
0100
0000
1000
0100
0010
0000
,  // measure 48
0001
0100
0010
0000
0110
0000
0000
0000
,  // measure 49
1001
0001
0001
0001
,  // measure 50
0000
0000
0000
0000
1001
0000
0000
1100
,  // measure 51
0000
0100
0000
0000
0000
0000
0000
0100
,  // measure 52
0000
0110
0000
0000
0001
1000
0001
1000
,  // measure 53
0000
0001
0100
0010
,  // measure 54
0100
0001
1000
1000
,  // measure 55
2002
3003
0022
0033
,  // measure 56
2200
3300
0022
0033
,  // measure 57
1001
1001
0101
1010
,  // measure 58
0000
0000
1001
0000
0001
0100
0001
1000
,  // measure 59
0000
0100
0000
0000
0010
0000
0100
0000
,  // measure 60
1000
0100
0010
0100
,  // measure 61
1000
0001
0100
0001
1000
0000
0100
0000
,  // measure 62
0010
0001
0100
0100
,  // measure 63
0020
2030
3200
0320
,  // measure 64
0032
2003
3020
0230
,  // measure 65
0301
0000
1001
0100
,  // measure 66
0020
0000
0000
0001
0000
0000
0031
0000
,  // measure 67
1000
0001
1000
0001
1000
0000
0010
0000
,  // measure 68
1010
0000
0000
0110
0000
0100
0000
0100
,  // measure 69
0000
0001
1000
0001
1000
0000
0010
0000
,  // measure 70
0110
0000
0000
0101
0000
0100
0000
0100
,  // measure 71
0000
0001
1000
0001
1000
0000
0100
0010
,  // measure 72
0100
0000
1000
0000
1010
0000
0100
0010
,  // measure 73
0100
0000
0001
1000
0001
0000
0010
0001
,  // measure 74
0010
0100
1000
1001
,  // measure 75
0010
0000
0000
0010
0100
0001
0000
0101
,  // measure 76
0000
1001
0000
0000
;

//---------------dance-single - ----------------
#NOTEDATA:;
#CHARTNAME:;
#STEPSTYPE:dance-single;
#DESCRIPTION:;
#CHARTSTYLE:;
#DIFFICULTY:Hard;
#METER:13;
#RADARVALUES:0.625397,0.804861,0.500000,0.355556,0.105556,394.000000,349.000000,45.000000,32.000000,0.000000,0.000000,0.000000,0.000000,0.000000,0.625397,0.804861,0.500000,0.355556,0.105556,394.000000,349.000000,45.000000,32.000000,0.000000,0.000000,0.000000,0.000000,0.000000;
#CREDIT:;
#NOTES:
0000
0000
0000
0000
,
0000
0000
0000
0000
,
0000
0000
0000
0000
,
0000
0000
0000
0000
,
0000
0000
0000
0000
,
0000
0000
0000
0000
,
0000
0000
0000
0000
,
0000
0000
0000
0000
,
0001
1000
0100
0010
0000
0100
0010
0001
,
0000
1000
0000
0010
0000
0200
0000
0301
,
0000
0010
1000
0100
0000
0010
0001
0100
,
0000
0010
0000
2000
0000
0001
3001
0000
,
1000
0001
0010
0001
1000
0001
0000
0100
,
0000
0010
0000
0100
0000
0002
0000
0000
,
1003
0000
0001
1000
0100
1000
0010
0100
,
0010
1000
0000
0020
0000
0100
0130
0000
,
0001
0010
0100
1000
0010
0000
0100
0100
,
0002
0100
2003
0100
,
3001
0010
0100
1000
0001
0000
0001
0000
,
0001
0010
0100
1000
0002
0000
1000
0000
,
1003
0100
0010
0001
1000
0000
1010
0000
,
1002
0100
2003
0100
,
3001
0100
0010
1000
0001
0000
0001
0000
,
2000
0100
3002
0100
,
1003
0010
0100
0001
1000
0000
1000
0000
,
1001
0000
0000
0000
,
0100
0010
0100
0010
0000
0000
0000
0000
0000
0100
0000
0000
,
0101
0000
0000
0000
,
0001
1000
0001
1000
0000
0000
0100
0000
0000
0100
0000
0000
,
1001
0000
0000
0000
,
0100
0001
0100
0001
0000
0000
0000
0000
0000
1000
0000
0000
,
1001
0000
0000
0000
,
0010
0100
0000
0010
2000
0000
0000
0000
,
3100
0010
0100
0010
0100
1000
0010
0100
,
0001
0011
0100
1100
,
1001
0000
1000
0001
0000
0010
0100
1000
,
0010
0110
0001
0101
,
1001
0000
0001
0010
0000
0100
0010
0001
,
1000
1010
0100
0101
,
1001
0000
1000
0001
0000
0010
0000
0100
,
0010
0110
0001
0011
,
2002
0003
3020
0000
,
0130
0010
0100
0010
0000
0000
0010
0000
0000
1001
0000
0000
,
1001
0001
0020
0000
,
0130
0000
1000
0000
0100
0000
1000
0000
0000
0000
0000
0000
0001
0000
0000
0100
0000
0000
0010
0000
0000
0100
0000
0000
,
0001
0100
0000
1000
0100
0000
0001
0000
,
1001
1100
0110
0011
,
0001
0100
0001
1000
0000
0000
0100
1000
0100
0010
0000
0000
,
0001
0100
0010
0100
0001
0100
0010
0000
0000
0000
0000
0000
,
2001
0100
0100
3100
,
0000
0000
0000
0000
1001
0000
0000
1010
,
0000
1010
0000
0100
0001
0010
0001
0100
,
0000
0101
0000
0001
0010
0100
1000
0001
,
0000
1000
0010
1000
0001
0010
0100
2000
,
0000
0001
3001
0000
1100
0000
0101
0000
,
1002
0000
0013
0100
2000
0000
3010
0100
,
0002
0000
0013
0100
2000
0000
3010
0000
,
1001
1001
0011
2100
,
0000
0000
3001
0000
1000
0100
0010
0001
,
0000
0011
0000
0010
0001
0100
1000
0100
,
0000
0101
0000
0010
0100
0001
0010
0100
,
0000
1000
0001
0100
1000
0100
0001
0020
,
0000
0100
0130
0000
1100
0000
0101
0000
,
1002
0000
0013
0100
2000
0000
3010
0100
,
0002
0000
0013
0100
1000
0000
1010
0000
,
1001
0000
0000
0000
1001
0000
0010
0100
,
0002
0000
0000
1000
0000
0000
1003
0000
,
0001
0010
1000
0010
0001
0000
0010
0100
,
1000
0000
0001
0200
0000
0320
0000
1030
,
0000
0001
0100
1000
0100
0000
0001
0010
,
0100
1000
0000
0020
0000
0230
0000
0301
,
0000
1000
0100
0001
0100
0000
1000
0010
,
0100
0000
0001
0010
0100
0010
0001
1000
,
0010
0000
1000
0100
0010
0000
0100
1000
,
0010
1000
0001
0010
0100
0000
1000
1000
,
0001
0000
0100
0000
0000
0000
0010
0100
0010
0000
1000
0000
0100
0000
0010
0000
,
0000
0001
1001
0000
0000
0000
0000
0000
;

//---------------dance-single - ----------------
#NOTEDATA:;
#CHARTNAME:;
#STEPSTYPE:dance-single;
#DESCRIPTION:;
#CHARTSTYLE:;
#DIFFICULTY:Challenge;
#METER:15;
#RADARVALUES:0.760317,1.059028,0.688889,0.500000,0.400000,479.000000,417.000000,62.000000,45.000000,0.000000,0.000000,0.000000,0.000000,0.000000,0.760317,1.059028,0.688889,0.500000,0.400000,479.000000,417.000000,62.000000,45.000000,0.000000,0.000000,0.000000,0.000000,0.000000;
#CREDIT:;
#NOTES:
0000
0000
0000
0000
,
0000
0000
0000
0000
,
0000
0000
0000
0000
,
0000
0000
0000
0000
,
0000
0000
0000
0000
,
0000
0000
0000
0000
,
0000
0000
0000
0000
,
0000
0000
0000
0000
,
1001
0000
0000
0000
0000
0000
0001
0100
0001
0000
1000
0000
0100
0000
0010
0000
,
0000
0000
0100
1000
0100
0000
0010
0000
0001
0000
0200
0000
0000
0000
0301
0000
,
0000
1000
0100
0001
0000
1000
0010
0001
,
0000
0000
1000
0001
1000
0000
0100
0000
0010
0000
0100
0000
1000
0000
0001
0000
,
0000
0000
0000
0000
0000
0000
1000
0010
1000
0000
0100
0000
0010
0000
0100
0000
,
0000
0000
1000
0001
1000
0000
0010
0000
0100
0000
0010
0000
1000
0000
0001
0010
,
0001
1000
0001
0100
1000
0001
0010
1000
,
0001
0000
1000
0100
1000
0000
0010
0000
0100
0000
0010
0000
1000
0000
0000
0000
,
0001
0000
1000
0100
1000
0100
0010
0001
0010
0000
0000
0000
0001
0000
0001
0000
,
2002
0000
0000
3003
0202
0000
0000
0303
,
0011
0000
1100
0000
1001
0010
0100
0000
,
1010
0000
0101
0000
2002
0000
0000
3003
,
0101
0110
1001
1010
,
2002
0000
0000
3003
2200
0000
0000
3300
,
1010
0000
0101
0000
1001
0010
0100
0000
,
2002
0000
0000
3003
0022
0000
0000
0033
,
0101
0000
1010
0000
1001
0100
0010
0000
,
0101
0000
0001
0000
,
1000
0100
0010
0001
0000
0000
0001
0000
0000
0100
0000
0000
,
0100
0000
0001
0000
,
1000
0100
0010
0001
0000
0000
0100
0001
0010
0100
1000
0100
,
0010
0000
0001
0000
,
1000
0100
0010
0001
0000
0000
0001
0000
0000
0100
0000
0000
,
0100
0000
0001
0000
,
1000
1000
0000
0001
2002
0000
0000
3003
,
0001
0100
1000
0100
0001
0100
1000
0100
,
1010
0110
0011
0110
,
1010
0000
0100
0001
0000
0100
0010
1000
,
1100
0110
0101
0110
,
1100
0000
0010
0001
0000
0010
0100
1000
,
1010
0110
0011
0110
,
1010
0000
0100
0001
0000
0100
0010
1000
,
1100
0110
0101
0110
,
2200
0000
0000
3300
2002
0000
0000
3003
,
0001
0010
0100
2000
0000
0000
3020
0000
0000
0130
0000
0000
,
1002
0203
0302
0000
,
1003
0000
0000
0000
0100
0000
0000
0000
0010
0000
0000
0000
0001
0000
0000
0000
0000
0000
0000
0000
0000
0000
0000
0000
1000
0000
0000
0000
0000
0000
0001
0000
0000
0100
0000
0000
0001
0000
0000
0000
0000
0000
0010
0000
0000
0000
0000
0000
,
0100
0100
0000
1000
1000
0000
0100
0010
,
0001
1000
0010
1000
0001
0010
0100
1000
,
0001
0100
0001
1000
0100
1000
0001
0100
1000
0100
0001
0010
,
0001
1000
0010
1000
0001
0010
0200
0000
0000
0000
0000
0000
,
2300
0001
0001
3001
,
0000
0000
0000
0000
1001
0000
0000
0101
,
0000
0000
0001
1000
0001
0000
1000
0001
1000
0000
0100
1000
0100
0000
1000
0100
,
1000
0000
0001
0100
0001
0000
0100
0001
0100
0000
0001
1000
0001
0000
1001
0000
,
0000
1000
0100
0001
1000
0010
0001
2000
,
0000
0010
3010
0000
0100
0001
0010
0100
,
1002
0000
0000
0000
0103
0010
0100
0000
2001
0000
0000
0000
3100
0010
0100
0000
,
1002
0000
0000
0000
0013
0100
0010
0000
2001
0000
0000
0000
3010
0000
0000
0000
,
1001
0000
1001
0000
0100
0001
2000
0000
,
0000
0000
0100
0000
3100
0000
0000
0000
0010
0001
0010
0000
0100
0000
1001
0000
,
0000
1001
0000
0001
0100
1000
0100
0001
,
0000
0101
0000
0010
1000
0100
0010
0001
,
0000
1000
0100
0001
1000
0010
0001
2000
,
0000
0010
3010
0000
0100
0001
1000
0000
,
0002
0203
2300
3020
,
0032
0203
0320
2030
,
3002
0000
0003
0000
1001
0000
0010
0100
,
2000
0000
0000
0010
0000
0000
3010
0000
,
1001
0000
0000
0000
1000
0001
1000
0000
0001
0000
0000
0000
0010
0001
0010
0000
,
0100
0000
0000
0000
1000
0001
1000
0000
0001
0100
0001
0000
1000
0010
1000
0000
,
0001
0000
0000
0000
0010
0001
0010
0000
0100
0000
0000
0000
1000
0001
1000
0000
,
0001
0000
0000
0000
0010
0001
0010
0000
0001
1000
0001
0000
1000
0100
1000
0000
,
0001
0000
0000
0000
0100
0001
0100
0001
0100
0000
0000
0000
0001
1000
0001
1000
,
0001
0000
0000
0000
1000
0100
1000
0000
0001
1000
0001
0000
0010
0001
0010
0000
,
0100
0000
0000
0000
1000
0001
1000
0001
1000
0000
0000
0000
0001
0100
0001
0100
,
0001
0000
0000
0000
1000
0001
1000
0000
0100
1000
0100
0000
1000
0000
1000
0000
,
0001
0000
0001
0000
0000
0000
1000
0010
1000
0000
0100
0000
0010
0000
0100
0000
,
0000
1000
1001
0000
0000
0000
0000
0000
;

//---------------dance-single - ----------------
#NOTEDATA:;
#CHARTNAME:;
#STEPSTYPE:dance-single;
#DESCRIPTION:;
#CHARTSTYLE:;
#DIFFICULTY:Beginner;
#METER:2;
#RADARVALUES:0.106349,0.211806,0.055556,0.000000,0.000000,67.000000,62.000000,5.000000,0.000000,0.000000,0.000000,0.000000,0.000000,0.000000,0.106349,0.211806,0.055556,0.000000,0.000000,67.000000,62.000000,5.000000,0.000000,0.000000,0.000000,0.000000,0.000000,0.000000;
#CREDIT:;
#NOTES:
0000
0000
0000
0000
,
0000
0000
0000
0000
,
0000
0000
0000
0000
,
0000
0000
0000
0000
,
0000
0000
0000
0000
,
0000
0000
0000
0000
,
0000
0000
0000
0000
,
0000
0000
0000
0000
,
1000
0000
0000
0000
,
0000
0000
0000
0000
,
0100
0000
0000
0000
,
0000
0000
0000
0000
,
0010
0000
0000
0000
,
0000
0000
0000
0000
,
0001
0000
0000
0000
,
0000
0000
0000
0000
,
1000
0000
0000
0000
,
0001
0000
0001
0000
,
0000
0000
0000
0000
,
0100
0000
0000
0000
,
0000
0000
0000
0000
,
0010
0000
0010
0000
,
0000
0000
0000
0000
,
1000
0000
0000
0000
,
1000
0000
0000
0000
,
0001
0000
0000
0000
,
0000
0000
0000
0000
,
0010
0000
0000
0000
,
0000
0000
0000
0000
,
0001
0000
0000
0000
,
0000
0000
0000
0000
,
0010
0000
0000
0000
,
0000
0000
0000
0000
,
0001
0000
0001
0000
,
0001
0000
0000
0000
,
1000
0000
1000
0000
,
1000
0000
0000
0000
,
0100
0000
0100
0000
,
0100
0000
0000
0000
,
0010
0000
0010
0000
,
0010
0000
0000
0000
,
0001
0000
0000
0000
,
0000
0000
0000
0000
,
1000
0000
0000
0000
,
0000
0000
0000
0000
,
0001
0000
0000
0000
,
1000
0000
0000
0000
,
0100
0000
0000
0000
,
0010
0000
0000
0000
,
0001
0000
0000
0000
,
0000
0000
0000
0000
0000
0000
0000
1000
,
0000
0000
0000
0000
0000
0000
0000
0001
,
0000
0000
0000
0000
0000
0000
0000
1000
,
0000
0000
0000
0000
,
0000
0000
0000
0000
,
0100
0000
0010
0000
,
0001
0000
0010
0000
,
0100
0000
0000
0000
,
0000
0000
0000
0000
0000
0000
0000
1000
,
0000
0000
0000
0000
0000
0000
0000
0001
,
0000
0000
0000
0000
0000
0000
0000
1000
,
0000
0000
0000
0000
,
0000
0000
0000
0000
,
0010
0000
0100
0000
,
0001
0000
0100
0000
,
0010
0000
0000
0000
,
1000
0000
0000
0000
,
1001
0000
0000
0000
,
0001
0000
0000
0000
,
1001
0000
0000
0000
,
1000
0000
0000
0000
,
0110
0000
0000
0000
,
0010
0000
0000
0000
,
0110
0000
0000
0000
,
0100
0000
0000
0000
,
0010
0000
0000
0000
,
0000
1001
0000
0000
;
