#TITLE:雪、無音、窓辺にて。;
#SUBTITLE:;
#ARTIST:茅原実里;
#TITLETRANSLIT:YUKI, MUON, MADOBE NITE.;
#SUBTITLETRANSLIT:;
#ARTISTTRANSLIT:MINORI CHIHARA;
#GENRE:;
#CREDIT:DigiMindAxel;
#BANNER:YUKI, MUON, MADOBE NITE..png;
#BACKGROUND:YUKI, MUON, MADOBE NITE.-bg.png;
#LYRICSPATH:YUKI, MUON, MADOBE NITE..lrc;
#CDTITLE:DigiMindAxel original simfile.png;
#MUSIC:YUKI, MUON, MADOBE NITE..ogg;
#OFFSET:-0.679000;
#SAMPLESTART:70.920006;
#SAMPLELENGTH:12.020000;
#SELECTABLE:YES;
#DISPLAYBPM:140.000000;
#BPMS:0.000000=140.000000
;
#STOPS:
;
#BGCHANGES:-2.000=YUKI, MUON, MADOBE NITE..avi=1.000=1=0=0=StretchNoLoop==CrossFade==,
99999=-nosongbg-=1.000=0=0=0 // don't automatically add -songbackground-
;
#KEYSOUNDS:;
#ATTACKS:;

//---------------dance-single - ----------------
#NOTES:
     dance-single:
     :
     Medium:
     10:
     0.389180,0.481258,0.434897,0.049234,0.032822,332.000000,279.000000,53.000000,6.000000,0.000000,0.000000,0.389180,0.481258,0.434897,0.049234,0.032822,332.000000,279.000000,53.000000,6.000000,0.000000,0.000000:
0000
0000
0000
0000
,
0000
0000
0000
0000
,
0000
0000
0000
0000
,
0000
0000
0000
0000
,
0110
0000
0000
0000
0000
0000
0000
1000
,
1001
0000
0000
0000
0000
0000
0000
0100
,
0101
0000
0110
0000
,
1001
0000
0000
0110
0000
0000
1001
0000
0000
0000
0000
0000
0000
0000
0000
0000
,
0220
0000
0000
0000
,
0000
0000
0000
0330
,
0100
0010
1000
0000
0000
0000
0100
0010
,
0001
0100
0110
1001
,
0100
0001
1000
0001
0100
0001
1000
0001
,
0010
0001
1000
0001
0010
0001
1000
0010
,
0100
0001
1000
0000
0000
0000
0100
0010
,
0001
0000
0100
0101
,
0110
0000
0000
1001
0000
1001
0000
0110
,
0000
1000
0100
0010
0001
0010
0100
1000
,
0001
0001
0001
0000
0010
0000
1000
0000
,
0010
0001
1000
0010
,
0100
0100
0100
0000
0001
0000
0100
0000
,
1000
0100
0001
1000
,
0001
0000
0000
0000
1001
0000
0000
0000
0010
0100
0000
0000
1100
0000
0000
0000
,
0100
0000
0000
0000
0101
0000
0000
0000
1000
0010
0000
0000
0110
0000
0000
0000
,
0100
0000
0000
0000
0110
0000
0000
0000
0010
0001
0000
0000
1001
0000
0000
0000
,
0100
0000
0000
0000
1010
0000
0000
0000
0001
0100
0000
0000
1001
0000
0000
0000
,
0100
0010
0001
0000
1000
0000
1001
0000
,
0100
0001
1000
0000
0100
0010
0001
0000
,
0010
0001
1000
0001
0100
0010
1000
0010
,
0100
0001
1000
0000
0100
0010
0001
0000
,
2002
0000
0000
3003
,
0100
0010
0001
0000
1000
0000
1001
0000
,
0010
1000
0001
0000
0100
0000
0101
0000
,
0010
0001
0100
1000
,
0100
0001
0010
0100
,
1001
1000
0000
0000
0000
0000
0000
0000
,
1001
0001
0000
0000
0000
0000
0000
0000
,
1100
0000
0000
0001
1001
0000
0000
0100
,
0110
0101
1010
0110
,
2002
0000
0000
0000
,
0000
0000
0000
3003
,
0010
0100
0001
0000
1000
0000
0110
0000
,
0100
1000
0001
0000
0010
0000
0101
0000
,
1000
0010
0001
0010
,
1000
0001
0100
0010
,
0001
1000
0100
0000
0010
0000
0101
0000
,
0100
0010
1000
0000
1001
0000
0011
0000
,
0010
0100
0001
0000
0010
0100
1000
0000
,
1001
0011
1100
1001
,
0100
0010
1000
0001
0010
0100
1000
0000
,
0010
0100
0001
0010
0100
1000
0001
0000
,
0010
0001
0010
0000
0100
0010
0100
0000
,
1000
0001
1000
0001
0010
0100
1000
0000
,
1100
0001
0100
0001
,
0100
0010
1000
0000
0010
0100
0001
0000
,
1000
0000
0100
1000
0000
0000
0000
0000
0001
0000
0100
0001
0000
0000
0000
0000
,
0010
0100
1000
0100
0010
0100
1000
0000
,
1001
0000
0000
0000
0000
0000
0000
1000
,
1001
0000
0000
0000
0000
0000
0000
0010
,
0110
0000
0110
0000
,
1001
0000
0000
0110
0000
0000
1001
0000
0000
0000
0000
0000
0000
0000
0000
0000
,
0100
0010
1000
0001
,
0010
1000
0010
0001
,
1000
0010
1000
0100
,
0001
0100
1000
0001
,
0100
0000
0000
0010
0000
0100
0000
0001
,
0000
0010
0000
1000
0000
0010
0000
0001
,
0100
0000
0000
0010
0000
1000
0000
0100
,
0000
0001
0000
0100
0000
1000
0000
0001
,
0100
0000
0000
0000
;

//---------------dance-single - ----------------
#NOTES:
     dance-single:
     :
     Hard:
     13:
     0.532192,0.710297,0.303607,0.098467,0.160009,454.000000,417.000000,37.000000,12.000000,0.000000,0.000000,0.532192,0.710297,0.303607,0.098467,0.160009,454.000000,417.000000,37.000000,12.000000,0.000000,0.000000:
0000
0000
0000
0000
,
0000
0000
0000
0000
,
0000
0000
0000
0000
,
0000
0000
0000
0000
,
1002
0000
0000
0000
0000
0000
1003
0000
0010
0000
0000
0010
0000
0000
0100
0000
,
0001
0000
0000
0001
0000
0000
0010
0000
0100
0000
0000
0000
0000
0000
0000
0000
,
1001
0000
0110
0000
,
1001
0000
0000
0110
0000
0000
2002
0000
0000
0000
0000
0000
0000
0000
3003
0000
,
1000
0001
1000
0000
0001
1000
0001
0000
1000
0001
1000
0000
0001
1000
0001
0000
,
0010
0001
0010
0000
0100
0010
0100
0000
1000
0100
1000
0100
1000
0000
0000
0000
,
0001
0000
1000
0000
0001
0000
1000
0000
0000
0010
0100
0000
0101
0000
0000
0000
,
0010
0000
0100
0000
0010
0000
0100
0000
0000
0001
1000
0000
1001
0000
0000
0000
,
0001
0010
1000
0010
0001
0010
1000
0010
,
0001
0100
1000
0100
0001
0100
1000
0100
,
0001
0000
1000
0000
0010
0000
1000
0000
0000
0100
0010
0000
0110
0000
0000
0000
,
0001
0000
0010
0000
0001
0000
0010
0000
0000
0001
1000
0000
1001
0000
0000
0000
,
1000
0010
0001
0010
1000
0010
0001
0010
,
1000
0100
0001
0100
1000
0100
0001
0100
,
1000
0001
0010
0000
0100
0000
0010
0000
,
0100
0010
0100
1000
,
0010
1000
0001
0000
0010
0000
0001
0000
,
0010
0001
0010
0100
,
1000
0001
1001
0000
0100
0010
0001
0000
,
1000
0001
1001
0000
0010
0100
0001
0000
,
1000
0100
1100
0000
0010
0001
0100
0000
,
0001
0010
0011
0000
0100
1000
0010
0000
,
1000
0001
1000
0000
0100
0000
0010
0000
0100
0000
0010
0000
0001
0000
0000
0000
,
1000
0001
1000
0000
0010
0000
0100
0000
0010
0000
0100
0000
0001
0000
0000
0000
,
1000
1000
0001
0001
0100
0010
1000
0010
,
0100
0001
0010
0000
0100
1000
0001
0001
,
1000
0100
1000
0000
0100
0010
0100
0000
0010
0001
0010
0001
0010
0000
0000
0000
,
0001
1000
0010
1000
0001
0010
0100
0000
,
1000
0001
0100
0001
1000
0100
0010
0000
,
0200
1000
1300
0000
0020
0001
0031
0000
,
1000
0010
0100
0010
1000
0100
0010
0001
,
1000
0000
1000
0001
0000
0000
0000
0000
0000
0000
0000
0000
0000
0000
0100
0000
,
0001
0000
0001
1000
0000
0000
0000
0000
0000
0000
0000
0000
0000
0000
0010
0000
,
1000
0000
1000
0001
0000
0000
0010
0000
0001
0000
0001
1000
0000
0000
0001
0000
,
0100
1000
0100
0001
0010
0100
1000
1000
,
0001
1000
0001
0000
1000
0001
1000
0000
0001
1000
0001
0000
1000
0001
1000
0000
,
0010
1000
0010
0000
0100
0010
0100
0000
0001
0100
0001
0100
0001
0000
0000
0000
,
1000
1000
0010
0010
0100
0100
0001
0001
,
1000
1000
0001
0001
0010
0010
0100
0100
,
1000
0001
0101
0000
0010
1000
1100
0000
,
1010
0000
0101
0000
0011
0000
1100
1000
,
0001
0010
1000
0001
0010
0100
0001
0000
,
1000
0100
0001
1000
0100
0010
1000
0000
,
0100
0010
0001
0010
0100
0010
0001
0100
,
1001
0000
0110
0000
1001
0000
0110
0010
,
1000
1000
0001
0001
0100
0100
0010
0010
,
1000
1000
0001
0001
0010
0010
0100
0100
,
1000
0001
0101
0000
0010
1000
1100
0000
,
1001
0000
0110
0000
1001
0000
0110
0010
,
1000
0100
0010
0100
1000
0001
0100
0010
,
2002
0000
0000
3003
,
0001
0000
0001
1000
0000
0000
0000
0000
1000
0000
1000
0001
0000
0000
0000
0000
,
1001
0010
0100
1000
0001
0010
0100
0100
,
1002
0000
0000
0000
0000
0000
1003
0000
0100
0000
0000
0100
0000
0000
0100
0000
,
0010
0000
0000
0010
0000
0000
0010
0000
0002
0000
0000
0000
0000
0000
1003
0000
,
1002
0000
0000
0000
0000
0000
0103
0000
0010
0000
0000
0010
0000
0000
0010
0000
,
1001
0000
0000
0110
0000
0000
2002
0000
0000
0000
0000
0000
3003
0000
0000
0000
,
0010
0100
0010
0000
1000
0000
0010
0000
,
0001
0010
1000
0001
,
1000
0001
1000
0000
0100
0000
0001
0000
,
0100
1000
0001
0100
,
0001
1000
0001
0000
0010
0000
1000
0000
,
0010
0001
0100
0010
,
1000
0001
1000
0000
0100
0000
0001
0000
,
0100
1000
0010
0100
,
0001
1000
0001
0000
0000
0000
0000
0000
;

//---------------dance-single - ----------------
#NOTES:
     dance-single:
     :
     Easy:
     5:
     0.260235,0.312531,0.213346,0.131290,0.000000,222.000000,196.000000,26.000000,16.000000,0.000000,0.000000,0.260235,0.312531,0.213346,0.131290,0.000000,222.000000,196.000000,26.000000,16.000000,0.000000,0.000000:
0000
0000
0000
0000
,
0000
0000
0000
0000
,
0000
0000
0000
0000
,
0000
0000
0000
0000
,
1001
0000
0000
0000
,
0110
0000
0000
0000
,
1001
0000
1001
0000
,
0110
0000
0110
0000
,
2002
0000
0000
0000
,
0000
0000
0000
3003
,
0010
0100
0000
0001
,
0010
0001
1000
0100
,
1000
0010
0100
0001
,
0100
0010
1000
0001
,
0010
0100
0000
1000
,
0100
1000
0001
0010
,
0001
0100
0010
1000
,
0010
0100
0001
1000
,
1001
0000
1000
1000
,
0001
0001
0100
0100
,
0110
0000
0010
0010
,
0100
0100
0001
0001
,
1001
1000
0100
1000
,
0001
0100
0001
0001
,
0010
0100
0010
0010
,
0001
0100
0001
0001
,
0100
0001
0001
0001
,
0010
0001
0100
0100
,
0010
1000
0100
0010
,
0001
1000
0001
0001
,
2002
0000
0000
3003
,
0010
0100
0010
0100
,
0001
1000
0001
1000
,
0100
1000
0100
1000
,
0010
0100
0010
0100
,
0220
0000
0000
0330
,
2002
0000
0000
3003
,
0110
0000
0110
0000
,
1001
0000
1001
0000
,
2002
0000
0000
0000
,
0000
0000
0000
3003
,
0100
0001
0001
0001
,
0001
0001
1000
1000
,
0100
1000
1000
0100
,
1000
0001
0010
1000
,
0010
0001
0010
0100
,
1000
0001
0001
0001
,
0100
0100
0010
0010
,
1000
0100
0001
0100
,
1000
1000
0001
0001
,
1000
1000
0001
0001
,
0100
1000
0100
0001
,
0010
0100
0100
1000
,
0001
1000
0001
0100
,
0100
0001
0010
0010
,
1001
0000
0110
0000
,
1001
0001
1000
1000
,
0220
0000
0000
0330
,
2002
0000
0000
3003
,
0110
0000
0110
0000
,
0220
0000
0000
0330
,
0010
0010
0100
0100
,
1000
0001
0100
0010
,
1000
1000
0001
0001
,
0010
0100
1000
0001
,
0100
0100
0000
0000
,
0000
0000
0000
0000
,
0010
0010
0000
0000
,
0000
0000
0000
0000
,
1000
1000
0000
0000
;

//---------------dance-single - ----------------
#NOTES:
     dance-single:
     :
     Challenge:
     15:
     0.760776,0.937592,0.278990,0.336430,0.759018,649.000000,615.000000,34.000000,41.000000,0.000000,0.000000,0.760776,0.937592,0.278990,0.336430,0.759018,649.000000,615.000000,34.000000,41.000000,0.000000,0.000000:
0000
0000
0000
0000
,
0000
0000
0000
0000
,
0000
0000
0000
0000
,
0000
0000
0000
0000
,
0201
0000
0000
0000
0000
0000
0310
0000
1000
0000
0000
0100
0000
0000
0010
0000
,
1002
0000
0000
1000
0000
0000
1000
0000
0200
0000
0000
0000
0303
0000
0010
0000
,
0220
0000
0000
0000
0000
0000
0330
0000
0101
0000
0000
0010
0000
0000
0100
0000
,
1001
0000
0000
0110
0000
0000
2002
0000
0000
0000
0000
0000
0000
0000
3003
0000
,
0001
0010
0001
0010
0100
1000
0100
1000
0001
0100
0001
0100
0010
1000
0010
1000
,
0100
0010
0100
0010
0001
1000
0001
1000
0010
0100
0010
0100
0002
0000
0000
0000
,
1003
0010
0100
0010
2000
0000
0000
0000
3001
0010
0001
0000
1000
0000
0010
0100
,
0002
0000
0000
0000
0100
0000
0000
0000
1003
0010
1000
0000
1001
0000
0000
0000
,
0001
0100
0010
0000
0010
0100
0010
0000
1000
0100
0010
0000
0010
0001
0010
0000
,
0001
0100
0010
0000
0010
1000
0010
0000
1000
0001
0010
0000
0010
0100
0010
0100
,
1000
0001
0100
0001
2000
0000
0000
0000
3001
0010
0001
0000
1000
0000
0100
0010
,
0002
0000
0000
0000
0100
0000
0000
0000
1003
0100
1000
0000
1001
0000
0000
0000
,
0010
0001
0010
0000
0010
0100
1000
0000
0010
1000
0010
0000
0010
0100
0001
0000
,
1000
0100
0010
0000
0010
0001
0010
0000
0001
0100
0010
0000
0010
0100
0010
0100
,
0001
0000
0001
0000
0001
0000
1000
0010
0000
0000
0100
0001
0000
0000
0010
0100
,
0000
0000
1000
0100
0000
0000
0010
0001
0000
0000
0100
0010
0000
0000
1000
0100
,
1000
0000
1000
0000
1000
0000
0001
0100
0000
0000
0001
1000
0000
0000
0100
0010
,
0000
0000
0001
0100
0000
0000
0010
1000
0000
0000
0100
0010
0000
0000
0001
0010
,
0001
0000
1000
0000
1001
0000
0000
0000
0100
1000
0010
0000
1010
0000
0000
0000
,
0100
0000
0001
0000
0101
0000
0000
0000
0010
0100
1000
0000
1100
0000
0000
0000
,
0010
0000
0001
0000
0101
0000
0000
0000
0010
1000
0100
0000
1100
0000
0000
0000
,
0010
0000
0001
0000
0011
0000
0000
0000
0100
0010
1000
0000
1000
0000
0001
1000
,
0001
0010
0001
0000
1000
0000
0010
0100
0000
0010
0100
0000
0001
0000
0000
0000
,
1000
0100
1000
0000
0001
0000
0100
0010
0000
0100
0010
0000
1000
0000
0001
1000
,
0001
0100
1000
0100
0001
0010
0100
1000
,
0010
1000
0010
0000
1000
0000
0001
0000
0010
0001
0010
0000
0100
0000
0100
0010
,
1000
0100
1000
0100
0010
0001
0010
0001
1000
0010
1000
0010
0100
0001
0010
0100
,
1002
0000
0000
0000
0100
0000
0103
0000
0010
0100
0010
0000
1000
0100
0010
0001
,
2000
0000
0000
0000
0010
0000
3010
0000
0100
0010
0100
0000
0001
0010
0100
1000
,
0002
0000
0000
0000
0100
0000
0103
0000
0010
0100
0010
0000
1000
0100
0010
0001
,
2000
0000
0000
0000
0010
0000
3010
0000
0100
0010
0100
0000
0001
0010
0100
1000
,
0001
0000
0001
0001
2000
0000
0000
0000
3200
0000
0000
0320
0000
0000
0031
0000
,
1000
0000
1000
1000
0002
0000
0000
0000
0023
0000
0000
0230
0000
0000
1300
0000
,
1001
0010
0100
1000
1001
0100
0010
0001
,
0101
0000
0100
0000
0110
0000
0010
0000
1010
0000
1010
0000
1000
0001
1000
0001
,
1000
0010
1000
0010
0100
0001
0100
0001
0010
0100
0010
0100
1000
0001
1000
0001
,
1000
0100
0010
0001
1000
0100
0010
0001
0010
0100
1000
0001
0100
0010
0100
0001
,
1000
0000
1000
0000
0001
0000
0001
0000
0010
0001
1000
0000
0100
0010
0001
0000
,
0100
0000
0100
0000
0010
0000
0010
0000
1000
0010
0100
0000
0010
0100
0001
0000
,
1000
0100
1000
0100
1000
0000
0000
0000
0001
0010
0001
0010
0001
0000
1000
0100
,
0020
0000
0001
0000
0032
0000
0100
0000
0203
0000
0010
0000
0310
1000
0100
0010
,
0001
1000
0001
0000
0100
0000
0010
0000
0100
0001
1000
0000
0100
0000
1000
0000
,
0001
1000
0001
0000
0010
0000
0100
0000
1000
0001
0100
0000
0001
0000
1000
0001
,
2000
0100
3200
0010
0320
0001
0032
1000
,
1003
0010
0100
0001
1000
0100
0010
0100
1000
0010
0100
0001
1000
0100
0010
0001
,
1000
0000
1000
0000
0010
0000
0010
0000
0100
0001
1000
0000
0100
1000
0100
0000
,
0010
0000
0010
0000
0001
0000
0001
0000
0100
0001
1000
0000
0100
0010
0100
0000
,
1000
0010
1000
0010
1000
0000
0000
0000
0001
0100
0001
0100
0001
0000
0010
0100
,
1000
0001
0100
0000
0001
1000
0100
0000
1000
0100
0010
0000
0001
0010
0100
1000
,
0001
0000
0001
0000
0100
0000
0100
0000
0010
1000
0100
0000
0010
0100
0010
0000
,
1001
0000
0001
0000
0100
0001
0000
0100
0001
0000
1000
0000
0100
1000
0100
1000
,
0010
0000
0010
0010
0000
0000
0000
0000
0100
0000
0100
0100
0000
0000
0001
0000
,
1001
0000
1000
0000
1100
0000
0100
0000
0110
0000
0110
0000
0001
0010
0100
1000
,
0002
0000
0000
0000
0000
0000
0013
0000
0200
0000
0000
2300
0000
0000
3010
0000
,
1002
0000
0000
0203
0000
0000
0310
0000
2000
0000
0000
0000
3000
0000
0001
0000
,
2002
0000
0000
0000
0000
0000
3003
0000
0120
0000
0000
2030
0000
0000
3100
0000
,
1001
0000
0000
0110
0000
0000
1001
0000
0001
0000
0001
0000
0001
0100
0010
1000
,
0001
0000
0001
0000
0001
0000
1000
0100
0010
0000
0010
0001
1000
0000
0001
0010
,
0100
0000
0100
1000
0001
0000
1000
0010
0100
0000
0100
0001
0100
0000
0001
1000
,
0100
0000
0100
0000
0100
0000
1000
0010
0100
0000
0100
0001
1000
0000
0001
0010
,
0100
0000
0100
1000
0001
0000
0010
0100
1000
0000
1000
0001
0010
0000
0010
0001
,
0100
0100
0200
0001
0000
0010
0000
1000
,
0000
0010
0000
0001
0000
0010
0000
1300
,
0010
0010
0020
0001
0000
0100
0000
1000
,
0000
0100
0000
0001
0000
0100
0000
1030
,
0100
0100
0100
0000
0000
0000
0000
0000
;

//---------------dance-single - ----------------
#NOTES:
     dance-single:
     :
     Beginner:
     2:
     0.097295,0.169856,0.180523,0.000000,0.000000,83.000000,61.000000,22.000000,0.000000,0.000000,0.000000,0.097295,0.169856,0.180523,0.000000,0.000000,83.000000,61.000000,22.000000,0.000000,0.000000,0.000000:
// measure 0
0000
0000
0000
0000
,  // measure 1
0000
0000
0000
0000
,  // measure 2
0000
0000
0000
0000
,  // measure 3
0000
0000
0000
0000
,  // measure 4
1001
0000
0000
0000
,  // measure 5
1001
0000
0000
0000
,  // measure 6
0110
0000
0000
0000
,  // measure 7
0110
0000
0000
0000
,  // measure 8
0000
0000
0000
0000
,  // measure 9
0000
0000
0000
0000
,  // measure 10
0001
0000
0000
0000
,  // measure 11
0010
0000
0000
0000
,  // measure 12
0100
0000
0100
0000
,  // measure 13
0100
0000
0100
0000
,  // measure 14
1000
0000
0000
0000
,  // measure 15
0010
0000
0000
0000
,  // measure 16
0100
0000
0100
0000
,  // measure 17
0100
0000
0100
0000
,  // measure 18
1001
0000
0000
0000
,  // measure 19
0000
0000
0000
0000
,  // measure 20
0001
0000
0000
0000
,  // measure 21
0000
0000
0000
0000
,  // measure 22
1001
0000
0000
0000
,  // measure 23
1000
0000
0000
0000
,  // measure 24
0010
0000
0000
0000
,  // measure 25
0100
0000
0000
0000
,  // measure 26
1001
0000
0000
0000
,  // measure 27
0001
0000
0000
0000
,  // measure 28
0010
0000
0000
0000
,  // measure 29
0100
0000
0000
0000
,  // measure 30
1001
0000
0000
0000
,  // measure 31
0001
0000
0000
0000
,  // measure 32
0010
0000
0000
0000
,  // measure 33
0001
0000
0000
0000
,  // measure 34
0100
0000
0000
0000
,  // measure 35
0110
0000
0000
0000
,  // measure 36
0110
0000
0000
0000
,  // measure 37
1001
0000
0000
0000
,  // measure 38
1001
0000
0000
0000
,  // measure 39
0000
0000
0000
0000
,  // measure 40
0000
0000
0000
0000
,  // measure 41
1000
0000
0000
0000
,  // measure 42
0010
0000
0000
0000
,  // measure 43
0100
0000
0000
0000
,  // measure 44
0010
0000
0000
0000
,  // measure 45
1001
0000
0000
0000
,  // measure 46
0001
0000
0000
0000
,  // measure 47
1000
0000
0000
0000
,  // measure 48
0010
0000
0010
0000
,  // measure 49
0110
0000
0000
0000
,  // measure 50
0100
0000
0000
0000
,  // measure 51
0001
0000
0000
0000
,  // measure 52
0001
0000
0000
0000
,  // measure 53
1001
0000
0000
0000
,  // measure 54
1001
0000
0000
0000
,  // measure 55
0110
0000
0000
0000
,  // measure 56
0110
0000
0000
0000
,  // measure 57
1001
0000
0000
0000
,  // measure 58
1001
0000
0000
0000
,  // measure 59
0110
0000
0000
0000
,  // measure 60
0110
0000
0000
0000
,  // measure 61
0100
0000
0000
0000
,  // measure 62
0000
0000
0000
0000
,  // measure 63
0010
0000
0000
0000
,  // measure 64
0000
0000
0000
0000
,  // measure 65
0100
0000
0000
0000
,  // measure 66
0000
0000
0000
0000
,  // measure 67
0001
0000
0000
0000
,  // measure 68
0000
0000
0000
0000
,  // measure 69
1000
0000
0000
0000
;
